\m/ 80's metal \m/

Информационно-аналитический форум "80 см пыли" (In Search We Trust) "У нас никто никуда не спешит"
Me For You - http://me-4u.com
It is currently 10 Aug 2020

All times are UTC + 3 hours

Spoiler
Chat - temporary registration for foreign users (please leave your application here)





Forum rules


Уважаемые пользователи ресурса, друзья, коллеги и гости нашего форума. Данный раздел конференции создан с целью рафинации, и посвящён такому стилевому направлению в музыке, как Thrash Metal во всех его проявлениях и ипостасях, а иногда и переходящему на пограничные стили Speed, Power, Groove, Crossover, MDM и т.п.
Главное правило здесь одно: Одна группа – одна тема! Всё остальное созвучно основным нормам поведения на конференции.
Шаблон оформления тем в этом подфоруме должен быть основан на данных сайта www.metal-archives.com и выглядеть следующим образом:

Группа (Страна) - Стилевые рамки - дискография
Slayer (USA) - Thrash Metal - дискография


В теме допустимо размещение всей информации касающейся данного коллектива: анонсы любых альбомов в любых форматах, запросы любых релизов коллектива (кроме релизов текущего и прошлого годов), обсуждения, обзоры, а в остальном всё как обычно. Уважаем друг друга, не грубим, соблюдаем нормы поведения на конференции, оформляем анонсы и запросы красиво и информативно, что бы модераторы не посчитали их троллингом, и не отправили куда положено, выписав Вам предупреждение или ещё что похуже… Прежде чем что-то запросить или запостить, пользуемся поиском! Пользуемся поиском! ПОЛЬЗУЕМСЯ ПОИСКОМ!!! Так слышно меня?.. :pardon:
Интересного, конструктивного и креативного общения! ;)

Image



Post new topic Reply to topic  [ 50 posts ]  Go to page 1, 2, 3  Next
Author Message
 
PostPosted: 23 Aug 2009 
Хиппей (support team)
User avatar
Joined: 30 Jul 2007
Posts: 119135
Lоcаtion: Киев (Kyiv, UA)
Age: 47
Name: Andrey
Anihilated - 1988 - Created In Hate (reissued 2008)

    Image

Genre: Thrash Metal
Location: England
Format: flac+cue+log+scans (92 Mb)
Size: 580 Mb


Quote:
Reissued in 2008 by Marquee Rec.


Line-up:
Simon Cobb - vocals & guitars
Mark Beuchet - guitars
Lee Hittman - bass
Paul "Bod" Rodwell - drums

    1. Chase the Dragon
    2. Slaughter
    3. Power Is the Path
    4. Anihilated
    5. Final Dawn
    6. Nitemare
    7. Aftermath
    8. Seventh Vial
    9. Slaughter (live)
    10. Final Dawn (live)
    11. Seventh Vial (live)
    12. Nitemare (live)

    TPT: 57:53

Mega
Narod

Источник - torrents.ru (релизёр - paranthropus)

Кратко - качественный (временами технотрэшевый) британский ответ группе Slayer :true:

log
Отчёт EAC об извлечении, выполненном 7. июня 2009, 15:01 для диска:
Anihilated / Created in Hate

Дисковод: HL-DT-STDVDRAM GSA-H42N Adapter: 4 ID: 0
Режим чтения: Достоверный (C2: нет, Точный поток: да, Отключение кэша: да)
Коррекция смещения при чтении: 667
Способность читать области Lead-in и Lead-out : Нет

Выходной формат: Внутренние WAV-операции
44.100 Гц; 16 бит; стерео

Другие параметры:
Заполнение пропущенных сэмплов тишиной : Да
Удаление блоков с тишиной в начале и конце : Нет
Установленный внешний ASPI-интерфейс


Характеристики диапазона извлечения и сообщения об ошибках
Выбранный диапазон
Имя файла E:\EAC\Anihilated - Created in Hate.wav

Пиковый уровень 98.8 %
Качество диапазона 100.0 %
CRC 3F2E0636
Копирование... OK

Ошибок не произошло

Конец отчёта

cue
REM GENRE "Thrash Metal"
REM DATE 2008
REM DISCID B10D910C
REM COMMENT "ExactAudioCopy v0.95b4"
PERFORMER "Anihilated"
TITLE "Created in Hate"
FILE "Anihilated - Created in Hate.flac" WAVE
TRACK 01 AUDIO
TITLE "Chase the Dragon"
PERFORMER "Anihilated"
ISRC BRTIQ0800061
INDEX 01 00:00:00
TRACK 02 AUDIO
TITLE "Slaughter"
PERFORMER "Anihilated"
ISRC BRTIQ0800062
INDEX 00 04:10:19
INDEX 01 04:12:19
TRACK 03 AUDIO
TITLE "Power Is the Path"
PERFORMER "Anihilated"
ISRC BRTIQ0800063
INDEX 00 09:27:62
INDEX 01 09:29:62
TRACK 04 AUDIO
TITLE "Anihilated "
PERFORMER "Anihilated"
ISRC BRTIQ0800064
INDEX 01 13:46:72
TRACK 05 AUDIO
TITLE "Final Dawn"
PERFORMER "Anihilated"
ISRC BRTIQ0800065
INDEX 00 19:33:08
INDEX 01 19:35:08
TRACK 06 AUDIO
TITLE "Nitemare"
PERFORMER "Anihilated"
ISRC BRTIQ0800066
INDEX 00 24:09:18
INDEX 01 24:11:18
TRACK 07 AUDIO
TITLE "Aftermath"
PERFORMER "Anihilated"
ISRC BRTIQ0800067
INDEX 00 29:23:10
INDEX 01 29:25:10
TRACK 08 AUDIO
TITLE "Seventh Vial"
PERFORMER "Anihilated"
ISRC BRTIQ0800068
INDEX 00 34:14:67
INDEX 01 34:16:67
TRACK 09 AUDIO
TITLE "Slaughter [live]"
PERFORMER "Anihilated"
ISRC BRTIQ0800069
INDEX 00 39:31:64
INDEX 01 39:33:64
TRACK 10 AUDIO
TITLE "Final Dawn [live]"
PERFORMER "Anihilated"
ISRC BRTIQ0800070
INDEX 01 44:59:71
TRACK 11 AUDIO
TITLE "Seventh Vial [live]"
PERFORMER "Anihilated"
ISRC BRTIQ0800071
INDEX 01 49:23:06
TRACK 12 AUDIO
TITLE "Nitemare [live]"
PERFORMER "Anihilated"
ISRC BRTIQ0800072
INDEX 01 52:56:28

_________________


Top
 Profile E-mail  
 
 
PostPosted: 23 Aug 2009 
Работнечег
User avatar
Joined: 28 Aug 2007
Posts: 6359
Lоcаtion: г. Москва
Age: 31
Name: Дима
Спасибо Андрей! :thanx:


Top
 Profile E-mail  
 
 
PostPosted: 23 Aug 2009 
.
User avatar
Joined: 25 Aug 2007
Posts: 568
Lоcаtion: Москва
Age: 108
Name: Kostolom
Дякую. Эннайалэйтед рулит. :)


Top
 Profile  
 
 
PostPosted: 26 Aug 2009 
Хиппей (support team)
User avatar
Joined: 30 Jul 2007
Posts: 119135
Lоcаtion: Киев (Kyiv, UA)
Age: 47
Name: Andrey
Anihilated - 1986 - Path To Destruction [comp.] (reissued 2006) [flac]

    Image

Genre: Hardcore/Thrash/Crossover
Location: England
Format: flac+cue+log+scans
Size: 420 Mb


    Path to Destruction (EP) 1986

    1. Innocent Victims
    2. Anihilated
    3. Thunderflash
    4. Shadows of Fear

    Speedwell (demo) 1985

    5. 40 Dumb Amimals
    6. Ethiopia
    7. Thunderflash
    8. Inferno
    9. Shadows of Fear

    Live

    10. Thunderflash
    11. 40 Dumb Animals
    12. Ethiopia
    13. Anihilated

    TPT: 54:24

Mega
Narod

Источник: torrents.ru

Сборка первых записей группы, когда она еще наяривала приличный кроссовер. Звук, саунд, то есть, запись, естественно, та еще - гаражная, поэтому, что слушать лося, что мп-тря, без разницы.
Но материал очень понравился :true:


log
Отчёт EAC об извлечении, выполненном 7. июня 2009, 13:44 для диска:
Anihilated / Path To Destruction (reissue)

Дисковод: HL-DT-STDVDRAM GSA-H42N Adapter: 4 ID: 0
Режим чтения: Достоверный (C2: нет, Точный поток: да, Отключение кэша: да)
Коррекция смещения при чтении: 667
Способность читать области Lead-in и Lead-out : Нет

Выходной формат: Внутренние WAV-операции
44.100 Гц; 16 бит; стерео

Другие параметры:
Заполнение пропущенных сэмплов тишиной : Да
Удаление блоков с тишиной в начале и конце : Нет
Установленный внешний ASPI-интерфейс


Характеристики диапазона извлечения и сообщения об ошибках
Выбранный диапазон
Имя файла E:\EAC\Anihilated - Path To Destruction (reissue).wav

Пиковый уровень 100.0 %
Качество диапазона 100.0 %
CRC B1ED9648
Копирование... OK

Ошибок не произошло

Конец отчёта

cue
REM GENRE "Thrash Metal"
REM DATE 2006
REM DISCID BD0CC00D
REM COMMENT "ExactAudioCopy v0.95b4"
PERFORMER "Anihilated"
TITLE "Path To Destruction (reissue)"
FILE "Anihilated - Path To Destruction (reissue).flac" WAVE
TRACK 01 AUDIO
TITLE "Innocent Victims"
PERFORMER "Anihilated"
INDEX 01 00:00:00
TRACK 02 AUDIO
TITLE "Anihilated"
PERFORMER "Anihilated"
INDEX 01 05:25:07
TRACK 03 AUDIO
TITLE "Thunderflash"
PERFORMER "Anihilated"
INDEX 01 11:39:27
TRACK 04 AUDIO
TITLE "Shadows Of Fear"
PERFORMER "Anihilated"
INDEX 01 15:21:13
TRACK 05 AUDIO
TITLE "40 Dumb Animals (demo)"
PERFORMER "Anihilated"
INDEX 01 19:26:68
TRACK 06 AUDIO
TITLE "Ethiopia (demo)"
PERFORMER "Anihilated"
INDEX 01 23:01:24
TRACK 07 AUDIO
TITLE "Thunderflash (demo)"
PERFORMER "Anihilated"
INDEX 01 25:39:32
TRACK 08 AUDIO
TITLE "Inferno (demo)"
PERFORMER "Anihilated"
INDEX 01 29:43:10
TRACK 09 AUDIO
TITLE "Shadows Of Fear (demo)"
PERFORMER "Anihilated"
INDEX 01 33:44:54
TRACK 10 AUDIO
TITLE "Thunderflash (live)"
PERFORMER "Anihilated"
INDEX 01 37:21:46
TRACK 11 AUDIO
TITLE "40 Dumb Animals (live)"
PERFORMER "Anihilated"
INDEX 01 41:17:35
TRACK 12 AUDIO
TITLE "Ethiopia (live)"
PERFORMER "Anihilated"
INDEX 01 44:55:13
TRACK 13 AUDIO
TITLE "Anihilated (live)"
PERFORMER "Anihilated"
INDEX 01 47:54:65

_________________


Top
 Profile E-mail  
 
 
PostPosted: 27 Aug 2009 
Анатолий
User avatar
Joined: 18 Oct 2008
Posts: 3863
Lоcаtion: Армавир
Age: 43
Name: Анатолий
Альбом безусловно достойный!

Но вот качество этого издания всё-таки оставляет желать лучшего. Незнаю с чего делали этот CD, похоже что с винила, сам по себе звук на троечку, плюс артифакты имеют место быть.

Второй трек: 4:42, 4:57, 5:03 - потрескивания похожие на электические разряды. 5:12 тоже самое, но тут отчётливее слышно, потому как конец композиции.


Top
 Profile E-mail  
 
 
PostPosted: 27 Aug 2009 
Хиппей (support team)
User avatar
Joined: 30 Jul 2007
Posts: 119135
Lоcаtion: Киев (Kyiv, UA)
Age: 47
Name: Andrey
Privateer wrote:
качество этого издания всё-таки оставляет желать лучшего

Вообще все три переизданных альбома звучат плохенько.

Теперь интересует вопрос, как два полнометражных альбома звучат на первом переиздании... :scratch:

_________________


Top
 Profile E-mail  
 
 
PostPosted: 27 Aug 2009 
Хиппей (support team)
User avatar
Joined: 30 Jul 2007
Posts: 119135
Lоcаtion: Киев (Kyiv, UA)
Age: 47
Name: Andrey
Anihilated - 1989 - The Ultimate Desecration (reissued 2008)

Image

Genre: Thrash Metal
Location: England
Format: flac+cue+log+scans
Size: 568 Mb


Quote:
Ressued by Marquee records


    1. Desolation
    2. Into the Flames of Armageddon
    3. Skinned Alive
    4. Lost Souls
    5. Lethal Dose
    6. No Rest for the Wicked
    7. Internal Darkness
    8. Legacy of Hate
    9. Enter the Realm
    10. Exeunt
    11. Bloodsport (live)
    12. Shattered (live)
    13. No rest for the wicked (live)


    TPT: 52:25

Mega
Narod

Альбом получился более техничным, но и немного скучноватым. Звук записи плохенький, но, скорее всего, таким он и был изначально (похоже по звучанию на Металлику 1983 - такой же специфический саунд, как бы удаленно всё и плоско).
Ребята чуть отошли от корирования Slayer, благодаря более техничной игре соло-гитариста, но влияние американских грандов стиля проскакивает и здесь.
Релиз на крепкую четверочку.


Источник - torrents.ru

log
Отчёт EAC об извлечении, выполненном 7. июня 2009, 14:11 для диска:
Anihilated / The Ultimate Desecration

Дисковод: HL-DT-STDVDRAM GSA-H42N Adapter: 4 ID: 0
Режим чтения: Достоверный (C2: нет, Точный поток: да, Отключение кэша: да)
Коррекция смещения при чтении: 667
Способность читать области Lead-in и Lead-out : Нет

Выходной формат: Внутренние WAV-операции
44.100 Гц; 16 бит; стерео

Другие параметры:
Заполнение пропущенных сэмплов тишиной : Да
Удаление блоков с тишиной в начале и конце : Нет
Установленный внешний ASPI-интерфейс


Характеристики диапазона извлечения и сообщения об ошибках
Выбранный диапазон
Имя файла E:\EAC\Anihilated - The Ultimate Desecration.wav

Пиковый уровень 98.8 %
Качество диапазона 100.0 %
CRC F52C6B45
Копирование... OK

Ошибок не произошло

Конец отчёта

cue
REM GENRE "Thrash Metal"
REM DATE 2008
REM DISCID B50D590D
REM COMMENT "ExactAudioCopy v0.95b4"
PERFORMER "Anihilated"
TITLE "The Ultimate Desecration"
FILE "Anihilated - The Ultimate Desecration.flac" WAVE
TRACK 01 AUDIO
TITLE "Desolation"
PERFORMER "Anihilated"
ISRC BRTIQ0800073
INDEX 01 00:00:00
TRACK 02 AUDIO
TITLE "Into the Flames of Armageddon"
PERFORMER "Anihilated"
ISRC BRTIQ0800074
INDEX 00 02:37:42
INDEX 01 02:39:42
TRACK 03 AUDIO
TITLE "Skinned Alive"
PERFORMER "Anihilated"
ISRC BRTIQ0800075
INDEX 00 07:23:20
INDEX 01 07:25:20
TRACK 04 AUDIO
TITLE "Lost Souls"
PERFORMER "Anihilated"
ISRC BRTIQ0800076
INDEX 00 12:38:29
INDEX 01 12:40:29
TRACK 05 AUDIO
TITLE "Lethal Dose"
PERFORMER "Anihilated"
ISRC BRTIQ0800077
INDEX 00 17:07:27
INDEX 01 17:09:27
TRACK 06 AUDIO
TITLE "No Rest for the Wicked"
PERFORMER "Anihilated"
ISRC BRTIQ0800078
INDEX 00 21:20:44
INDEX 01 21:22:44
TRACK 07 AUDIO
TITLE "Internal Darkness"
PERFORMER "Anihilated"
ISRC BRTIQ0800079
INDEX 00 25:43:26
INDEX 01 25:45:26
TRACK 08 AUDIO
TITLE "Legacy of Hate"
PERFORMER "Anihilated"
ISRC BRTIQ0800080
INDEX 00 32:24:50
INDEX 01 32:26:50
TRACK 09 AUDIO
TITLE "Enter the Realm"
PERFORMER "Anihilated"
ISRC BRTIQ0800081
INDEX 00 36:31:68
INDEX 01 36:33:68
TRACK 10 AUDIO
TITLE "Exeunt"
PERFORMER "Anihilated"
ISRC BRTIQ0800082
INDEX 00 42:15:31
INDEX 01 42:17:31
TRACK 11 AUDIO
TITLE "Bloodsport [live]"
PERFORMER "Anihilated"
ISRC BRTIQ0800083
INDEX 01 43:39:05
TRACK 12 AUDIO
TITLE "Shattered [live]"
PERFORMER "Anihilated"
ISRC BRTIQ0800084
INDEX 01 47:33:60
TRACK 13 AUDIO
TITLE "No rest for the wicked [live]"
PERFORMER "Anihilated"
ISRC BRTIQ0800085
INDEX 01 52:25:52

_________________


Top
 Profile E-mail  
 
 
PostPosted: 27 Aug 2009 
Анатолий
User avatar
Joined: 18 Oct 2008
Posts: 3863
Lоcаtion: Армавир
Age: 43
Name: Анатолий
Scatterbrain wrote:
Теперь интересует вопрос, как два полнометражных альбома звучат на первом переиздании...


Информацию о первом переиздании в студию! ;)


Top
 Profile E-mail  
 
 
PostPosted: 27 Aug 2009 
Анатолий
User avatar
Joined: 18 Oct 2008
Posts: 3863
Lоcаtion: Армавир
Age: 43
Name: Анатолий
Согласен, может быть второй альбом получился и не таким весёлым как дебютник, однако положительные эмоции в себе несёт, что не может не радовать любителя стиля Thrash metal.

И опять таки, не обошлось в этом издании без ляпсуса. Между первым и вторым треками как бы случайно вклинилась пауза. Её там быть не должно, треки в оригинале идут слитно.


Top
 Profile E-mail  
 
 
PostPosted: 27 Aug 2009 
Хиппей (support team)
User avatar
Joined: 30 Jul 2007
Posts: 119135
Lоcаtion: Киев (Kyiv, UA)
Age: 47
Name: Andrey
Ну пауза такое дело, мне лично не резала слух.
И опять же, хочется услышать оригинальное издание альбома на CD...

_________________


Top
 Profile E-mail  
 
 
PostPosted: 27 Aug 2009 
Анатолий
User avatar
Joined: 18 Oct 2008
Posts: 3863
Lоcаtion: Армавир
Age: 43
Name: Анатолий
Scatterbrain wrote:
И опять же, хочется услышать оригинальное издание альбома на CD...


А было ли оно вообще?


Top
 Profile E-mail  
 
 
PostPosted: 27 Aug 2009 
Хиппей (support team)
User avatar
Joined: 30 Jul 2007
Posts: 119135
Lоcаtion: Киев (Kyiv, UA)
Age: 47
Name: Andrey
Privateer wrote:
А было ли оно вообще?

Ага, но не в 88-м, а спустя 10 лет на каком-то малоизвестном лэйбле.
MetalWorks видать только винилы штамповали.

_________________


Top
 Profile E-mail  
 
 
PostPosted: 28 Aug 2009 
Хиппей (support team)
User avatar
Joined: 30 Jul 2007
Posts: 119135
Lоcаtion: Киев (Kyiv, UA)
Age: 47
Name: Andrey
На М-А частично есть.
Завтра пороюсь тщательнее.

_________________


Top
 Profile E-mail  
 
 
PostPosted: 28 Aug 2009 
Анатолий
User avatar
Joined: 18 Oct 2008
Posts: 3863
Lоcаtion: Армавир
Age: 43
Name: Анатолий
Scatterbrain wrote:
Ага, но не в 88-м, а спустя 10 лет на каком-то малоизвестном лэйбле.


Это само по себе уже говорит о многом... какой-то малоизвестный лэйбл... :fingal:


Top
 Profile E-mail  
 
 
PostPosted: 28 Aug 2009 
Анатолий
User avatar
Joined: 18 Oct 2008
Posts: 3863
Lоcаtion: Армавир
Age: 43
Name: Анатолий
Quote:
Re-released on CDR in 2005. Available throguh the official site.


Вот это бы было интересно послушать.


Top
 Profile E-mail  
 
 
PostPosted: 28 Aug 2009 
Хиппей (support team)
User avatar
Joined: 30 Jul 2007
Posts: 119135
Lоcаtion: Киев (Kyiv, UA)
Age: 47
Name: Andrey
Ха, лэйбл известный, а вот что (кто?) такое Ziggy Lentil, я так и не понял :fingal: Владелец Марки рекордз?

http://www.marquee.com.br/english/titul ... 0843182154

_________________


Top
 Profile E-mail  
 
 
PostPosted: 28 Aug 2009 
Хиппей (support team)
User avatar
Joined: 30 Jul 2007
Posts: 119135
Lоcаtion: Киев (Kyiv, UA)
Age: 47
Name: Andrey
Privateer wrote:
throguh

Хи, щас исправлю опечатку на М-А =))

А вообще, думаю, что на той сдр-ке тож запись была не фонтан. Но поискать её не помешает :dance:

_________________


Top
 Profile E-mail  
 
 
PostPosted: 03 Sep 2009 
Хиппей (support team)
User avatar
Joined: 30 Jul 2007
Posts: 119135
Lоcаtion: Киев (Kyiv, UA)
Age: 47
Name: Andrey
Image

:shok: :shok: :shok: Охренеть. Я такого еще не видел. Обычно с этого форума файлы скачивают максимум 3-10 человек, а тут прям нашествие личерское. И это радует :true:

_________________


Top
 Profile E-mail  
 
 
PostPosted: 03 Sep 2009 
А может смените мне статус?..
Joined: 03 Jul 2009
Posts: 897
Lоcаtion: Serbia
Name: Laki
Thanks


Top
 Profile E-mail  
 
 
PostPosted: 03 Sep 2009 
А может смените мне статус?..
Joined: 03 Jul 2009
Posts: 897
Lоcаtion: Serbia
Name: Laki
Thanks for Anihilated - 1989!!!


Top
 Profile E-mail  
 
Display posts from previous:  Sort by  
Post new topic Reply to topic  [ 50 posts ]  Go to page 1, 2, 3  Next

All times are UTC + 3 hours


Who is online

Users browsing this forum: No registered users and 1 guest


You cannot post new topics in this forum
You cannot reply to topics in this forum
You cannot edit your posts in this forum
You cannot delete your posts in this forum
You cannot post attachments in this forum

Search for:
Яндекс.Метрика
Powered by phpBB © 2000, 2002, 2005, 2007 phpBB Group