\m/ 80's metal \m/

Информационно-аналитический форум "80 см пыли" (In Search We Trust) "У нас никто никуда не спешит"
Me For You - http://me-4u.com
It is currently 18 Oct 2019

All times are UTC + 3 hours

Spoiler
Chat - temporary registration for foreign users (please leave your application here)





Forum rules


Уважаемые пользователи ресурса, друзья, коллеги и гости нашего форума. Данный раздел конференции создан с целью рафинации, и посвящён такому стилевому направлению в музыке, как Thrash Metal во всех его проявлениях и ипостасях, а иногда и переходящему на пограничные стили Speed, Power, Groove, Crossover, MDM и т.п.
Главное правило здесь одно: Одна группа – одна тема! Всё остальное созвучно основным нормам поведения на конференции.
Шаблон оформления тем в этом подфоруме должен быть основан на данных сайта www.metal-archives.com и выглядеть следующим образом:

Группа (Страна) - Стилевые рамки - дискография
Slayer (USA) - Thrash Metal - дискография


В теме допустимо размещение всей информации касающейся данного коллектива: анонсы любых альбомов в любых форматах, запросы любых релизов коллектива (кроме релизов текущего и прошлого годов), обсуждения, обзоры, а в остальном всё как обычно. Уважаем друг друга, не грубим, соблюдаем нормы поведения на конференции, оформляем анонсы и запросы красиво и информативно, что бы модераторы не посчитали их троллингом, и не отправили куда положено, выписав Вам предупреждение или ещё что похуже… Прежде чем что-то запросить или запостить, пользуемся поиском! Пользуемся поиском! ПОЛЬЗУЕМСЯ ПОИСКОМ!!! Так слышно меня?.. :pardon:
Интересного, конструктивного и креативного общения! ;)

Image



Post new topic Reply to topic  [ 327 posts ]  Go to page Previous  1, 2, 3, 4, 5 ... 17  Next
Author Message
 
PostPosted: 24 Aug 2009 
Дежурный по КУПу
User avatar
Joined: 17 Aug 2007
Posts: 5871
Age: 51
Name: Ге
Вдруг не все заметили, а оно того стоит... качественный бутлег с очень хорошей записью:

Image

viewtopic.php?f=65&t=5264

_________________
http://jp-mania.ru/
http://jp-tourdates.ucoz.ru/


Top
 Profile  
 
 
PostPosted: 07 Nov 2009 
ыыыы
User avatar
Joined: 17 May 2009
Posts: 952
Lоcаtion: Пушкино, МО
Age: 41
Name: Дмитрий
Anthrax - Spreading The Disease / Japan 1st Press P35D-20014


Image


Spreading the Disease (в пер. с англ. — Распространяя заразу) — второй альбом группы Anthrax, выпущенный в октябре 1985 года. Этот альбом стал первым полноценным альбомом с участием Джои Белладонны и общепризнанно считается одним из лучших в ранней дискографии Anthrax.

Recording line-up:

Charlie Benante: drums, guitars
Scott Ian: guitars, vocals
Joey Belladonna: vocals
Dan Spitz: guitars
Frank Bello: bass

Songs:

1. A.I.R. — 05:46
2. Lone Justice — 04:37
3. Madhouse — 04:20
4. S.S.C./Stand or Fall — 04:08
5. The Enemy — 05:25
6. Aftershock — 04:29
7. Armed and Dangerous — 05:44
8. Medusa — 04:44
9. Gung-Ho — 04:37
====================
Playing time: 43:44

Released: Japan 1986 POLYSTAR/ISLAND/MEGAFORCE WORLDWIDE
Cat #: P35D-20014
Matrix: P35D-20014-T1E17 (JVC)


MEGAUPLOAD

Log
EAC extraction logfile from 7. November 2009, 14:27 for CD
Anthrax / Spreading The Disease [P35D-20014]

Used drive : ASUS DRW-2014S1 Adapter: 0 ID: 0
Read mode : Secure with NO C2, accurate stream, disable cache
Read offset correction : 6
Overread into Lead-In and Lead-Out : No

Used output format : Internal WAV Routines
44.100 Hz; 16 Bit; Stereo

Other options :
Fill up missing offset samples with silence : Yes
Delete leading and trailing silent blocks : No
Installed external ASPI interface


Range status and errors
Selected range
Filename Y:\Музыка\Anthrax\1985 Spreading The Disease\Anthrax - Spreading The Disease [P35-20014].wav

Peak level 97.3 %
Range quality 100.0 %
CRC 7AD833BF
Copy OK

No errors occured

End of status report

------------------------------------------------------------

EAC extraction logfile from 7. November 2009, 14:27 for CD
Anthrax / Spreading The Disease [P35D-20014]

Used drive : ASUS DRW-2014S1 Adapter: 0 ID: 0
Read mode : Secure with NO C2, accurate stream, disable cache
Read offset correction : 6
Overread into Lead-In and Lead-Out : No

Used output format : Internal WAV Routines
44.100 Hz; 16 Bit; Stereo

Other options :
Fill up missing offset samples with silence : Yes
Delete leading and trailing silent blocks : No
Installed external ASPI interface


Range status and errors
Selected range
Filename Y:\Музыка\Anthrax\1985 Spreading The Disease\Anthrax - Spreading The Disease [P35-20014].wav

Peak level 97.3 %
Range quality 100.0 %
CRC 7AD833BF
Copy OK

No errors occured

End of status report

Куй
REM GENRE Metal
REM DATE 1986
REM DISCID 750A4509
REM COMMENT "ExactAudioCopy v0.95b4"
CATALOG 0000000000000
PERFORMER "Anthrax"
TITLE "Spreading The Disease [P35D-20014]"
FILE "Anthrax - Spreading The Disease [P35-20014].flac" WAVE
TRACK 01 AUDIO
TITLE "A.I.R."
PERFORMER "Anthrax"
INDEX 00 00:00:00
INDEX 01 00:00:37
TRACK 02 AUDIO
TITLE "Lone Justice"
PERFORMER "Anthrax"
INDEX 01 05:46:07
TRACK 03 AUDIO
TITLE "Madhouse"
PERFORMER "Anthrax"
INDEX 00 05:46:07
INDEX 01 10:23:40
TRACK 04 AUDIO
TITLE "S.S.C. / Stand Or Fall"
PERFORMER "Anthrax"
INDEX 00 05:46:07
INDEX 01 14:43:30
TRACK 05 AUDIO
TITLE "The Enemy"
PERFORMER "Anthrax"
INDEX 00 05:50:12
INDEX 01 18:51:20
TRACK 06 AUDIO
TITLE "Aftershock"
PERFORMER "Anthrax"
INDEX 00 11:15:17
INDEX 01 24:16:25
TRACK 07 AUDIO
TITLE "Armed And Dangerous"
PERFORMER "Anthrax"
INDEX 00 15:44:04
INDEX 01 28:45:12
TRACK 08 AUDIO
TITLE "Medusa"
PERFORMER "Anthrax"
INDEX 00 21:27:32
INDEX 01 34:28:40
TRACK 09 AUDIO
TITLE "Gung-ho"
PERFORMER "Anthrax"
INDEX 00 26:11:37
INDEX 01 39:12:45

_________________
Витасу до Даймонда как Алсу до Руссоса | При переразмещении - спрашивать разрешение!!


Last edited by iezuit on 12 Aug 2010, edited 6 times in total.

Top
 Profile  
 
 
PostPosted: 07 Nov 2009 
Хиппей (support team)
User avatar
Joined: 30 Jul 2007
Posts: 114899
Lоcаtion: Киев (Kyiv, UA)
Age: 46
Name: Andrey
Красота :dance:
Спасибо, Дим :true:

mirror: MultiUp l Narod

_________________


Top
 Profile E-mail  
 
 
PostPosted: 07 Nov 2009 
ыыыы
User avatar
Joined: 17 May 2009
Posts: 952
Lоcаtion: Пушкино, МО
Age: 41
Name: Дмитрий
:thanx: Уж чем богаты!!!

_________________
Витасу до Даймонда как Алсу до Руссоса | При переразмещении - спрашивать разрешение!!


Top
 Profile  
 
 
PostPosted: 07 Nov 2009 
ыыыы
User avatar
Joined: 17 May 2009
Posts: 952
Lоcаtion: Пушкино, МО
Age: 41
Name: Дмитрий
Anthrax - Fistful Of Anthrax Japan 1987 P33R-20007


Image

Сборник лучших вещей группы. Выпускался только в Японии.

Songs:

1. Deathrider 03:10
2. Metal Thrashing Mad 02:40
3. I'm Eighteen 04:05
4. Panic 04:01
5. Subjugator 04:42
6. Raise Hell (featuring Joey Belladonna) 04:01
7. Soldiers Of Metal 02:56
8. Death From Above 05:09
9. Anthrax 03:28
10. Across The River 01:26
11. Howling Furies 03:55
12. Panic (Live featuring Joey Belladonna) 03:42
====================
Playing time: 43:15

Released: Japan 1987 POLYSTAR/MEGAFORCE WORLDWIDE
Cat #: P33R-20007
Matrix: P33R20007 C7A03J
Narod
MEGAUPLOAD

Log
EAC extraction logfile from 7. November 2009, 14:46 for CD
Anthrax / Fistful of Anthrax [P33R-20007]

Used drive : ASUS DRW-2014S1 Adapter: 0 ID: 0
Read mode : Secure with NO C2, accurate stream, disable cache
Read offset correction : 6
Overread into Lead-In and Lead-Out : No

Used output format : Internal WAV Routines
44.100 Hz; 16 Bit; Stereo

Other options :
Fill up missing offset samples with silence : Yes
Delete leading and trailing silent blocks : No
Installed external ASPI interface


Range status and errors
Selected range
Filename Y:\Музыка\Anthrax\1983 Fistful Of Metal\Anthrax - Fistful of Anthrax [P33R-20007].wav

Peak level 71.8 %
Range quality 100.0 %
CRC 6683C84F
Copy OK

No errors occured

End of status report

------------------------------------------------------------

EAC extraction logfile from 7. November 2009, 14:48 for CD
Anthrax / Fistful of Anthrax [P33R-20007]

Used drive : ASUS DRW-2014S1 Adapter: 0 ID: 0
Read mode : Secure with NO C2, accurate stream, disable cache
Read offset correction : 6
Overread into Lead-In and Lead-Out : No

Used output format : Internal WAV Routines
44.100 Hz; 16 Bit; Stereo

Other options :
Fill up missing offset samples with silence : Yes
Delete leading and trailing silent blocks : No
Installed external ASPI interface


Range status and errors
Selected range
Filename Y:\Музыка\Anthrax\1983 Fistful Of Metal\Anthrax - Fistful of Anthrax [P33R-20007].wav

Peak level 71.8 %
Range quality 100.0 %
CRC 6683C84F
Copy OK

No errors occured

End of status report


Рабочий Куй
REM GENRE Metal
REM DATE 1983
REM DISCID 900A290C
REM COMMENT "ExactAudioCopy v0.95b4"
PERFORMER "Anthrax"
TITLE "Fistful of Anthrax [P33R-20007]"
FILE "Anthrax - Fistful of Anthrax [P33R-20007].flac" WAVE
TRACK 01 AUDIO
TITLE "Deathrider"
PERFORMER "Anthrax"
INDEX 01 00:00:00
TRACK 02 AUDIO
TITLE "Metal Thrashing Mad"
PERFORMER "Anthrax"
INDEX 01 03:10:62
TRACK 03 AUDIO
TITLE "I'm 18"
PERFORMER "Anthrax"
INDEX 01 05:51:32
TRACK 04 AUDIO
TITLE "Panic"
PERFORMER "Anthrax"
INDEX 00 09:56:15
INDEX 01 09:57:22
TRACK 05 AUDIO
TITLE "Subjugator"
PERFORMER "Anthrax"
INDEX 01 13:58:25
TRACK 06 AUDIO
TITLE "Raising Hell"
PERFORMER "Anthrax"
INDEX 00 18:39:55
INDEX 01 18:40:30
TRACK 07 AUDIO
TITLE "Soldiers of Metal"
PERFORMER "Anthrax"
INDEX 00 22:40:37
INDEX 01 22:41:40
TRACK 08 AUDIO
TITLE "Death from Above"
PERFORMER "Anthrax"
INDEX 01 25:38:37
TRACK 09 AUDIO
TITLE "Anthrax"
PERFORMER "Anthrax"
INDEX 00 30:47:30
INDEX 01 30:48:15
TRACK 10 AUDIO
TITLE "Across the River"
PERFORMER "Anthrax"
INDEX 00 34:16:02
INDEX 01 34:17:10
TRACK 11 AUDIO
TITLE "Howling Furies"
PERFORMER "Anthrax"
INDEX 01 35:43:62
TRACK 12 AUDIO
TITLE "Panic (LIVE feat. Joe Belladonna)"
PERFORMER "Anthrax"
INDEX 01 39:38:65

_________________
Витасу до Даймонда как Алсу до Руссоса | При переразмещении - спрашивать разрешение!!


Last edited by iezuit on 12 Nov 2009, edited 4 times in total.

Top
 Profile  
 
 
PostPosted: 07 Nov 2009 
Дежурный по КУПу
User avatar
Joined: 17 Aug 2007
Posts: 5871
Age: 51
Name: Ге
Спасибо, Дим :true: :thanx:

_________________
http://jp-mania.ru/
http://jp-tourdates.ucoz.ru/


Top
 Profile  
 
 
PostPosted: 07 Nov 2009 
ыыыы
User avatar
Joined: 17 May 2009
Posts: 952
Lоcаtion: Пушкино, МО
Age: 41
Name: Дмитрий
На здоровье, Гер!!!! :true:

_________________
Витасу до Даймонда как Алсу до Руссоса | При переразмещении - спрашивать разрешение!!


Top
 Profile  
 
 
PostPosted: 07 Nov 2009 
Дежурный по КУПу
User avatar
Joined: 17 Aug 2007
Posts: 5871
Age: 51
Name: Ге
Дим, спасибо, а то на моем лосике (с пиратки) какой то звук невнятный, попробую с япошкой сравнить..

_________________
http://jp-mania.ru/
http://jp-tourdates.ucoz.ru/


Top
 Profile  
 
 
PostPosted: 07 Nov 2009 
ыыыы
User avatar
Joined: 17 May 2009
Posts: 952
Lоcаtion: Пушкино, МО
Age: 41
Name: Дмитрий
Если уже ЭТОТ диск не заиграет, значит мы идём в гости к их звукоинженеграм!! :au:

_________________
Витасу до Даймонда как Алсу до Руссоса | При переразмещении - спрашивать разрешение!!


Top
 Profile  
 
 
PostPosted: 07 Nov 2009 
Дежурный по КУПу
User avatar
Joined: 17 Aug 2007
Posts: 5871
Age: 51
Name: Ге
:oops: Не заиграл... похоже... сама запись изначально была такая, мои колонки стоит меньше семи баксов, надо мне менять отоларинголога (нужное подчеркнуть)... Дим, а у тебя случайно, свежего джапанского ремастера этого альбома нет?

_________________
http://jp-mania.ru/
http://jp-tourdates.ucoz.ru/


Top
 Profile  
 
 
PostPosted: 07 Nov 2009 
Хиппей (support team)
User avatar
Joined: 30 Jul 2007
Posts: 114899
Lоcаtion: Киев (Kyiv, UA)
Age: 46
Name: Andrey
German wrote:
мои колонки стоит меньше семи баксов

:true:

_________________


Top
 Profile E-mail  
 
 
PostPosted: 07 Nov 2009 
ыыыы
User avatar
Joined: 17 May 2009
Posts: 952
Lоcаtion: Пушкино, МО
Age: 41
Name: Дмитрий
никаких ремастеров!!!! :shok: чтобы ещё головой страдать- а как это должно звучать, а как то...
вот тут позырь - какие у меня ремастеры. Там дата будет явно расходиться с датой выпуска.
http://igorloss.communityhost.ru/thread ... =272016281
А колоночки-то да....надо ходя бы за 20 уе, как у меня )))) :cry:

_________________
Витасу до Даймонда как Алсу до Руссоса | При переразмещении - спрашивать разрешение!!


Top
 Profile  
 
 
PostPosted: 07 Nov 2009 
Хиппей (support team)
User avatar
Joined: 30 Jul 2007
Posts: 114899
Lоcаtion: Киев (Kyiv, UA)
Age: 46
Name: Andrey
Спасибо! Ни разу не слышал его (сборник) :fingal:

_________________


Top
 Profile E-mail  
 
 
PostPosted: 09 Nov 2009 
А может смените мне статус?..
User avatar
Joined: 17 Jan 2008
Posts: 897
Lоcаtion: Пенза
Age: 42
Name: Денис
Спасибо :true:


Top
 Profile  
 
 
PostPosted: 09 Nov 2009 
ыыыы
User avatar
Joined: 17 May 2009
Posts: 952
Lоcаtion: Пушкино, МО
Age: 41
Name: Дмитрий
:true: :true: :true:

_________________
Витасу до Даймонда как Алсу до Руссоса | При переразмещении - спрашивать разрешение!!


Top
 Profile  
 
 
PostPosted: 09 Nov 2009 
HAMMER
User avatar
Joined: 16 May 2009
Posts: 5488
Lоcаtion: Тверь
Age: 46
Name: Александр
:thanx:


Top
 Profile E-mail  
 
 
PostPosted: 12 Nov 2009 
HAMMER
User avatar
Joined: 16 May 2009
Posts: 5488
Lоcаtion: Тверь
Age: 46
Name: Александр
Дима КУЙ обнови пожалуйста. :dance:


Top
 Profile E-mail  
 
 
PostPosted: 12 Nov 2009 
HAMMER
User avatar
Joined: 16 May 2009
Posts: 5488
Lоcаtion: Тверь
Age: 46
Name: Александр
Ну можешь и по другим своим куям пройтися где еще не менял :pardon:


Top
 Profile E-mail  
 
 
PostPosted: 13 Nov 2009 
Metal Collector
User avatar
Joined: 16 Nov 2008
Posts: 1267
Lоcаtion: Химки
Age: 36
Name: Андрей
Вроде как это не сборник, а первый альбом, плюс пару треков с епишки.


Top
 Profile E-mail  
 
 
PostPosted: 23 Nov 2009 
Труъ
User avatar
Joined: 14 Jul 2009
Posts: 158
Lоcаtion: Hell Is Here
Age: 49
Name: Adriano
Many Thanx !! :thanx: :true:


Top
 Profile E-mail  
 
Display posts from previous:  Sort by  
Post new topic Reply to topic  [ 327 posts ]  Go to page Previous  1, 2, 3, 4, 5 ... 17  Next

All times are UTC + 3 hours


Who is online

Users browsing this forum: No registered users and 1 guest


You cannot post new topics in this forum
You cannot reply to topics in this forum
You cannot edit your posts in this forum
You cannot delete your posts in this forum
You cannot post attachments in this forum

Search for:
Яндекс.Метрика
Powered by phpBB © 2000, 2002, 2005, 2007 phpBB Group