\m/ 80's metal \m/

Информационно-аналитический форум "80 см пыли" (In Search We Trust) "У нас никто никуда не спешит"
Me For You - http://me-4u.com
It is currently 20 Apr 2019

All times are UTC + 3 hours

Spoiler
Chat - temporary registration for foreign users (please leave your application here)





Forum rules


Уважаемые пользователи ресурса, друзья, коллеги и гости нашего форума. Данный раздел конференции создан с целью рафинации, и посвящён такому стилевому направлению в музыке, как Thrash Metal во всех его проявлениях и ипостасях, а иногда и переходящему на пограничные стили Speed, Power, Groove, Crossover, MDM и т.п.
Главное правило здесь одно: Одна группа – одна тема! Всё остальное созвучно основным нормам поведения на конференции.
Шаблон оформления тем в этом подфоруме должен быть основан на данных сайта www.metal-archives.com и выглядеть следующим образом:

Группа (Страна) - Стилевые рамки - дискография
Slayer (USA) - Thrash Metal - дискография


В теме допустимо размещение всей информации касающейся данного коллектива: анонсы любых альбомов в любых форматах, запросы любых релизов коллектива (кроме релизов текущего и прошлого годов), обсуждения, обзоры, а в остальном всё как обычно. Уважаем друг друга, не грубим, соблюдаем нормы поведения на конференции, оформляем анонсы и запросы красиво и информативно, что бы модераторы не посчитали их троллингом, и не отправили куда положено, выписав Вам предупреждение или ещё что похуже… Прежде чем что-то запросить или запостить, пользуемся поиском! Пользуемся поиском! ПОЛЬЗУЕМСЯ ПОИСКОМ!!! Так слышно меня?.. :pardon:
Интересного, конструктивного и креативного общения! ;)

Image



Post new topic Reply to topic  [ 41 posts ]  Go to page 1, 2, 3  Next
Author Message
 
PostPosted: 28 Sep 2010 
Генеральный thrasher
User avatar
Joined: 03 Oct 2008
Posts: 3695
Lоcаtion: Ханты-Мансийский АО
Age: 44
Name: Сергей
Chakal - Abominable Anno Domini 1987 + Living With The Pigs 1988 (EP) (2002 Re-Issue)

ImageImage

Style: Thrash Metal
Country: Brasil
Audio: Flac+Cue+Log
Size: 398Mb
Label: Cogumelo Records

Line-Up:
Korg : Vocals
Mark : Guitars
Wiz : Drums
Pepeu : Guitars
Laranja : Bass

Tracklist:
1987 Abominable Anno Domini
1. May Not The Mankind Suffer 05:54
2. The Planet Is Dead 05:33
3. Terminal Brain 04:02
4. Children Of The Cemetery 03:58
5. Jason Lives 07:22
6. Warriors Of Disgrace 04:02
7. The Dead Walk 03:38
8. Children Sacrifice 02:21
9. Mr. Jesus Christ 05:06
1988 Living With The Pigs (EP)
10. S.A.T.P. (Shoot at the Police) 03:37
11. Never Die Young 04:28

Cue
REM GENRE "Death Metal"
REM DATE 2002
REM DISCID 7F0BBE0A
REM COMMENT "ExactAudioCopy v0.99pb4"
PERFORMER "Chakal"
TITLE "Abominable Anno Domini + Living With The Pigs"
FILE "Chakal - Abominable Anno Domini + Living With The Pigs.flac" WAVE
TRACK 01 AUDIO
TITLE "May Not the Mankind Suffer"
PERFORMER "Chakal"
INDEX 01 00:00:00
TRACK 02 AUDIO
TITLE "The Planet is Dead"
PERFORMER "Chakal"
INDEX 01 11:27:52
TRACK 03 AUDIO
TITLE "Terminal Brain"
PERFORMER "Chakal"
INDEX 01 15:30:50
TRACK 04 AUDIO
TITLE "Children of the Cemetery"
PERFORMER "Chakal"
INDEX 01 19:29:40
TRACK 05 AUDIO
TITLE "Jason Lives"
PERFORMER "Chakal"
INDEX 01 26:51:72
TRACK 06 AUDIO
TITLE "Warriors of Disgrace"
PERFORMER "Chakal"
INDEX 01 30:54:07
TRACK 07 AUDIO
TITLE "The Dead Walk"
PERFORMER "Chakal"
INDEX 01 34:32:07
TRACK 08 AUDIO
TITLE "Children Sacrifice"
PERFORMER "Chakal"
INDEX 01 36:53:37
TRACK 09 AUDIO
TITLE "Mr. Jesus Christ"
PERFORMER "Chakal"
INDEX 01 42:00:20
TRACK 10 AUDIO
TITLE "S.A.T.P. - Shoot At The Police / Never Die Young"
PERFORMER "Chakal"
INDEX 01 45:38:05

Log
Exact Audio Copy V0.99 prebeta 4 from 23. January 2008

Отчёт EAC об извлечении, выполненном 28. сентября 2010, 13:09

Chakal / Abominable Anno Domini + Living With The Pigs

Дисковод: TSSTcorpCDDVDW SH-S202N Adapter: 0 ID: 1

Режим чтения : Достоверность
Использование точного потока : Да
Отключение кэша аудио : Да
Использование указателей C2 : Нет

Коррекция смещения при чтении : 6
Способность читать области Lead-in и Lead-out : Нет
Заполнение пропущенных сэмплов тишиной : Да
Удаление блоков с тишиной в начале и конце : Нет
При вычислениях CRC использовались нулевые сэмплы : Да
Интерфейс : Установленный внешний ASPI-интерфейс

Выходной формат : Пользовательский кодировщик
Выбранный битрейт : 768 kBit/s
Качество : Высокий
Добавление ID3-тэга : Нет
Утилита сжатия : C:\Program Files\Exact Audio Copy\FLAC\FLAC.EXE
Дополнительные параметры : -6 -V -T "ARTIST=%a" -T "TITLE=%t" -T "ALBUM=%g" -T "DATE=%y" -T "TRACKNUMBER=%n" -T "GENRE=%m" -T "COMMENT=%e" %s -o %d


TOC извлечённого CD

Трек | Старт | Длительность | Начальный сектор | Конечный сектор
---------------------------------------------------------------------
1 | 0:00.00 | 11:27.52 | 0 | 51576
2 | 11:27.52 | 4:02.73 | 51577 | 69799
3 | 15:30.50 | 3:58.65 | 69800 | 87714
4 | 19:29.40 | 7:22.32 | 87715 | 120896
5 | 26:51.72 | 4:02.10 | 120897 | 139056
6 | 30:54.07 | 3:38.00 | 139057 | 155406
7 | 34:32.07 | 2:21.30 | 155407 | 166011
8 | 36:53.37 | 5:06.58 | 166012 | 189019
9 | 42:00.20 | 3:37.60 | 189020 | 205354
10 | 45:38.05 | 4:28.65 | 205355 | 225519


Характеристики диапазона извлечения и сообщения об ошибках

Выбранный диапазон

Имя файла F:\Лоси\C\Chakal - Abominable Anno Domini + Living With The Pigs.wav

Пиковый уровень 99.4 %
Качество диапазона 100.0 %
CRC копии 0B9C209E
Копирование... OK

Ошибок не произошло


AccurateRip: сводка

Трек 1 точное извлечение (доверие 1) [C437A227]
Трек 2 точное извлечение (доверие 1) [4342487B]
Трек 3 точное извлечение (доверие 1) [C08657F8]
Трек 4 точное извлечение (доверие 1) [AEEBF764]
Трек 5 точное извлечение (доверие 1) [044DF066]
Трек 6 точное извлечение (доверие 1) [2E70FF34]
Трек 7 точное извлечение (доверие 1) [56B3E5FD]
Трек 8 точное извлечение (доверие 1) [107A16F9]
Трек 9 точное извлечение (доверие 1) [82334C94]
Трек 10 точное извлечение (доверие 1) [C6AD3B23]

Все треки извлечены точно

Конец отчёта

Megaupload


Top
 Profile  
 
 
PostPosted: 28 Sep 2010 
Генеральный thrasher
User avatar
Joined: 03 Oct 2008
Posts: 3695
Lоcаtion: Ханты-Мансийский АО
Age: 44
Name: Сергей
Как обычно рип с моего диска...


Top
 Profile  
 
 
PostPosted: 28 Sep 2010 
Генеральный thrasher
User avatar
Joined: 03 Oct 2008
Posts: 3695
Lоcаtion: Ханты-Мансийский АО
Age: 44
Name: Сергей
Chakal - Deadland 2003

Image

Year:2003
Style:Thrash Metal
Country:Brasil
Audio:Flac+Cue+Log
Size:258Mb
Source:my CD
Label:Cogumelo Records

Line-Up:
Drew : Bass
Korg : Vocals
Andre : Guitars
Wiz : Drums

Tracklist:
1. Deadland 05:40
2. Amputation Prayer 05:25
3. Communication Room 00:57
4. Call of the Undead 04:48
5. Lazarus Waltz 06:13
6. Liar (Safe Place) 05:19
7. The Scape 01:13
8. Flying to the Empty 04:49
9. Fade Out 02:50

Cue
REM GENRE "Thrash Metal"
REM DATE 2003
REM DISCID 800A6A0A
REM COMMENT "ExactAudioCopy v0.99pb4"
PERFORMER "Chakal"
TITLE "Deadland"
FILE "Chakal - Deadland.flac" WAVE
TRACK 01 AUDIO
TITLE "Deadland"
PERFORMER "Chakal"
INDEX 01 00:00:00
TRACK 02 AUDIO
TITLE "Amputation Prayer"
PERFORMER "Chakal"
INDEX 01 05:41:12
TRACK 03 AUDIO
TITLE "Communication Room"
PERFORMER "Chakal"
INDEX 01 11:07:25
TRACK 04 AUDIO
TITLE "Call of the Undead"
PERFORMER "Chakal"
INDEX 01 12:05:00
TRACK 05 AUDIO
TITLE "Lazarus Waltz"
PERFORMER "Chakal"
INDEX 01 16:54:25
TRACK 06 AUDIO
TITLE "Liar (Safe Place)"
PERFORMER "Chakal"
INDEX 01 23:08:52
TRACK 07 AUDIO
TITLE "The Scape"
PERFORMER "Chakal"
INDEX 01 28:28:25
TRACK 08 AUDIO
TITLE "Flying to the Empty"
PERFORMER "Chakal"
INDEX 01 29:41:70
TRACK 09 AUDIO
TITLE "Fade Out"
PERFORMER "Chakal"
INDEX 01 34:31:30

Log
Exact Audio Copy V0.99 prebeta 4 from 23. January 2008

Отчёт EAC об извлечении, выполненном 25. июля 2010, 10:33

Chakal / Deadland

Дисковод: TSSTcorpCDDVDW SH-S202N Adapter: 0 ID: 1

Режим чтения : Достоверность
Использование точного потока : Да
Отключение кэша аудио : Да
Использование указателей C2 : Нет

Коррекция смещения при чтении : 6
Способность читать области Lead-in и Lead-out : Нет
Заполнение пропущенных сэмплов тишиной : Да
Удаление блоков с тишиной в начале и конце : Нет
При вычислениях CRC использовались нулевые сэмплы : Да
Интерфейс : Установленный внешний ASPI-интерфейс

Выходной формат : Пользовательский кодировщик
Выбранный битрейт : 768 kBit/s
Качество : Высокий
Добавление ID3-тэга : Нет
Утилита сжатия : C:\Program Files\Exact Audio Copy\FLAC\FLAC.EXE
Дополнительные параметры : -6 -V -T "ARTIST=%a" -T "TITLE=%t" -T "ALBUM=%g" -T "DATE=%y" -T "TRACKNUMBER=%n" -T "GENRE=%m" -T "COMMENT=%e" %s -o %d


TOC извлечённого CD

Трек | Старт | Длительность | Начальный сектор | Конечный сектор
---------------------------------------------------------------------
1 | 0:00.00 | 5:41.12 | 0 | 25586
2 | 5:41.12 | 5:26.13 | 25587 | 50049
3 | 11:07.25 | 0:57.50 | 50050 | 54374
4 | 12:05.00 | 4:49.25 | 54375 | 76074
5 | 16:54.25 | 6:14.27 | 76075 | 104151
6 | 23:08.52 | 5:19.48 | 104152 | 128124
7 | 28:28.25 | 1:13.45 | 128125 | 133644
8 | 29:41.70 | 4:49.35 | 133645 | 155354
9 | 34:31.30 | 2:48.62 | 155355 | 168016
10 | 39:52.17 | 4:33.62 | 179417 | 199953


Характеристики диапазона извлечения и сообщения об ошибках

Выбранный диапазон

Имя файла D:\Lossless Music\Chakal - Deadland.wav

Пиковый уровень 100.0 %
Качество диапазона 100.0 %
CRC копии 167087EE
Копирование... OK

Ошибок не произошло


AccurateRip: сводка

Трек 1 нет в базе данных
Трек 2 нет в базе данных
Трек 3 нет в базе данных
Трек 4 нет в базе данных
Трек 5 нет в базе данных
Трек 6 нет в базе данных
Трек 7 нет в базе данных
Трек 8 нет в базе данных
Трек 9 нет в базе данных

Ни одного трека нет в базе AccurateRip

Конец отчёта

Megaupload


Top
 Profile  
 
 
PostPosted: 28 Sep 2010 
Хиппей (support team)
User avatar
Joined: 30 Jul 2007
Posts: 111729
Lоcаtion: Киев (Kyiv, UA)
Age: 45
Name: Andrey
thorbeorn wrote:
Chakal - Abominable Anno Domini 1987 + Living With The Pigs 1988 (EP) (2002 Re-Issue)

:thanx:

_________________


Top
 Profile E-mail  
 
 
PostPosted: 28 Sep 2010 
Хиппей (support team)
User avatar
Joined: 30 Jul 2007
Posts: 111729
Lоcаtion: Киев (Kyiv, UA)
Age: 45
Name: Andrey
thorbeorn wrote:
Chakal - Deadland 2003

:thanx:

_________________


Top
 Profile E-mail  
 
 
PostPosted: 28 Sep 2010 
Доктор энтомологии
User avatar
Joined: 22 Jan 2009
Posts: 9694
Lоcаtion: Даугавпилс
Age: 44
Name: Алексей
thorbeorn wrote:
Chakal - Abominable Anno Domini 1987 + Living With The Pigs 1988 (EP) (2002 Re-Issue)

:true: :drink: :ura: :bodun: :thanx:


Top
 Profile  
 
 
PostPosted: 28 Sep 2010 
Доктор энтомологии
User avatar
Joined: 22 Jan 2009
Posts: 9694
Lоcаtion: Даугавпилс
Age: 44
Name: Алексей
thorbeorn wrote:
Chakal - Deadland 2003

:true: :true: :true: :thanx: dont forget to download


Top
 Profile  
 
 
PostPosted: 14 Nov 2010 
Генеральный thrasher
User avatar
Joined: 03 Oct 2008
Posts: 3695
Lоcаtion: Ханты-Мансийский АО
Age: 44
Name: Сергей
Image

Country:Brazil
Style:Thrash Metal
Year:1990

Line-Up:
Marcelo L. - bass/vox
Eduardo Simхes - guitar
Mark - guitar
Wizz - drums

Tracklist:
1. Fell No Pain 03:05
2. Silence 'n' Peace 03:40
3. Acme Dead End Road 05:09
4. Holobyte 06:23
5. Hangover 05:37
6. Santa Claus Has Got Skin Cancer 03:07
7. In Vain 03:34
8. S.S.C. 333 01:25
9. Synthetic Tears 04:42

Друзья,помогите в поиске!Не важно с CD или винила,потрэковый или образом (Help please!Doesn't matter,from CD or vinyl.)


Top
 Profile  
 
 
PostPosted: 19 Nov 2010 
Генеральный thrasher
User avatar
Joined: 03 Oct 2008
Posts: 3695
Lоcаtion: Ханты-Мансийский АО
Age: 44
Name: Сергей
Ни у кого нет альбома? :(


Top
 Profile  
 
 
PostPosted: 19 Nov 2010 
Хиппей (support team)
User avatar
Joined: 30 Jul 2007
Posts: 111729
Lоcаtion: Киев (Kyiv, UA)
Age: 45
Name: Andrey
:vic:

_________________


Top
 Profile E-mail  
 
 
PostPosted: 19 Nov 2010 
Генеральный thrasher
User avatar
Joined: 03 Oct 2008
Posts: 3695
Lоcаtion: Ханты-Мансийский АО
Age: 44
Name: Сергей
ПЕЧАЛЬНО.... :dash:


Top
 Profile  
 
 
PostPosted: 19 Nov 2010 
дядя Миша
User avatar
Joined: 17 Oct 2008
Posts: 3101
Lоcаtion: USSR
Age: 56
Name: Khy
купим !


Top
 Profile  
 
 
PostPosted: 13 Oct 2011 
Генеральный thrasher
User avatar
Joined: 03 Oct 2008
Posts: 3695
Lоcаtion: Ханты-Мансийский АО
Age: 44
Name: Сергей
Запрос снимается.Купил диск...


Top
 Profile  
 
 
PostPosted: 13 Oct 2011 
Хиппей (support team)
User avatar
Joined: 30 Jul 2007
Posts: 111729
Lоcаtion: Киев (Kyiv, UA)
Age: 45
Name: Andrey
Ура :dance:

_________________


Top
 Profile E-mail  
 
 
PostPosted: 13 Oct 2011 
консэрваторъ
Joined: 11 Aug 2007
Posts: 16815
Lоcаtion: Псков
Age: 45
Name: Сергей
Я бы тоже заслухал, ссылочку плиз... :oops:

_________________
THRASH 'EM ALL


Top
 Profile E-mail  
 
 
PostPosted: 31 Aug 2012 
Генеральный thrasher
User avatar
Joined: 03 Oct 2008
Posts: 3695
Lоcаtion: Ханты-Мансийский АО
Age: 44
Name: Сергей
Image

Year:1990 & 1993 (2008 Remastered)
Style:Thrash Metal
Country:Brazil
Audio:Flac+Cue+Log+Scans
Size:546Mb
Label:Cogumelo Records
Source:my CD

Tracklist:
The Man Is His Own Jackal
1. Feel No Pain
2. Silence N' Peace
3. Acme Dead End Road
4. Holobyte
5. Hangover
6. Santa Claus Has Got Skin Cancer
7. In Vain
8. S.S.G. 333
9. Synthetic Fears
Death Is A Lonely Business
10. Before It's Too Late
11. Mind Cries, Body Dies
12. Panic In The Fast Food
13. Fear Of Death
14. Beholder
15. A Certain Afternoon (Instrumental)
16. Choked
17. Useless Denial To Hear
18. The End Is Near (Bonus Instrumental)

Cue
REM GENRE "Thrash Metal"
REM DATE 2008
REM DISCID 0710AD12
REM COMMENT "ExactAudioCopy v0.99pb5"
PERFORMER "Chakal"
TITLE "The Man Is His Own Jackal / Death Is A Lonely Business"
FILE "Chakal - The Man Is His Own Jackal Death Is A Lonely Business.flac" WAVE
TRACK 01 AUDIO
TITLE "Feel No Pain"
PERFORMER "Chakal"
INDEX 01 00:00:00
TRACK 02 AUDIO
TITLE "Silence N' Peace"
PERFORMER "Chakal"
INDEX 00 03:08:13
INDEX 01 03:10:13
TRACK 03 AUDIO
TITLE "Acme Dead End Road"
PERFORMER "Chakal"
INDEX 00 06:55:41
INDEX 01 06:57:41
TRACK 04 AUDIO
TITLE "Holobyte"
PERFORMER "Chakal"
INDEX 00 12:13:56
INDEX 01 12:15:56
TRACK 05 AUDIO
TITLE "Hangover"
PERFORMER "Chakal"
INDEX 00 18:47:71
INDEX 01 18:49:71
TRACK 06 AUDIO
TITLE "Santa Claus Has Got Skin Cancer"
PERFORMER "Chakal"
INDEX 00 24:35:74
INDEX 01 24:37:74
TRACK 07 AUDIO
TITLE "In Vain"
PERFORMER "Chakal"
INDEX 00 27:48:62
INDEX 01 27:50:62
TRACK 08 AUDIO
TITLE "S.S.G. 333"
PERFORMER "Chakal"
INDEX 00 31:29:04
INDEX 01 31:31:04
TRACK 09 AUDIO
TITLE "Synthetic Fears"
PERFORMER "Chakal"
INDEX 00 32:58:69
INDEX 01 33:00:69
TRACK 10 AUDIO
TITLE "Before It's Too Late"
PERFORMER "Chakal"
INDEX 00 37:48:44
INDEX 01 37:50:44
TRACK 11 AUDIO
TITLE "Mind Cries, Body Dies"
PERFORMER "Chakal"
INDEX 00 43:59:23
INDEX 01 44:01:23
TRACK 12 AUDIO
TITLE "Panic In The Fast Food"
PERFORMER "Chakal"
INDEX 00 47:32:39
INDEX 01 47:34:39
TRACK 13 AUDIO
TITLE "Fear Of Death"
PERFORMER "Chakal"
INDEX 00 52:00:50
INDEX 01 52:02:50
TRACK 14 AUDIO
TITLE "Beholder"
PERFORMER "Chakal"
INDEX 00 55:17:74
INDEX 01 55:19:74
TRACK 15 AUDIO
TITLE "A Certain Afternoon (Instrumental)"
PERFORMER "Chakal"
INDEX 00 59:06:72
INDEX 01 59:08:72
TRACK 16 AUDIO
TITLE "Choked"
PERFORMER "Chakal"
INDEX 00 61:06:70
INDEX 01 61:08:70
TRACK 17 AUDIO
TITLE "Useless Denial To Hear"
PERFORMER "Chakal"
INDEX 00 65:01:44
INDEX 01 65:03:44
TRACK 18 AUDIO
TITLE "The End Is Near (Bonus Instrumental)"
PERFORMER "Chakal"
INDEX 00 69:15:50
INDEX 01 69:17:50


Log
Exact Audio Copy V0.99 prebeta 5 from 4. May 2009

Отчёт EAC об извлечении, выполненном 12. октября 2011, 10:36

Chakal / The Man Is His Own Jackal / Death Is A Lonely Business

Дисковод: TSSTcorpCDDVDW SH-S202N Adapter: 0 ID: 1

Режим чтения : Достоверность
Использование точного потока : Да
Отключение кэша аудио : Да
Использование указателей C2 : Нет

Коррекция смещения при чтении : 6
Способность читать области Lead-in и Lead-out : Нет
Заполнение пропущенных сэмплов тишиной : Да
Удаление блоков с тишиной в начале и конце : Нет
При вычислениях CRC использовались нулевые сэмплы : Да
Интерфейс : Встроенный Win32-интерфейс для Win NT/2000

Выходной формат : Пользовательский кодировщик
Выбранный битрейт : 768 kBit/s
Качество : Высокий
Добавление ID3-тэга : Нет
Утилита сжатия : C:\Program Files\Exact Audio Copy\FLAC\FLAC.EXE
Дополнительные параметры : -6 -V -T "ARTIST=%a" -T "TITLE=%t" -T "ALBUM=%g" -T "DATE=%y" -T "TRACKNUMBER=%n" -T "GENRE=%m" -T "COMMENT=%e" %s -o %d


TOC извлечённого CD

Трек | Старт | Длительность | Начальный сектор | Конечный сектор
---------------------------------------------------------------------
1 | 0:00.00 | 3:10.13 | 0 | 14262
2 | 3:10.13 | 3:47.28 | 14263 | 31315
3 | 6:57.41 | 5:18.15 | 31316 | 55180
4 | 12:15.56 | 6:34.15 | 55181 | 84745
5 | 18:49.71 | 5:48.03 | 84746 | 110848
6 | 24:37.74 | 3:12.63 | 110849 | 125311
7 | 27:50.62 | 3:40.17 | 125312 | 141828
8 | 31:31.04 | 1:29.65 | 141829 | 148568
9 | 33:00.69 | 4:49.50 | 148569 | 170293
10 | 37:50.44 | 6:10.54 | 170294 | 198097
11 | 44:01.23 | 3:33.16 | 198098 | 214088
12 | 47:34.39 | 4:28.11 | 214089 | 234199
13 | 52:02.50 | 3:17.24 | 234200 | 248998
14 | 55:19.74 | 3:48.73 | 248999 | 266171
15 | 59:08.72 | 1:59.73 | 266172 | 275169
16 | 61:08.70 | 3:54.49 | 275170 | 292768
17 | 65:03.44 | 4:14.06 | 292769 | 311824
18 | 69:17.50 | 1:51.64 | 311825 | 320213


Характеристики диапазона извлечения и сообщения об ошибках

Выбранный диапазон

Имя файла E:\Лоси\C\Chakal - The Man Is His Own Jackal Death Is A Lonely Business.wav

Пиковый уровень 98.8 %
Качество диапазона 100.0 %
CRC копии 35E41B1A
Копирование... OK

Ошибок не произошло


AccurateRip: сводка

Трек 1 нет в базе данных
Трек 2 нет в базе данных
Трек 3 нет в базе данных
Трек 4 нет в базе данных
Трек 5 нет в базе данных
Трек 6 нет в базе данных
Трек 7 нет в базе данных
Трек 8 нет в базе данных
Трек 9 нет в базе данных
Трек 10 нет в базе данных
Трек 11 нет в базе данных
Трек 12 нет в базе данных
Трек 13 нет в базе данных
Трек 14 нет в базе данных
Трек 15 нет в базе данных
Трек 16 нет в базе данных
Трек 17 нет в базе данных
Трек 18 нет в базе данных

Ни одного трека нет в базе AccurateRip

Конец отчёта


Chakal - The Man Is His Own Jackal Death Is A Lonely Business


Top
 Profile  
 
 
PostPosted: 31 Aug 2012 
Прокъмитолист
User avatar
Joined: 12 Aug 2007
Posts: 6545
Lоcаtion: Санктъ-Петербуркъ
Age: 51
Name: Олекъ
утащу. спасибо, Серёг! :thanx:

_________________
прокъметол - это музыко, от которово есть прок (ы)


Top
 Profile  
 
 
PostPosted: 14 Sep 2012 
ТрэшЭрос
User avatar
Joined: 18 Jul 2011
Posts: 2303
Lоcаtion: Гулькевичи
Age: 44
Name: Александр
...тады и я прихвачу бразильяк! Сергио, :thanx:

_________________
Thrash no trash!!!


Top
 Profile E-mail  
 
 
PostPosted: 14 Sep 2012 
ТрэшЭрос
User avatar
Joined: 18 Jul 2011
Posts: 2303
Lоcаtion: Гулькевичи
Age: 44
Name: Александр
ОтлиЧЧЧно!!! :true:
Теперь осталось найтить "Warfare Noise I" 1986 (split) и "Demon King" 2004, чтобы закрыть поиск по "Шакалу"... ;)

_________________
Thrash no trash!!!


Top
 Profile E-mail  
 
 
PostPosted: 14 Sep 2012 
Генеральный thrasher
User avatar
Joined: 03 Oct 2008
Posts: 3695
Lоcаtion: Ханты-Мансийский АО
Age: 44
Name: Сергей
"Demon King" встречался мне в одном финском интернет-магазине,но я к этому опусу отношусь так себе.Поэтому и не стал пытаться его заказывать.Все любимые альбомы Chakal у меня есть.Если где-то попадётся компакт на обмен или на продажу недорого на территории РФ,я конечно возьму...А сплитник мне кажется взять нереально.


Top
 Profile  
 
Display posts from previous:  Sort by  
Post new topic Reply to topic  [ 41 posts ]  Go to page 1, 2, 3  Next

All times are UTC + 3 hours


Who is online

Users browsing this forum: No registered users and 4 guests


You cannot post new topics in this forum
You cannot reply to topics in this forum
You cannot edit your posts in this forum
You cannot delete your posts in this forum
You cannot post attachments in this forum

Search for:
Яндекс.Метрика
Powered by phpBB © 2000, 2002, 2005, 2007 phpBB Group