\m/ 80's metal \m/

Информационно-аналитический форум "80 см пыли" (In Search We Trust) "У нас никто никуда не спешит"
Me For You - http://me-4u.com
It is currently 19 Apr 2019

All times are UTC + 3 hours

Spoiler
Chat - temporary registration for foreign users (please leave your application here)





Forum rules


Уважаемые пользователи ресурса, друзья, коллеги и гости нашего форума. Данный раздел конференции создан с целью рафинации, и посвящён такому стилевому направлению в музыке, как Thrash Metal во всех его проявлениях и ипостасях, а иногда и переходящему на пограничные стили Speed, Power, Groove, Crossover, MDM и т.п.
Главное правило здесь одно: Одна группа – одна тема! Всё остальное созвучно основным нормам поведения на конференции.
Шаблон оформления тем в этом подфоруме должен быть основан на данных сайта www.metal-archives.com и выглядеть следующим образом:

Группа (Страна) - Стилевые рамки - дискография
Slayer (USA) - Thrash Metal - дискография


В теме допустимо размещение всей информации касающейся данного коллектива: анонсы любых альбомов в любых форматах, запросы любых релизов коллектива (кроме релизов текущего и прошлого годов), обсуждения, обзоры, а в остальном всё как обычно. Уважаем друг друга, не грубим, соблюдаем нормы поведения на конференции, оформляем анонсы и запросы красиво и информативно, что бы модераторы не посчитали их троллингом, и не отправили куда положено, выписав Вам предупреждение или ещё что похуже… Прежде чем что-то запросить или запостить, пользуемся поиском! Пользуемся поиском! ПОЛЬЗУЕМСЯ ПОИСКОМ!!! Так слышно меня?.. :pardon:
Интересного, конструктивного и креативного общения! ;)

Image



Post new topic Reply to topic  [ 101 posts ]  Go to page Previous  1, 2, 3, 4, 5, 6  Next
Author Message
 
PostPosted: 26 Jun 2016 
Хиппей (support team)
User avatar
Joined: 30 Jul 2007
Posts: 111675
Lоcаtion: Киев (Kyiv, UA)
Age: 45
Name: Andrey
Приятный хардкорово-трэшэвый башкотряс :meloman: :lob: :lob: :lob:

8+/10

_________________


Top
 Profile E-mail  
 
 
PostPosted: 26 Jun 2016 
консэрваторъ
Joined: 11 Aug 2007
Posts: 16807
Lоcаtion: Псков
Age: 45
Name: Сергей
1989 - Signs Of Life 1st press COMBAT CD (wav + flacs) от Лёни... :thanx:

_________________
THRASH 'EM ALL


Top
 Profile E-mail  
 
 
PostPosted: 27 Jun 2016 
5-speed satisfactor
User avatar
Joined: 16 Feb 2009
Posts: 3722
Lоcаtion: New York, USA
Age: 41
Name: Leonid
Corpus Christi, TX? Не знал. У меня чудик на eBay-e только что как раз и купил этот цыд. Неужели он сам был членом группы? Gabriel Garcia (не Маркес)... Или просто - корреспондент?

_________________
Death rules! Metal to all who oppose!


Top
 Profile  
 
 
PostPosted: 27 Jun 2016 
А может смените мне статус?..
User avatar
Joined: 17 Jan 2008
Posts: 878
Lоcаtion: Пенза
Age: 41
Name: Денис
Поделитtсь кто-нибудь рипом переиздания вшедшим в 2009-ом году на Forged in Fire(саблейбле Rockadrome Records).

Devastation - Idolatry 1991 (2009 Forged in Fire ROCK018-F-2)

Image

1. Deliver the Suffering 06:24
2. Freewill 05:07
3. Forsaken Hatred 05:50
4. Souls of Sacrifice 05:05
5. Idolatry 06:18
6. Legacy of Faith 05:16
7. Subconscious 05:06
8. Never Believe 04:54
9. Blood for Blood 04:52
10. Desolation 03:47
11. Tomorrow We Die 05:24

Tracks 9-11 recorded in 2008 with new line-up.


Top
 Profile  
 
 
PostPosted: 28 Jun 2016 
Хиппей (support team)
User avatar
Joined: 30 Jul 2007
Posts: 111675
Lоcаtion: Киев (Kyiv, UA)
Age: 45
Name: Andrey
metaleonid wrote:
Corpus Christi, TX? Не знал.

А как-то в начале 90-х майку пару лет с таких названием носил - "Corpus Christi", чёрная просто и белыми буквами Корпус Кристи. Думал... это группа такая :crazy:
Quote:
Праздник Тела и Крови Христовых, в Католической церкви — праздник, посвящённый почитанию Тела и Крови Христа, в которые пресуществляется хлеб и вино во время евхаристии. Википедия
:pardon:
metaleonid wrote:
Неужели он сам был членом группы?

:vic:

_________________


Top
 Profile E-mail  
 
 
PostPosted: 28 Jun 2016 
Хиппей (support team)
User avatar
Joined: 30 Jul 2007
Posts: 111675
Lоcаtion: Киев (Kyiv, UA)
Age: 45
Name: Andrey
metaleonid wrote:
Gabriel Garcia (не Маркес)... Или просто - корреспондент?

:vic: Там ваще почти чисто латиносская группа случилась :arrow: http://www.metal-archives.com/bands/Dev ... ab_members

_________________


Top
 Profile E-mail  
 
 
PostPosted: 01 Jul 2016 
Персональный статус
User avatar
Joined: 11 May 2011
Posts: 418
Lоcаtion: Omsk
Age: 29
Name: Alexander
:thanx:
Оригинальная разбивка тут тоже косячная на 8 треков, когда их 9.
Вот, может пригодится кому: | +
Code:
REM GENRE "Thrash Metal"
REM DATE 1989
REM DISCID 68080C08
REM DISCNUMBER 1
REM TOTALDISCS 1
REM COMMENT "ExactAudioCopy v0.99pb5"
CATALOG 8856120082
PERFORMER "Devastation"
TITLE "Signs Of Life"
FILE "Devastation - Signs Of Life.flac" WAVE
  TRACK 01 AUDIO
    TITLE "Eye For An Eye"
    PERFORMER "Devastation"
    INDEX 00 00:00:00
    INDEX 01 00:00:33
  TRACK 02 AUDIO
    TITLE "Desolation"
    PERFORMER "Devastation"
    INDEX 00 03:33:00
    INDEX 01 03:33:60
  TRACK 03 AUDIO
    TITLE "Manic Depressive"
    PERFORMER "Devastation"
    INDEX 01 07:04:60
  TRACK 04 AUDIO
    TITLE "Signs Of Life"
    PERFORMER "Devastation"
    INDEX 00 09:48:28
    INDEX 01 09:51:03
  TRACK 05 AUDIO
    TITLE "Retribution"
    PERFORMER "Devastation"
    INDEX 00 14:01:00
    INDEX 01 14:05:13
  TRACK 06 AUDIO
    TITLE "Tomorrow We Die"
    PERFORMER "Devastation"
    INDEX 00 18:05:70
    INDEX 01 18:08:10
  TRACK 07 AUDIO
    TITLE "Contaminated"
    PERFORMER "Devastation"
    INDEX 00 23:06:60
    INDEX 01 23:10:65
  TRACK 08 AUDIO
    TITLE "Fear Of The Unknown"
    PERFORMER "Devastation"
    INDEX 00 25:39:03
    INDEX 01 25:43:33
  TRACK 09 AUDIO
    TITLE "Escape To Violence"
    PERFORMER "Devastation"
    INDEX 00 31:44:28
    INDEX 01 31:46:58

_________________
Enigma, unholy, ungodly, commander of the regeneration
Insidious and caught, implored by disgrace
Inhumation... The burial of man
Confession... Unify all evil


Top
 Profile E-mail  
 
 
PostPosted: 31 Jan 2017 
Трешер
User avatar
Joined: 25 Feb 2011
Posts: 1115
Lоcаtion: Харьков
Age: 42
Name: Aleksandr
Есть такое , но там брак сцукко ! микро разрывы на протяжении всего диска ! Крироворукожопые делали ремастер :dash:

Другое издание пока так и не купил , а альбом хороший :lob:

Вот лучше эти слушать - Devastation - Idolatry (1999 Re-Issue,Bonus Tracks)
Devastation - 1991 - Idolatry

А вот последние три песенки без брака , могу закинуть
9. Blood for Blood 04:52
10. Desolation 03:47
11. Tomorrow We Die 05:24


Top
 Profile E-mail  
 
 
PostPosted: 31 Jan 2017 
консэрваторъ
Joined: 11 Aug 2007
Posts: 16807
Lоcаtion: Псков
Age: 45
Name: Сергей
Сань, ты про тему Акусеров забыл уже, да?..

_________________
THRASH 'EM ALL


Top
 Profile E-mail  
 
 
PostPosted: 01 Feb 2017 
Трешер
User avatar
Joined: 25 Feb 2011
Posts: 1115
Lоcаtion: Харьков
Age: 42
Name: Aleksandr
Блин , да естественно :oops: хорошо что напомнил.

Залил я ;)


Top
 Profile E-mail  
 
 
PostPosted: 01 Feb 2017 
Хиппей (support team)
User avatar
Joined: 30 Jul 2007
Posts: 111675
Lоcаtion: Киев (Kyiv, UA)
Age: 45
Name: Andrey
То есть запрос в силе, да? И первое сообщение желательно подправить? :lloo:

_________________


Top
 Profile E-mail  
 
 
PostPosted: 01 Feb 2017 
Трешер
User avatar
Joined: 25 Feb 2011
Posts: 1115
Lоcаtion: Харьков
Age: 42
Name: Aleksandr
Devastation 1991 Idolatry(2008)

Сканер пока не работает :pardon:

Image

Скорее - Thrash/Death/Metal нежели просто Thrash/Metal , уж больно агрессивны и быстры :lob: http://www.metal-archives.com/bands/Devastation/1502


Top
 Profile E-mail  
 
 
PostPosted: 02 Feb 2017 
консэрваторъ
Joined: 11 Aug 2007
Posts: 16807
Lоcаtion: Псков
Age: 45
Name: Сергей
Это чего, на архивах косяк с годом выпуска переиздания?.. :arrov: http://www.metal-archives.com/albums/De ... try/425913 January 27th, 2009?
Пукает сей ремастер... :( первый трек 01:41... и далее по тексту...
glloomerxe wrote:
микро разрывы

это треморные сибилянты... тут ярко 05:04 (было и раньше, пропустил)... он же 05:28, 06:08... пук 06:21... :( и это уже не исправишь кустарными методами...
Такое ощущение, что в студию Forged in Fire прислали винил ROCK018-F-1 из головного офиса Rockadrome, а те на слабеньком вертаке запилили цид ROCK018-F-2... :( в урну...

_________________
THRASH 'EM ALL


Top
 Profile E-mail  
 
 
PostPosted: 02 Feb 2017 
Трешер
User avatar
Joined: 25 Feb 2011
Posts: 1115
Lоcаtion: Харьков
Age: 42
Name: Aleksandr
Да диск мертв , три последние песни вроде нормальные ? без пуков :ok:


Last edited by glloomerxe on 02 Feb 2017, edited 1 time in total.

Top
 Profile E-mail  
 
 
PostPosted: 02 Feb 2017 
консэрваторъ
Joined: 11 Aug 2007
Posts: 16807
Lоcаtion: Псков
Age: 45
Name: Сергей
Ну у меня эти бонусы давно есть, звучат один в один с твоими, начало только повтыкал от Blood for Blood, не расслушивал... :vic:

_________________
THRASH 'EM ALL


Top
 Profile E-mail  
 
 
PostPosted: 02 Feb 2017 
Трешер
User avatar
Joined: 25 Feb 2011
Posts: 1115
Lоcаtion: Харьков
Age: 42
Name: Aleksandr
10 Desolation и 11.Tomorrow We Die напомнили - Slayer :punko: а 9. Blood for Blood видимо свежак , не понравилсо .

слабо как то выдать такой звук после 1991 года


Top
 Profile E-mail  
 
 
PostPosted: 25 Sep 2018 
5-speed satisfactor
User avatar
Joined: 16 Feb 2009
Posts: 3722
Lоcаtion: New York, USA
Age: 41
Name: Leonid
Андрюша и Лаки, ловите ссылку и оформляйте....

Devastation - (USA, Corpus Christi, Texas) - 1991 - Violent Termination + live 1991 1st press CD 1996 (FLACs+WAV+CUE+LOG+BMP)

Image

Image

Вот этот диск: https://www.discogs.com/Devastation-Vio ... se/3604792

Ушел сразу, как только выставил на Дискогз, причем за немаленькую сумму. Я еще подешевке выставил.

Кстати, этот релиз сделал мой друг Nieraj. Defiled Records - его фирма.

Image Image Image

log
Exact Audio Copy V0.99 prebeta 5 from 4. May 2009

EAC extraction logfile from 22. September 2018, 21:34

Devastation / Violent Termination

Used drive : PLEXTOR DVDR PX-760A Adapter: 4 ID: 0

Read mode : Secure
Utilize accurate stream : Yes
Defeat audio cache : Yes
Make use of C2 pointers : No

Read offset correction : 30
Overread into Lead-In and Lead-Out : Yes
Fill up missing offset samples with silence : Yes
Delete leading and trailing silent blocks : No
Null samples used in CRC calculations : No
Used interface : Installed external ASPI interface

Used output format : Internal WAV Routines
Sample format : 44.100 Hz; 16 Bit; Stereo


TOC of the extracted CD

Track | Start | Length | Start sector | End sector
---------------------------------------------------------
1 | 0:00.00 | 1:04.10 | 0 | 4809
2 | 1:04.10 | 3:59.32 | 4810 | 22766
3 | 5:03.42 | 4:15.68 | 22767 | 41959
4 | 9:19.35 | 3:28.37 | 41960 | 57596
5 | 12:47.72 | 3:47.50 | 57597 | 74671
6 | 16:35.47 | 4:06.53 | 74672 | 93174
7 | 20:42.25 | 6:08.17 | 93175 | 120791
8 | 26:50.42 | 4:28.73 | 120792 | 140964
9 | 31:19.40 | 4:23.69 | 140965 | 160758
10 | 35:43.34 | 3:28.73 | 160759 | 176431
11 | 39:12.32 | 3:50.02 | 176432 | 193683
12 | 43:02.34 | 4:26.68 | 193684 | 213701
13 | 47:29.27 | 5:05.68 | 213702 | 236644
14 | 52:35.20 | 4:49.50 | 236645 | 258369


Range status and errors

Selected range

Filename C:\Shared\Devastation\Violent Termination\Devastation - Violent Termination.wav

Peak level 99.8 %
Range quality 100.0 %
Copy CRC FEBB764A
Copy OK

No errors occurred

End of status report

cue
REM GENRE "Thrash Metal"
REM DATE 1987
REM DISCID C50D740E
REM COMMENT "ExactAudioCopy v0.99pb5"
CATALOG 0000000000000
PERFORMER "Devastation"
TITLE "Violent Termination"
FILE "Devastation - Violent Termination.wav" WAVE
TRACK 01 AUDIO
TITLE "(Intro) Beginning Of The End"
PERFORMER "Devastation"
INDEX 01 00:00:00
TRACK 02 AUDIO
TITLE "Massive Devastation"
PERFORMER "Devastation"
INDEX 01 01:04:10
TRACK 03 AUDIO
TITLE "Innocent Submission"
PERFORMER "Devastation"
INDEX 00 05:00:57
INDEX 01 05:03:42
TRACK 04 AUDIO
TITLE "Syndrome Of Terror"
PERFORMER "Devastation"
INDEX 00 09:16:37
INDEX 01 09:19:35
TRACK 05 AUDIO
TITLE "Violent Termination"
PERFORMER "Devastation"
INDEX 00 12:45:00
INDEX 01 12:47:72
TRACK 06 AUDIO
TITLE "Death Is Calling"
PERFORMER "Devastation"
INDEX 00 16:31:60
INDEX 01 16:35:47
TRACK 07 AUDIO
TITLE "Meet Your Maker"
PERFORMER "Devastation"
INDEX 00 20:32:22
INDEX 01 20:42:25
TRACK 08 AUDIO
TITLE "Insanity"
PERFORMER "Devastation"
INDEX 00 26:48:07
INDEX 01 26:50:42
TRACK 09 AUDIO
TITLE "Deceptive Slaughter"
PERFORMER "Devastation"
INDEX 00 31:16:40
INDEX 01 31:19:40
TRACK 10 AUDIO
TITLE "Beneath The Surface"
PERFORMER "Devastation"
INDEX 00 35:40:34
INDEX 01 35:43:34
TRACK 11 AUDIO
TITLE "Desolation (live)"
PERFORMER "Devastation"
INDEX 01 39:12:32
TRACK 12 AUDIO
TITLE "Souls Of Sacrifice (live)"
PERFORMER "Devastation"
INDEX 01 43:02:34
TRACK 13 AUDIO
TITLE "Idolatry (live)"
PERFORMER "Devastation"
INDEX 01 47:29:27
TRACK 14 AUDIO
TITLE "Subconcious (live)"
PERFORMER "Devastation"
INDEX 01 52:35:20

_________________
Death rules! Metal to all who oppose!


Last edited by Scatterbrain on 14 Oct 2018, edited 1 time in total.
Подрихтовано


Top
 Profile  
 
 
PostPosted: 25 Sep 2018 
Хиппей (support team)
User avatar
Joined: 30 Jul 2007
Posts: 111675
Lоcаtion: Киев (Kyiv, UA)
Age: 45
Name: Andrey
:thanx:

mirror: Uloz l Drop l Narod l M-Cloud

_________________


Top
 Profile E-mail  
 
 
PostPosted: 25 Sep 2018 
5-speed satisfactor
User avatar
Joined: 16 Feb 2009
Posts: 3722
Lоcаtion: New York, USA
Age: 41
Name: Leonid
Андрейей, почту проверь. Лаки, оформишь?

_________________
Death rules! Metal to all who oppose!


Top
 Profile  
 
 
PostPosted: 25 Sep 2018 
5-speed satisfactor
User avatar
Joined: 16 Feb 2009
Posts: 3722
Lоcаtion: New York, USA
Age: 41
Name: Leonid
Фигась как мой телефон глюкнул. Андрейей. Это не я добавил. Это телефон. Но прикольно вышло.

_________________
Death rules! Metal to all who oppose!


Top
 Profile  
 
Display posts from previous:  Sort by  
Post new topic Reply to topic  [ 101 posts ]  Go to page Previous  1, 2, 3, 4, 5, 6  Next

All times are UTC + 3 hours


Who is online

Users browsing this forum: No registered users and 3 guests


You cannot post new topics in this forum
You cannot reply to topics in this forum
You cannot edit your posts in this forum
You cannot delete your posts in this forum
You cannot post attachments in this forum

Search for:
Яндекс.Метрика
Powered by phpBB © 2000, 2002, 2005, 2007 phpBB Group