\m/ 80's metal \m/

Информационно-аналитический форум "80 см пыли" (In Search We Trust) "У нас никто никуда не спешит"
Me For You - http://me-4u.com
It is currently 18 Jun 2019

All times are UTC + 3 hours

Spoiler
Chat - temporary registration for foreign users (please leave your application here)





Forum rules


Уважаемые пользователи ресурса, друзья, коллеги и гости нашего форума. Данный раздел конференции создан с целью рафинации, и посвящён такому стилевому направлению в музыке, как Thrash Metal во всех его проявлениях и ипостасях, а иногда и переходящему на пограничные стили Speed, Power, Groove, Crossover, MDM и т.п.
Главное правило здесь одно: Одна группа – одна тема! Всё остальное созвучно основным нормам поведения на конференции.
Шаблон оформления тем в этом подфоруме должен быть основан на данных сайта www.metal-archives.com и выглядеть следующим образом:

Группа (Страна) - Стилевые рамки - дискография
Slayer (USA) - Thrash Metal - дискография


В теме допустимо размещение всей информации касающейся данного коллектива: анонсы любых альбомов в любых форматах, запросы любых релизов коллектива (кроме релизов текущего и прошлого годов), обсуждения, обзоры, а в остальном всё как обычно. Уважаем друг друга, не грубим, соблюдаем нормы поведения на конференции, оформляем анонсы и запросы красиво и информативно, что бы модераторы не посчитали их троллингом, и не отправили куда положено, выписав Вам предупреждение или ещё что похуже… Прежде чем что-то запросить или запостить, пользуемся поиском! Пользуемся поиском! ПОЛЬЗУЕМСЯ ПОИСКОМ!!! Так слышно меня?.. :pardon:
Интересного, конструктивного и креативного общения! ;)

Image



Post new topic Reply to topic  [ 104 posts ]  Go to page Previous  1, 2, 3, 4, 5, 6
Author Message
 
PostPosted: 14 Oct 2018 
Хиппей (support team)
User avatar
Joined: 30 Jul 2007
Posts: 113081
Lоcаtion: Киев (Kyiv, UA)
Age: 46
Name: Andrey
Приятный хардкорово-трэшэвый башкотряс :meloman: :lob: :lob: :lob:

8+/10

Хм, это я такое про 89-й год сказал?
Ну.. бывает :scratch:

_________________


Top
 Profile E-mail  
 
 
PostPosted: 04 May 2019 
Хиппей (support team)
User avatar
Joined: 30 Jul 2007
Posts: 113081
Lоcаtion: Киев (Kyiv, UA)
Age: 46
Name: Andrey
Лёня пару часиков тому подарил рип с первопресса :thanx:

Ссылка уже на МеЧу :arrow: http://me-4u.com/music/1819-devastation ... 2-usa.html :dance:

_________________


Top
 Profile E-mail  
 
 
PostPosted: 09 May 2019 
Хиппей (support team)
User avatar
Joined: 30 Jul 2007
Posts: 113081
Lоcаtion: Киев (Kyiv, UA)
Age: 46
Name: Andrey
Devastation - 1991 - Idolatry [1999, Century Media, 66036-2, EU]

Уже и так и сяк этот альбом слушал.
Не, в данный момент (а это уже почти месяц), данного типа "музыка" мне чего-то не катит вообще.

Сходил на Метал-Архивсы, прочёл хвалебную рецу. Затем ещё на несколько сайтов, - а там альбом в топах находится.
С чем и кем сравнивают? В Сепультурой того же периода, Позездом и прочими группами, играющими на стыке трэш-дэза.
Ну и хвалят скоростной материал и вокал.
Дык, я то обожаю ту же Сепультуру, Шульдинера, но, простите, там, хоть мелодии есть, как часто говорит Егор. И мелодии запоминающиеся хотелось бы слышать. А здесь же сплошное долбилово.
Я такое не люблю, увы :(

5/10

За старания + скоростные вещи. Но злые и туповатые песни я не люблю.
Лучге весёлый хардкор, чем вот такой вот трэш беспонтовый с кучей понтов устаревших.

mirror: Ur-Files l Telega l Narod

log
Exact Audio Copy V0.99 prebeta 5 from 4. May 2009

EAC extraction logfile from 22. September 2018, 22:54

Devastation / Idolatry

Used drive : PLEXTOR DVDR PX-760A Adapter: 4 ID: 0

Read mode : Secure
Utilize accurate stream : Yes
Defeat audio cache : Yes
Make use of C2 pointers : No

Read offset correction : 30
Overread into Lead-In and Lead-Out : Yes
Fill up missing offset samples with silence : Yes
Delete leading and trailing silent blocks : No
Null samples used in CRC calculations : No
Used interface : Installed external ASPI interface

Used output format : Internal WAV Routines
Sample format : 44.100 Hz; 16 Bit; Stereo


TOC of the extracted CD

Track | Start | Length | Start sector | End sector
---------------------------------------------------------
1 | 0:00.25 | 6:23.40 | 25 | 28789
2 | 6:23.65 | 5:06.42 | 28790 | 51781
3 | 11:30.32 | 5:50.15 | 51782 | 78046
4 | 17:20.47 | 5:05.33 | 78047 | 100954
5 | 22:26.05 | 6:17.60 | 100955 | 129289
6 | 28:43.65 | 5:16.30 | 129290 | 153019
7 | 34:00.20 | 5:05.57 | 153020 | 175951
8 | 39:06.02 | 4:54.23 | 175952 | 198024


Range status and errors

Selected range

Filename C:\Shared\Devastation\Idolatry\Devastation - Idolatry.wav

Peak level 94.6 %
Range quality 100.0 %
Copy CRC 9D2B74DF
Copy OK

No errors occurred

End of status report

cue
REM GENRE "Thrash Metal"
REM DATE 1991
REM DISCID 620A5008
REM COMMENT "ExactAudioCopy v0.99pb5"
PERFORMER "Devastation"
TITLE "Idolatry"
FILE "Devastation - Idolatry.wav" WAVE
TRACK 01 AUDIO
TITLE "Deliver The Suffering"
PERFORMER "Devastation"
INDEX 00 00:00:00
INDEX 01 00:00:25
TRACK 02 AUDIO
TITLE "Freewill"
PERFORMER "Devastation"
INDEX 00 06:23:62
INDEX 01 06:23:65
TRACK 03 AUDIO
TITLE "Forsaken Hatred"
PERFORMER "Devastation"
INDEX 00 11:29:37
INDEX 01 11:30:32
TRACK 04 AUDIO
TITLE "Souls Of Sacrifice"
PERFORMER "Devastation"
INDEX 00 17:19:70
INDEX 01 17:20:47
TRACK 05 AUDIO
TITLE "Idolatry"
PERFORMER "Devastation"
INDEX 00 22:24:50
INDEX 01 22:26:05
TRACK 06 AUDIO
TITLE "Legacy Of Faith"
PERFORMER "Devastation"
INDEX 00 28:43:60
INDEX 01 28:43:65
TRACK 07 AUDIO
TITLE "Subconscious"
PERFORMER "Devastation"
INDEX 00 33:59:17
INDEX 01 34:00:20
TRACK 08 AUDIO
TITLE "Never Believe"
PERFORMER "Devastation"
INDEX 00 39:05:25
INDEX 01 39:06:02

_________________


Top
 Profile E-mail  
 
 
PostPosted: 10 May 2019 
5-speed satisfactor
User avatar
Joined: 16 Feb 2009
Posts: 3737
Lоcаtion: New York, USA
Age: 41
Name: Leonid
Devastation - говно группа. Я оставил рипы для коллекции и не более того. Но зато цыды продались на ура.

_________________
Death rules! Metal to all who oppose!


Top
 Profile  
 
Display posts from previous:  Sort by  
Post new topic Reply to topic  [ 104 posts ]  Go to page Previous  1, 2, 3, 4, 5, 6

All times are UTC + 3 hours


Who is online

Users browsing this forum: No registered users and 2 guests


You cannot post new topics in this forum
You cannot reply to topics in this forum
You cannot edit your posts in this forum
You cannot delete your posts in this forum
You cannot post attachments in this forum

Search for:
Яндекс.Метрика
Powered by phpBB © 2000, 2002, 2005, 2007 phpBB Group