\m/ 80's metal \m/

Информационно-аналитический форум "80 см пыли" (In Search We Trust) "У нас никто никуда не спешит"
Me For You - http://me-4u.com
It is currently 19 Jul 2019

All times are UTC + 3 hours

Spoiler
Chat - temporary registration for foreign users (please leave your application here)





Forum rules


Уважаемые пользователи ресурса, друзья, коллеги и гости нашего форума. Данный раздел конференции создан с целью рафинации, и посвящён такому стилевому направлению в музыке, как Thrash Metal во всех его проявлениях и ипостасях, а иногда и переходящему на пограничные стили Speed, Power, Groove, Crossover, MDM и т.п.
Главное правило здесь одно: Одна группа – одна тема! Всё остальное созвучно основным нормам поведения на конференции.
Шаблон оформления тем в этом подфоруме должен быть основан на данных сайта www.metal-archives.com и выглядеть следующим образом:

Группа (Страна) - Стилевые рамки - дискография
Slayer (USA) - Thrash Metal - дискография


В теме допустимо размещение всей информации касающейся данного коллектива: анонсы любых альбомов в любых форматах, запросы любых релизов коллектива (кроме релизов текущего и прошлого годов), обсуждения, обзоры, а в остальном всё как обычно. Уважаем друг друга, не грубим, соблюдаем нормы поведения на конференции, оформляем анонсы и запросы красиво и информативно, что бы модераторы не посчитали их троллингом, и не отправили куда положено, выписав Вам предупреждение или ещё что похуже… Прежде чем что-то запросить или запостить, пользуемся поиском! Пользуемся поиском! ПОЛЬЗУЕМСЯ ПОИСКОМ!!! Так слышно меня?.. :pardon:
Интересного, конструктивного и креативного общения! ;)

Image



Post new topic Reply to topic  [ 68 posts ]  Go to page Previous  1, 2, 3, 4  Next
Author Message
 
PostPosted: 17 Sep 2017 
Доктор энтомологии
User avatar
Joined: 22 Jan 2009
Posts: 9804
Lоcаtion: Даугавпилс
Age: 44
Name: Алексей
День Криппера, прям. :lob: Заценил еще предыдущий альбом "Гиена". По сути, тоже современный напористый злой трэшак, порой, по типу позднего Дестракшен. Очень хорош. А новый альбом - еще более железобетонный и бессердечный. Грув местами есть, надо весь альбом заслушать, а не только посмотреть клип на лучшую песенку.


Top
 Profile  
 
 
PostPosted: 17 Sep 2017 
Хиппей (support team)
User avatar
Joined: 30 Jul 2007
Posts: 113537
Lоcаtion: Киев (Kyiv, UA)
Age: 46
Name: Andrey
Послушаю и я как-то новый альбом, спасибо, Лёш, за наводкину :thanx:

_________________


Top
 Profile E-mail  
 
 
PostPosted: 17 Sep 2017 
Доктор энтомологии
User avatar
Joined: 22 Jan 2009
Posts: 9804
Lоcаtion: Даугавпилс
Age: 44
Name: Алексей
Ага. Как раз погода тут такая тучно-серая. Вот самое оно то будет. Может разгонит всю эту хмурь злая девка орущая


Top
 Profile  
 
 
PostPosted: 17 Sep 2017 
Доктор энтомологии
User avatar
Joined: 22 Jan 2009
Posts: 9804
Lоcаtion: Даугавпилс
Age: 44
Name: Алексей
Тьфу, наоборот вышло :fingal:
На Латвию идет циклон "Томас": ожидается ветер, ливни и наводнения http://www.delfi.lv/prognoz-pogody/novo ... d=49247477


Top
 Profile  
 
 
PostPosted: 17 Sep 2017 
Хиппей (support team)
User avatar
Joined: 30 Jul 2007
Posts: 113537
Lоcаtion: Киев (Kyiv, UA)
Age: 46
Name: Andrey
Мдя.
Пойду я на шошлычок, пока всё не сожрали. У нас лето :dance:

Image

_________________


Top
 Profile E-mail  
 
 
PostPosted: 17 Sep 2017 
Хиппей (support team)
User avatar
Joined: 30 Jul 2007
Posts: 113537
Lоcаtion: Киев (Kyiv, UA)
Age: 46
Name: Andrey
Entomologist wrote:
На Латвию идет циклон "Томас"

Та нормальок. После него будет сразу тёплый антициклон - Джерри :kro:

_________________


Top
 Profile E-mail  
 
 
PostPosted: 18 Sep 2017 
консэрваторъ
User avatar
Joined: 11 Aug 2007
Posts: 17049
Lоcаtion: Псков
Age: 45
Name: Сергей
Scatterbrain wrote:
прекращай вопросы такие задавать

Ок, сча всё собирём, спасибоса... :thanx: :thanx:
Entomologist wrote:
Cripper - 2017 - Into The Fire

:true: :true:

_________________
THRASH 'EM ALL


Top
 Profile E-mail  
 
 
PostPosted: 18 Sep 2017 
консэрваторъ
User avatar
Joined: 11 Aug 2007
Posts: 17049
Lоcаtion: Псков
Age: 45
Name: Сергей
4 альбома в лосях... :arrov: https://rutracker.org/forum/viewtopic.php?t=4207305
Миник 6-ого надо конечно бы в качестве получше, чем 192... :arrov: http://dark-world.ru/albums/Cripper-Kil ... ice-EP.php
17-ый ф 320 :arrov: https://rutracker.org/forum/viewtopic.php?t=5453299
И цида миника 6-ого сходу в продаже не вижу... :vic:

_________________
THRASH 'EM ALL


Top
 Profile E-mail  
 
 
PostPosted: 18 Sep 2017 
Хиппей (support team)
User avatar
Joined: 30 Jul 2007
Posts: 113537
Lоcаtion: Киев (Kyiv, UA)
Age: 46
Name: Andrey
splatty wrote:
4 альбома в лосях... https://rutracker.org/forum/viewtopic.php?t=4207305

О! :thanx:

_________________


Top
 Profile E-mail  
 
 
PostPosted: 18 Sep 2017 
Хиппей (support team)
User avatar
Joined: 30 Jul 2007
Posts: 113537
Lоcаtion: Киев (Kyiv, UA)
Age: 46
Name: Andrey
splatty wrote:
Миник 6-ого надо конечно бы в качестве получше, чем 192.

:thanx:

Пока и такое покатит.
А новый альбом в лосе на днях будет.

_________________


Top
 Profile E-mail  
 
 
PostPosted: 18 Sep 2017 
консэрваторъ
User avatar
Joined: 11 Aug 2007
Posts: 17049
Lоcаtion: Псков
Age: 45
Name: Сергей
:lob:

_________________
THRASH 'EM ALL


Top
 Profile E-mail  
 
 
PostPosted: 19 Sep 2017 
Генеральный thrasher
User avatar
Joined: 03 Oct 2008
Posts: 3714
Lоcаtion: Ханты-Мансийский АО
Age: 44
Name: Сергей
Пытался послушать новый альбом.Впечатления неоднозначные...главное - будто кто-то по башке молотком стучит и рядом подвывает баба. :shok: Слушайте сами!


Top
 Profile  
 
 
PostPosted: 30 Sep 2017 
консэрваторъ
User avatar
Joined: 11 Aug 2007
Posts: 17049
Lоcаtion: Псков
Age: 45
Name: Сергей
Cripper "Mother" (OFFICIAL VIDEO) | +

_________________
THRASH 'EM ALL


Top
 Profile E-mail  
 
 
PostPosted: 30 Sep 2017 
Хиппей (support team)
User avatar
Joined: 30 Jul 2007
Posts: 113537
Lоcаtion: Киев (Kyiv, UA)
Age: 46
Name: Andrey
Как-то группа уже поднадоела. Нет свежий идей и исполнений их же. Слишком уж они себя в узкие рамки сами загнали.

_________________


Top
 Profile E-mail  
 
 
PostPosted: 30 Sep 2017 
консэрваторъ
User avatar
Joined: 11 Aug 2007
Posts: 17049
Lоcаtion: Псков
Age: 45
Name: Сергей
А я даже не слушал ещё...

_________________
THRASH 'EM ALL


Top
 Profile E-mail  
 
 
PostPosted: 30 Sep 2017 
Доктор энтомологии
User avatar
Joined: 22 Jan 2009
Posts: 9804
Lоcаtion: Даугавпилс
Age: 44
Name: Алексей
Ну в целом да, клаустрафобия :dance: . Постоянно находится в махонькой тесной комнатенке неуютно, где еще на голову сыпится потолок... Вот такая и эта группа. И - хорошо! Молодцы, что они - есть и играют для себя и нас. Хорошее развлечение, у всех по всякому :svin: . Классика будующего


Top
 Profile  
 
 
PostPosted: 30 Sep 2017 
Хиппей (support team)
User avatar
Joined: 30 Jul 2007
Posts: 113537
Lоcаtion: Киев (Kyiv, UA)
Age: 46
Name: Andrey
А я даже не слушал ещё...

А я всю дискографию качнул и слушал. Мож поэтому и показались альбомы чем дальше, тем никчёмнее :scratch:

_________________


Top
 Profile E-mail  
 
 
PostPosted: 09 Oct 2017 
Хиппей (support team)
User avatar
Joined: 30 Jul 2007
Posts: 113537
Lоcаtion: Киев (Kyiv, UA)
Age: 46
Name: Andrey
Первые два альбома пока переслушивать не буду, просто добавил их в личные топы, а вот сейчас переливаю всю дискографию и более внимательно начал слушать её, начиная с 09 года...

_________________


Top
 Profile E-mail  
 
 
PostPosted: 09 Oct 2017 
Хиппей (support team)
User avatar
Joined: 30 Jul 2007
Posts: 113537
Lоcаtion: Киев (Kyiv, UA)
Age: 46
Name: Andrey
Cripper - 2007 - Freak Inside [flac]

mirror: Depos l Narod l M-Cloud l Drop

Image Image Image Image

Image Image Image
Image Image Image

log
Exact Audio Copy V1.0 beta 3 from 29. August 2011

Отчёт EAC об извлечении, выполненном 6. октября 2012, 15:13

Cripper / Freak Inside

Дисковод: PIONEER BD-RW BDR-207D Adapter: 1 ID: 1

Режим чтения : Достоверность
Использование точного потока : Да
Отключение кэша аудио : Да
Использование указателей C2 : Нет

Коррекция смещения при чтении : 667
Способность читать области Lead-in и Lead-out : Нет
Заполнение пропущенных сэмплов тишиной : Да
Удаление блоков с тишиной в начале и конце : Нет
При вычислениях CRC использовались нулевые сэмплы : Да
Интерфейс : Встроенный Win32-интерфейс для Win NT/2000

Выходной формат : Пользовательский кодировщик
Выбранный битрейт : 1024 kBit/s
Качество : Высокий
Добавление ID3-тега : Нет
Утилита сжатия : C:\Program Files\Exact Audio Copy\Flac\flac.exe
Дополнительные параметры : -V -8 -T "Date=%year%" -T "Genre=%genre%" %source%


TOC извлечённого CD

Трек | Старт | Длительность | Начальный сектор | Конечный сектор
---------------------------------------------------------------------
1 | 0:00.00 | 2:12.15 | 0 | 9914
2 | 2:12.15 | 4:14.22 | 9915 | 28986
3 | 6:26.37 | 4:27.31 | 28987 | 49042
4 | 10:53.68 | 6:09.15 | 49043 | 76732
5 | 17:03.08 | 3:21.39 | 76733 | 91846
6 | 20:24.47 | 3:26.33 | 91847 | 107329
7 | 23:51.05 | 4:17.07 | 107330 | 126611
8 | 28:08.12 | 3:49.06 | 126612 | 143792
9 | 31:57.18 | 4:57.60 | 143793 | 166127
10 | 36:55.03 | 5:07.14 | 166128 | 189166
11 | 42:02.17 | 3:51.65 | 189167 | 206556
12 | 45:54.07 | 6:35.38 | 206557 | 236219
13 | 52:29.45 | 3:50.03 | 236220 | 253472
14 | 58:51.48 | 13:01.72 | 264873 | 323519


Характеристики диапазона извлечения и сообщения об ошибках

Выбранный диапазон

Имя файла E:\Cripper - Freak Inside.wav

Пиковый уровень 100.0 %
Скорость извлечения 7.3 X
Качество диапазона 100.0 %
CRC теста FF7E0673
CRC копии FF7E0673
Копирование... OK

Ошибок не произошло


AccurateRip: сводка

Трек 1 : извлечено точно (доверие 1) [89757738] (AR v1)
Трек 2 : извлечено точно (доверие 1) [712FAD49] (AR v1)
Трек 3 : извлечено точно (доверие 1) [65359552] (AR v1)
Трек 4 : извлечено точно (доверие 1) [27E40787] (AR v1)
Трек 5 : извлечено точно (доверие 1) [92237332] (AR v1)
Трек 6 : извлечено точно (доверие 1) [C37749A6] (AR v1)
Трек 7 : извлечено точно (доверие 1) [51590FC7] (AR v1)
Трек 8 : извлечено точно (доверие 1) [B0E2B388] (AR v1)
Трек 9 : извлечено точно (доверие 1) [761EBAC7] (AR v1)
Трек 10 : извлечено точно (доверие 1) [231FFBF1] (AR v1)
Трек 11 : извлечено точно (доверие 1) [79F44E04] (AR v1)
Трек 12 : извлечено точно (доверие 1) [59102087] (AR v1)
Трек 13 : извлечено точно (доверие 1) [51F98EA0] (AR v1)

Все треки извлечены точно

Конец отчёта

==== Контрольная сумма отчёта CFB1A39C208CFB6B8C966D56B863A60B9767E27529E8257BE8FE0ECDD68C8A37 ===

cue
REM DISCID B410D90E
REM COMMENT "ExactAudioCopy v1.0b3"
PERFORMER "Cripper"
TITLE "Freak Inside"
FILE "Cripper - Freak Inside.flac" WAVE
TRACK 01 AUDIO
TITLE "Shortcut"
PERFORMER "Cripper"
INDEX 01 00:00:00
TRACK 02 AUDIO
TITLE "Sun; colour: black"
PERFORMER "Cripper"
INDEX 01 02:12:15
TRACK 03 AUDIO
TITLE "Fire walk with me"
PERFORMER "Cripper"
INDEX 01 06:26:37
TRACK 04 AUDIO
TITLE "60Bpm"
PERFORMER "Cripper"
INDEX 01 10:53:68
TRACK 05 AUDIO
TITLE "Vicious condition"
PERFORMER "Cripper"
INDEX 01 17:03:08
TRACK 06 AUDIO
TITLE "Strike the force"
PERFORMER "Cripper"
INDEX 01 20:24:47
TRACK 07 AUDIO
TITLE "Masquerade"
PERFORMER "Cripper"
INDEX 01 23:51:05
TRACK 08 AUDIO
TITLE "Attention deficit"
PERFORMER "Cripper"
INDEX 01 28:08:12
TRACK 09 AUDIO
TITLE "Slowly beaten hate machine"
PERFORMER "Cripper"
INDEX 01 31:57:18
TRACK 10 AUDIO
TITLE "Break out"
PERFORMER "Cripper"
INDEX 01 36:55:03
TRACK 11 AUDIO
TITLE "Trapped"
PERFORMER "Cripper"
INDEX 01 42:02:17
TRACK 12 AUDIO
TITLE "Kill my thirst"
PERFORMER "Cripper"
INDEX 01 45:54:07
TRACK 13 AUDIO
TITLE "Black terra"
PERFORMER "Cripper"
FLAGS DCP
INDEX 01 52:29:45

_________________


Top
 Profile E-mail  
 
 
PostPosted: 09 Oct 2017 
Хиппей (support team)
User avatar
Joined: 30 Jul 2007
Posts: 113537
Lоcаtion: Киев (Kyiv, UA)
Age: 46
Name: Andrey
Cripper - 2009 - Devil Reveals [flac]

Image Image Image Image

mirror: Depos l Narod l M-Cloud l Drop

Хороший, крепкий и даже очень уж мощный альбом, но в меру. Но... нет уже и той былой разнообразности и интересности в рамках стиля.
Нет, чтобы немного расширить те самые рамки, группа почти ужалась до стиля Kreator второй половины 90-х с вокалом а-ля Сабина Классен и, по ходу, продолжила так же штамповать пусть качественные, но однотипные работы.

10-й и трэк выделяется своими бэками и припевом, а 12-й сбивками и солягой. Вот почему так и весь альбом было не разнообразить?

6+/10


Image Image Image
Image Image Image

log
Exact Audio Copy V1.0 beta 3 from 29. August 2011

Отчёт EAC об извлечении, выполненном 6. октября 2012, 15:45

Cripper / Devil Reveals

Дисковод: PIONEER BD-RW BDR-207D Adapter: 1 ID: 1

Режим чтения : Достоверность
Использование точного потока : Да
Отключение кэша аудио : Да
Использование указателей C2 : Нет

Коррекция смещения при чтении : 667
Способность читать области Lead-in и Lead-out : Нет
Заполнение пропущенных сэмплов тишиной : Да
Удаление блоков с тишиной в начале и конце : Нет
При вычислениях CRC использовались нулевые сэмплы : Да
Интерфейс : Встроенный Win32-интерфейс для Win NT/2000

Выходной формат : Пользовательский кодировщик
Выбранный битрейт : 1024 kBit/s
Качество : Высокий
Добавление ID3-тега : Нет
Утилита сжатия : C:\Program Files\Exact Audio Copy\Flac\flac.exe
Дополнительные параметры : -V -8 -T "Date=%year%" -T "Genre=%genre%" %source%


TOC извлечённого CD

Трек | Старт | Длительность | Начальный сектор | Конечный сектор
---------------------------------------------------------------------
1 | 0:00.00 | 1:22.41 | 0 | 6190
2 | 1:22.41 | 4:26.67 | 6191 | 26207
3 | 5:49.33 | 4:43.66 | 26208 | 47498
4 | 10:33.24 | 6:06.24 | 47499 | 74972
5 | 16:39.48 | 4:15.62 | 74973 | 94159
6 | 20:55.35 | 3:54.21 | 94160 | 111730
7 | 24:49.56 | 4:22.39 | 111731 | 131419
8 | 29:12.20 | 2:41.39 | 131420 | 143533
9 | 31:53.59 | 5:11.29 | 143534 | 166887
10 | 37:05.13 | 3:46.06 | 166888 | 183843
11 | 40:51.19 | 1:13.24 | 183844 | 189342
12 | 42:04.43 | 4:37.45 | 189343 | 210162


Характеристики диапазона извлечения и сообщения об ошибках

Выбранный диапазон

Имя файла E:\Cripper - Devil Reveals.wav

Пиковый уровень 98.8 %
Скорость извлечения 6.9 X
Качество диапазона 100.0 %
CRC теста 317666AC
CRC копии 317666AC
Копирование... OK

Ошибок не произошло


AccurateRip: сводка

Трек 1 : извлечено точно (доверие 1) [5AE3EC87] (AR v1)
Трек 2 : извлечено точно (доверие 1) [EE4421AF] (AR v1)
Трек 3 : извлечено точно (доверие 1) [E2FB95D4] (AR v1)
Трек 4 : извлечено точно (доверие 1) [F00AC24E] (AR v1)
Трек 5 : извлечено точно (доверие 1) [21CC332E] (AR v1)
Трек 6 : извлечено точно (доверие 1) [1B9112FF] (AR v1)
Трек 7 : извлечено точно (доверие 1) [2E90B06D] (AR v1)
Трек 8 : извлечено точно (доверие 1) [98C92D7E] (AR v1)
Трек 9 : извлечено точно (доверие 1) [92CE73DF] (AR v1)
Трек 10 : извлечено точно (доверие 1) [2802075E] (AR v1)
Трек 11 : извлечено точно (доверие 1) [2E312B26] (AR v1)
Трек 12 : извлечено точно (доверие 1) [38F06ED8] (AR v1)

Все треки извлечены точно

Конец отчёта

==== Контрольная сумма отчёта CAA29A9900DF6AE78EB2AA7E6BCC15F791EC2DE4D201B89472D834CFD2F4396F ====

cue
REM DISCID 900AF20C
REM COMMENT "ExactAudioCopy v1.0b3"
PERFORMER "Cripper"
TITLE "Devil Reveals"
FILE "Cripper - Devil Reveals.flac" WAVE
TRACK 01 AUDIO
TITLE "Helix"
PERFORMER "Cripper"
FLAGS DCP
INDEX 01 00:00:00
TRACK 02 AUDIO
TITLE "I..."
PERFORMER "Cripper"
FLAGS DCP
INDEX 01 01:22:41
TRACK 03 AUDIO
TITLE "Life is Deadly"
PERFORMER "Cripper"
FLAGS DCP
INDEX 00 05:48:67
INDEX 01 05:49:33
TRACK 04 AUDIO
TITLE "Kids killing Kids"
PERFORMER "Cripper"
FLAGS DCP
INDEX 00 10:32:49
INDEX 01 10:33:24
TRACK 05 AUDIO
TITLE "Caged with a Gun"
PERFORMER "Cripper"
FLAGS DCP
INDEX 00 16:38:18
INDEX 01 16:39:48
TRACK 06 AUDIO
TITLE "Junkie Shuffle"
PERFORMER "Cripper"
FLAGS DCP
INDEX 00 20:54:70
INDEX 01 20:55:35
TRACK 07 AUDIO
TITLE "More than 4"
PERFORMER "Cripper"
FLAGS DCP
INDEX 00 24:48:00
INDEX 01 24:49:56
TRACK 08 AUDIO
TITLE "I am the Pit"
PERFORMER "Cripper"
FLAGS DCP
INDEX 00 29:11:22
INDEX 01 29:12:20
TRACK 09 AUDIO
TITLE "Devil Reveals"
PERFORMER "Cripper"
FLAGS DCP
INDEX 00 31:52:33
INDEX 01 31:53:59
TRACK 10 AUDIO
TITLE "Faqu"
PERFORMER "Cripper"
FLAGS DCP
INDEX 00 37:04:24
INDEX 01 37:05:13
TRACK 11 AUDIO
TITLE "Methods in Madness"
PERFORMER "Cripper"
FLAGS DCP
INDEX 01 40:51:19
TRACK 12 AUDIO
TITLE "Hysteria"
PERFORMER "Cripper"
FLAGS DCP
INDEX 01 42:04:43

_________________


Top
 Profile E-mail  
 
Display posts from previous:  Sort by  
Post new topic Reply to topic  [ 68 posts ]  Go to page Previous  1, 2, 3, 4  Next

All times are UTC + 3 hours


Who is online

Users browsing this forum: No registered users and 1 guest


You cannot post new topics in this forum
You cannot reply to topics in this forum
You cannot edit your posts in this forum
You cannot delete your posts in this forum
You cannot post attachments in this forum

Search for:
Яндекс.Метрика
Powered by phpBB © 2000, 2002, 2005, 2007 phpBB Group