\m/ 80's metal \m/

Информационно-аналитический форум "80 см пыли" (In Search We Trust) "У нас никто никуда не спешит"
Me For You - http://me-4u.com
It is currently 21 Jun 2019

All times are UTC + 3 hours

Spoiler
Chat - temporary registration for foreign users (please leave your application here)





Forum rules


Уважаемые пользователи ресурса, друзья, коллеги и гости нашего форума. Данный раздел конференции создан с целью рафинации, и посвящён такому стилевому направлению в музыке, как Thrash Metal во всех его проявлениях и ипостасях, а иногда и переходящему на пограничные стили Speed, Power, Groove, Crossover, MDM и т.п.
Главное правило здесь одно: Одна группа – одна тема! Всё остальное созвучно основным нормам поведения на конференции.
Шаблон оформления тем в этом подфоруме должен быть основан на данных сайта www.metal-archives.com и выглядеть следующим образом:

Группа (Страна) - Стилевые рамки - дискография
Slayer (USA) - Thrash Metal - дискография


В теме допустимо размещение всей информации касающейся данного коллектива: анонсы любых альбомов в любых форматах, запросы любых релизов коллектива (кроме релизов текущего и прошлого годов), обсуждения, обзоры, а в остальном всё как обычно. Уважаем друг друга, не грубим, соблюдаем нормы поведения на конференции, оформляем анонсы и запросы красиво и информативно, что бы модераторы не посчитали их троллингом, и не отправили куда положено, выписав Вам предупреждение или ещё что похуже… Прежде чем что-то запросить или запостить, пользуемся поиском! Пользуемся поиском! ПОЛЬЗУЕМСЯ ПОИСКОМ!!! Так слышно меня?.. :pardon:
Интересного, конструктивного и креативного общения! ;)

Image



Post new topic Reply to topic  [ 155 posts ]  Go to page Previous  1 ... 4, 5, 6, 7, 8  Next
Author Message
 
PostPosted: 30 Dec 2011 
хард н хэвщик (support team)
User avatar
Joined: 02 Jun 2008
Posts: 16881
Lоcаtion: Н.Новгород
Age: 32
Name: Артем
McKagan wrote:
McKagan wrote:
Серега, здесь - http://www.aikakoneantikva.com/kotising.html - тоже продается , за 10 евро.
Берем? Доставка думаю, максимум 5 евро.
только что ответили с этого сайта. Я поинтересовался сколько стоит доставка в Германию и в Россию. Как будут еще новости, отпишусь

хорошие новости :dance:
The postage for uninsured shipment makes 2 euros either to Russia or Germany. The payment easiest by Paypal.

ну значит, я заказываю. Цена вопроса 12 евро. Винил предлагаю отправить Мареку в Германию.


Top
 Profile  
 
 
PostPosted: 31 Dec 2011 
консэрваторъ
User avatar
Joined: 11 Aug 2007
Posts: 16980
Lоcаtion: Псков
Age: 45
Name: Сергей
McKagan wrote:
Цена вопроса 12 евро. Винил предлагаю отправить Мареку в Германию.

Тём, бери! Пошли в аську уточним детали...

_________________
THRASH 'EM ALL


Top
 Profile E-mail  
 
 
PostPosted: 31 Dec 2011 
Зарегился вот...
Joined: 14 Dec 2011
Posts: 7
Lоcаtion: Киев
Name: Веталь
Винил мне не нужен, только лосслесс, скинутся согласен но только через вебмани.


Top
 Profile E-mail  
 
 
PostPosted: 02 Jan 2012 
хард н хэвщик (support team)
User avatar
Joined: 02 Jun 2008
Posts: 16881
Lоcаtion: Н.Новгород
Age: 32
Name: Артем
деньги за винил переведены вчера, сегодня - завтра посылочка отправится ко мне :dance: цифровать будет мой друг. Одному из его рипов - Faithful Breath 1981 Олежка дал очень хорошую оценку, так что можно заранее быть уверенным в высоком качестве оцифровки :dance:


Top
 Profile  
 
 
PostPosted: 02 Jan 2012 
Хиппей (support team)
User avatar
Joined: 30 Jul 2007
Posts: 113091
Lоcаtion: Киев (Kyiv, UA)
Age: 46
Name: Andrey
McKagan wrote:
Одному из его рипов

Эх, перечитал тот топик - прослезилсо :dance:

_________________


Top
 Profile E-mail  
 
 
PostPosted: 03 Jan 2012 
хард н хэвщик (support team)
User avatar
Joined: 02 Jun 2008
Posts: 16881
Lоcаtion: Н.Новгород
Age: 32
Name: Артем
Quote:
Hi Artem!

The St.Mucus -7" is now mailed.
:dance: :dance:


Top
 Profile  
 
 
PostPosted: 21 Feb 2012 
консэрваторъ
User avatar
Joined: 11 Aug 2007
Posts: 16980
Lоcаtion: Псков
Age: 45
Name: Сергей
Сегодня получил ответ на запрос сделать мп3 рип сингла отправленный ещё в декабре прошлого года...
| +
Good day. You can make a vinyl rip of this single in MP3 format?
http://www.discogs.com/St-Mucus-Evacuat ... ase/549842
No, I can't. Sorry.
:pardon:

_________________
THRASH 'EM ALL


Top
 Profile E-mail  
 
 
PostPosted: 21 Feb 2012 
Хиппей (support team)
User avatar
Joined: 30 Jul 2007
Posts: 113091
Lоcаtion: Киев (Kyiv, UA)
Age: 46
Name: Andrey
Барыго wrote:
No, I can't. Sorry.

Ну-у, так же низзя. Нависни на него и уточни, чего вдруг сорри, какое такое не могу, по религиозным соображениям? :esel:
И уже в последнюю очередь спроси, сколько будет стоить "нада, вася, нада", его грёбаный рип :fingal:

_________________


Top
 Profile E-mail  
 
 
PostPosted: 21 Feb 2012 
консэрваторъ
User avatar
Joined: 11 Aug 2007
Posts: 16980
Lоcаtion: Псков
Age: 45
Name: Сергей
Не, Андрюх, нам его грёбаный рип уже долампочки :benya:

_________________
THRASH 'EM ALL


Top
 Profile E-mail  
 
 
PostPosted: 21 Feb 2012 
Хиппей (support team)
User avatar
Joined: 30 Jul 2007
Posts: 113091
Lоcаtion: Киев (Kyiv, UA)
Age: 46
Name: Andrey
Аа, фуф, понял. Это тормоза проснулись :dance:

_________________


Top
 Profile E-mail  
 
 
PostPosted: 10 Mar 2012 
Работнечег
User avatar
Joined: 28 Aug 2007
Posts: 5846
Lоcаtion: г. Москва
Age: 30
Name: Дима
Артем, ну как, винил пришел? :oops:


Top
 Profile E-mail  
 
 
PostPosted: 10 Mar 2012 
хард н хэвщик (support team)
User avatar
Joined: 02 Jun 2008
Posts: 16881
Lоcаtion: Н.Новгород
Age: 32
Name: Артем
:cry: :dash: увы :cry: :cry:


Top
 Profile  
 
 
PostPosted: 10 Mar 2012 
хард н хэвщик (support team)
User avatar
Joined: 02 Jun 2008
Posts: 16881
Lоcаtion: Н.Новгород
Age: 32
Name: Артем
сегодня пришел мелкий пакет из США, отправленный мне еще 11 января. Это дает мне надежду всё же получить потерянную посылку из Финляндии :cry:


Top
 Profile  
 
 
PostPosted: 10 Mar 2012 
консэрваторъ
User avatar
Joined: 11 Aug 2007
Posts: 16980
Lоcаtion: Псков
Age: 45
Name: Сергей
Посылка придёт 100%...

_________________
THRASH 'EM ALL


Top
 Profile E-mail  
 
 
PostPosted: 21 Mar 2012 
консэрваторъ
User avatar
Joined: 11 Aug 2007
Posts: 16980
Lоcаtion: Псков
Age: 45
Name: Сергей
St. Mucus – Evacuate The Bowels (7" EP) WAV, scans

Здесь найдено всё :true: Артём, спасибо большое за помощь!!!
Реап лося Natural Mutation мне не интересен...

_________________
THRASH 'EM ALL


Top
 Profile E-mail  
 
 
PostPosted: 21 Mar 2012 
Прокъмитолист
User avatar
Joined: 12 Aug 2007
Posts: 6557
Lоcаtion: Санктъ-Петербуркъ
Age: 51
Name: Олекъ
миник забираем. спасибо, Серёг :thanx:

_________________
прокъметол - это музыко, от которово есть прок (ы)


Top
 Profile  
 
 
PostPosted: 22 Mar 2012 
ТрэшЭрос
User avatar
Joined: 18 Jul 2011
Posts: 2303
Lоcаtion: Гулькевичи
Age: 44
Name: Александр
splatty wrote:
Здесь найдено всё
:thanx: :true:

_________________
Thrash no trash!!!


Top
 Profile E-mail  
 
 
PostPosted: 22 Mar 2012 
Хиппей (support team)
User avatar
Joined: 30 Jul 2007
Posts: 113091
Lоcаtion: Киев (Kyiv, UA)
Age: 46
Name: Andrey
:thanx:

mirror: Speedy l Narod

_________________


Top
 Profile E-mail  
 
 
PostPosted: 29 Apr 2012 
Работнечег
User avatar
Joined: 28 Aug 2007
Posts: 5846
Lоcаtion: г. Москва
Age: 30
Name: Дима
Image

Band: St. Mucus
Album: Natural Mutation
Year: 1995
Label: TUG Records
Genre: Thrash :nea: Metal
Coutry: Finland
Format: Flac + Log + Cue + Covers
Size: 329 Mb

Line-Up:
Janne Kerminen - Guitars, Vocals
Pekka Kulmala - Guitars
Toni Grönroos - Bass
Sauli Sumolainen - Drums


Tracklist:
1. Time 03:04
2. Pit 03:13
3. Turn Away 03:55
4. Fall 02:50
5. Purpleslave 03:24
6. Energy 02:45
7. Misleading Sights 04:09
8. It's About 03:02
9. I'm Insane 03:20
10. No 03:39
11. Meanman 02:06
12. Motorchild 02:37
13. Religion 03:17
14. Exterior (hidden track) 03:04

LOG
Exact Audio Copy V0.99 prebeta 5 from 4. May 2009

EAC extraction logfile from 29. April 2012, 16:45

St. Mucus / Natural Mutation

Used drive : PIONEER DVD-RW DVR-116D Adapter: 0 ID: 0

Read mode : Secure
Utilize accurate stream : Yes
Defeat audio cache : Yes
Make use of C2 pointers : No

Read offset correction : 96
Overread into Lead-In and Lead-Out : No
Fill up missing offset samples with silence : Yes
Delete leading and trailing silent blocks : No
Null samples used in CRC calculations : Yes
Used interface : Native Win32 interface for Win NT & 2000

Used output format : User Defined Encoder
Selected bitrate : 32 kBit/s
Quality : High
Add ID3 tag : No
Command line compressor : C:\Program Files\Exact Audio Copy\Flac\flac.exe
Additional command line options : -6 -V %s


TOC of the extracted CD

Track | Start | Length | Start sector | End sector
---------------------------------------------------------
1 | 0:00.00 | 3:04.05 | 0 | 13804
2 | 3:04.05 | 3:13.27 | 13805 | 28306
3 | 6:17.32 | 3:54.60 | 28307 | 45916
4 | 10:12.17 | 2:50.13 | 45917 | 58679
5 | 13:02.30 | 3:23.52 | 58680 | 73956
6 | 16:26.07 | 2:45.30 | 73957 | 86361
7 | 19:11.37 | 4:09.05 | 86362 | 105041
8 | 23:20.42 | 3:01.48 | 105042 | 118664
9 | 26:22.15 | 3:20.27 | 118665 | 133691
10 | 29:42.42 | 3:38.45 | 133692 | 150086
11 | 33:21.12 | 2:06.00 | 150087 | 159536
12 | 35:27.12 | 2:37.13 | 159537 | 171324
13 | 38:04.25 | 3:17.35 | 171325 | 186134
14 | 41:21.60 | 3:03.70 | 186135 | 199929


Range status and errors

Selected range

Filename D:\Музыка\Lossless\St. Mucus - Natural Mutation (1995)\St. Mucus - Natural Mutation.wav

Peak level 99.0 %
Range quality 100.0 %
Copy CRC CFC96AE3
Copy OK

No errors occurred


AccurateRip summary

Track 1 not present in database
Track 2 accurately ripped (confidence 1) [2C70F084]
Track 3 accurately ripped (confidence 1) [1A004CC0]
Track 4 accurately ripped (confidence 1) [0E14D5C3]
Track 5 accurately ripped (confidence 1) [72C9E02E]
Track 6 accurately ripped (confidence 1) [C5D9FA4F]
Track 7 accurately ripped (confidence 1) [210A5D80]
Track 8 accurately ripped (confidence 1) [49041C1F]
Track 9 accurately ripped (confidence 1) [333BC85B]
Track 10 accurately ripped (confidence 1) [5E875067]
Track 11 accurately ripped (confidence 1) [43447FE7]
Track 12 accurately ripped (confidence 1) [DDA46463]
Track 13 accurately ripped (confidence 1) [ED0628A9]
Track 14 accurately ripped (confidence 1) [57DCB00D]

13 track(s) accurately ripped
1 track(s) not present in the AccurateRip database

Some tracks could not be verified as accurate

End of status report

CUE
REM GENRE "Heavy Metal"
REM DATE 1995
REM DISCID C80A690E
REM COMMENT "ExactAudioCopy v0.99pb5"
PERFORMER "St. Mucus"
TITLE "Natural Mutation"
FILE "St. Mucus - Natural Mutation.flac" WAVE
TRACK 01 AUDIO
TITLE "Time"
PERFORMER "St. Mucus"
INDEX 01 00:00:00
TRACK 02 AUDIO
TITLE "Pit"
PERFORMER "St. Mucus"
INDEX 01 03:04:05
TRACK 03 AUDIO
TITLE "Turn Away"
PERFORMER "St. Mucus"
INDEX 01 06:17:32
TRACK 04 AUDIO
TITLE "Fall"
PERFORMER "St. Mucus"
INDEX 01 10:12:17
TRACK 05 AUDIO
TITLE "Purpleslave"
PERFORMER "St. Mucus"
INDEX 01 13:02:30
TRACK 06 AUDIO
TITLE "Energy"
PERFORMER "St. Mucus"
INDEX 01 16:26:07
TRACK 07 AUDIO
TITLE "Misleading Sights"
PERFORMER "St. Mucus"
INDEX 01 19:11:37
TRACK 08 AUDIO
TITLE "It's About"
PERFORMER "St. Mucus"
INDEX 01 23:20:42
TRACK 09 AUDIO
TITLE "I'm Insane"
PERFORMER "St. Mucus"
INDEX 01 26:22:15
TRACK 10 AUDIO
TITLE "No"
PERFORMER "St. Mucus"
INDEX 01 29:42:42
TRACK 11 AUDIO
TITLE "Meanman"
PERFORMER "St. Mucus"
INDEX 01 33:21:12
TRACK 12 AUDIO
TITLE "Motorchild"
PERFORMER "St. Mucus"
INDEX 01 35:27:12
TRACK 13 AUDIO
TITLE "Religion"
PERFORMER "St. Mucus"
INDEX 01 38:04:25
TRACK 14 AUDIO
TITLE "Exterior"
PERFORMER "St. Mucus"
INDEX 01 41:21:60


Narod.Ru

Мне почему-то Nirvana напомнило :shok: Но кстати в целом понравилось, послушать можно под настроение! Хотя диск навернео все же не стоило покупать...


Top
 Profile E-mail  
 
 
PostPosted: 29 Apr 2012 
Прокъмитолист
User avatar
Joined: 12 Aug 2007
Posts: 6557
Lоcаtion: Санктъ-Петербуркъ
Age: 51
Name: Олекъ
заберу, пожалуй. спасибо, Дим :thanx:

_________________
прокъметол - это музыко, от которово есть прок (ы)


Top
 Profile  
 
Display posts from previous:  Sort by  
Post new topic Reply to topic  [ 155 posts ]  Go to page Previous  1 ... 4, 5, 6, 7, 8  Next

All times are UTC + 3 hours


Who is online

Users browsing this forum: No registered users and 2 guests


You cannot post new topics in this forum
You cannot reply to topics in this forum
You cannot edit your posts in this forum
You cannot delete your posts in this forum
You cannot post attachments in this forum

Search for:
Яндекс.Метрика
Powered by phpBB © 2000, 2002, 2005, 2007 phpBB Group