\m/ 80's metal \m/

Информационно-аналитический форум "80 см пыли" (In Search We Trust) "У нас никто никуда не спешит"
Me For You - http://me-4u.com
It is currently 18 Jun 2019

All times are UTC + 3 hours

Spoiler
Chat - temporary registration for foreign users (please leave your application here)





Forum rules


Уважаемые пользователи ресурса, друзья, коллеги и гости нашего форума. Данный раздел конференции создан с целью рафинации, и посвящён такому стилевому направлению в музыке, как Thrash Metal во всех его проявлениях и ипостасях, а иногда и переходящему на пограничные стили Speed, Power, Groove, Crossover, MDM и т.п.
Главное правило здесь одно: Одна группа – одна тема! Всё остальное созвучно основным нормам поведения на конференции.
Шаблон оформления тем в этом подфоруме должен быть основан на данных сайта www.metal-archives.com и выглядеть следующим образом:

Группа (Страна) - Стилевые рамки - дискография
Slayer (USA) - Thrash Metal - дискография


В теме допустимо размещение всей информации касающейся данного коллектива: анонсы любых альбомов в любых форматах, запросы любых релизов коллектива (кроме релизов текущего и прошлого годов), обсуждения, обзоры, а в остальном всё как обычно. Уважаем друг друга, не грубим, соблюдаем нормы поведения на конференции, оформляем анонсы и запросы красиво и информативно, что бы модераторы не посчитали их троллингом, и не отправили куда положено, выписав Вам предупреждение или ещё что похуже… Прежде чем что-то запросить или запостить, пользуемся поиском! Пользуемся поиском! ПОЛЬЗУЕМСЯ ПОИСКОМ!!! Так слышно меня?.. :pardon:
Интересного, конструктивного и креативного общения! ;)

Image



Post new topic Reply to topic  [ 111 posts ]  Go to page Previous  1, 2, 3, 4, 5, 6  Next
Author Message
 
PostPosted: 09 Jul 2009 
Персональный статус
User avatar
Joined: 29 Jan 2009
Posts: 265
Lоcаtion: Таллин, Эстония.
Age: 32
Name: Роман Юрич
> Осталось найти: | Still looking:
Sacrifice (Canada) - Torment In Fire 1985 (1991 Fringe FPD3020)
Sacrifice (Canada) - Rehearsal #2 1985 (Demo)


Sacrifice (Canada) - Forward To Termination 1987 (1988 Metal Blade / Restless 72223-2)

Image

| +
Band / Название Группы: Sacrifice
Album title / Название Альбома : Forward To Termination
Year / Год Выпуска : 1987
Genre / Жанр: Thrash Metal
Country / Страна : Canada

Track list / Список Песен

1. Forward To Termination / Terror Strikes
2. Re-Animation
3. Afterlife
4. Flames Of Armageddon
5. The Entity
6. Forever Enslaved
7. Cyanide
8. Light Of The End
9. Pyrokinesis

Technical info / Технические данные .

Source / Источник : CD
Format / Формат : APE, Insane. Lossless.
Resolution / Разрешение : 44 KHz / 16 Bit
Total playing time / Суммарное время проигрывания : 39:48
Album art / Полиграфия: Booklet, back cover, CD.
Буклет, задняя обложка, диск.

Comment / Комментарий

Ripped from the CD which was released under Metal Blade / Restless.

Срипованно с диска выпущенного под Metal Blade / Restless.

Links / Ссылки

Rapidshare part 1 Rapidshare part 2
Sendspace
Narod

251 MB

cue
Code:
PERFORMER "Sacrifice"
TITLE "Forward To Termination"
FILE "Sacrifice (1987) - Forward To Termination.ape" WAVE
  TRACK 01 AUDIO
    TITLE "Forward To Termination / Terror Strikes"
    PERFORMER "Sacrifice"
    INDEX 00 00:00:00
    INDEX 01 00:00:50
  TRACK 02 AUDIO
    TITLE "Re-Animation"
    PERFORMER "Sacrifice"
    INDEX 01 04:30:10
  TRACK 03 AUDIO
    TITLE "Afterlife"
    PERFORMER "Sacrifice"
    INDEX 01 08:19:62
  TRACK 04 AUDIO
    TITLE "Flames Of Armageddon"
    PERFORMER "Sacrifice"
    INDEX 00 12:32:32
    INDEX 01 12:33:27
  TRACK 05 AUDIO
    TITLE "The Entity"
    PERFORMER "Sacrifice"
    INDEX 00 20:21:15
    INDEX 01 20:22:22
  TRACK 06 AUDIO
    TITLE "Forever Enslaved"
    PERFORMER "Sacrifice"
    INDEX 01 26:06:22
  TRACK 07 AUDIO
    TITLE "Cyanide"
    PERFORMER "Sacrifice"
    INDEX 01 29:15:30
  TRACK 08 AUDIO
    TITLE "Light Of The End"
    PERFORMER "Sacrifice"
    INDEX 00 32:52:17
    INDEX 01 32:53:07
  TRACK 09 AUDIO
    TITLE "Pyrokinesis"
    PERFORMER "Sacrifice"
    INDEX 00 37:41:02
    INDEX 01 37:42:12

log
Code:
EAC extraction logfile from 8. July 2009, 10:44 for CD
Sacrifice / Forward To Termination

Used drive  : ASUS    DRW-1814BLT   Adapter: 3  ID: 0
Read mode   : Secure with C2, accurate stream, disable cache
Read offset correction : 6
Overread into Lead-In and Lead-Out : No

Used output format : Internal WAV Routines
                     44.100 Hz; 16 Bit; Stereo
                     Use compression offset : 0

Other options      :
    Fill up missing offset samples with silence : Yes
    Delete leading and trailing silent blocks : No
    Native Win32 interface for Win NT & 2000


Range status and errors
Selected range
     Filename F:\Vinyl ; CD ; Tape Rips\CDImage.wav

     Peak level 100.0 %
     Range quality 100.0 %
     CRC 62D7CFC9
     Copy OK

No errors occured

End of status report

_________________
Death The Ultimate Reality
Death The Ultimate Reason To Live


Last edited by MetalMilitia on 09 Jul 2009, edited 1 time in total.

Top
 Profile  
 
 
PostPosted: 11 Jul 2017 
Хиппей (support team)
User avatar
Joined: 30 Jul 2007
Posts: 113081
Lоcаtion: Киев (Kyiv, UA)
Age: 46
Name: Andrey
Думаю, запросит денюфек :lloo:

| +
Image

_________________


Top
 Profile E-mail  
 
 
PostPosted: 11 Jul 2017 
Хиппей (support team)
User avatar
Joined: 30 Jul 2007
Posts: 113081
Lоcаtion: Киев (Kyiv, UA)
Age: 46
Name: Andrey
Хуже :tro:

| +
Image

_________________


Top
 Profile E-mail  
 
 
PostPosted: 11 Jul 2017 
консэрваторъ
User avatar
Joined: 11 Aug 2007
Posts: 16974
Lоcаtion: Псков
Age: 45
Name: Сергей
Дак это всё есть на тракторе, он даже не посмотрел на катнуберы офов, ибо ему сра... а демку зажал, прикольно... хардфайнд грит... :pardon:

_________________
THRASH 'EM ALL


Top
 Profile E-mail  
 
 
PostPosted: 11 Jul 2017 
Хиппей (support team)
User avatar
Joined: 30 Jul 2007
Posts: 113081
Lоcаtion: Киев (Kyiv, UA)
Age: 46
Name: Andrey
Ну я то ему и не копировал список песен с демок. Где он у вас здесь? :vic:
Трудно в первый пост напихать?

_________________


Top
 Profile E-mail  
 
 
PostPosted: 11 Jul 2017 
консэрваторъ
User avatar
Joined: 11 Aug 2007
Posts: 16974
Lоcаtion: Псков
Age: 45
Name: Сергей
В запросе одна демка, и он знает о чём идёт речь без списков... :arrov: https://www.metal-archives.com/albums/S ... %232/56127

_________________
THRASH 'EM ALL


Top
 Profile E-mail  
 
 
PostPosted: 12 Jul 2017 
Хиппей (support team)
User avatar
Joined: 30 Jul 2007
Posts: 113081
Lоcаtion: Киев (Kyiv, UA)
Age: 46
Name: Andrey
Он то знает, а я ж откуда мог знать, что там внутри?
Спасибо, спрошу его более конкретно об этой демке каверов.

_________________


Top
 Profile E-mail  
 
 
PostPosted: 12 Jul 2017 
Хиппей (support team)
User avatar
Joined: 30 Jul 2007
Posts: 113081
Lоcаtion: Киев (Kyiv, UA)
Age: 46
Name: Andrey
| +
Image

_________________


Top
 Profile E-mail  
 
 
PostPosted: 12 Jul 2017 
Хиппей (support team)
User avatar
Joined: 30 Jul 2007
Posts: 113081
Lоcаtion: Киев (Kyiv, UA)
Age: 46
Name: Andrey
splatty wrote:
В запросе одна демка

Ээмм.. только понял, что остальные или полные альбомы, или компиляшки :fingal:

Срачъ здесь тоже в запросах :yyy:

_________________


Top
 Profile E-mail  
 
 
PostPosted: 12 Jul 2017 
консэрваторъ
User avatar
Joined: 11 Aug 2007
Posts: 16974
Lоcаtion: Псков
Age: 45
Name: Сергей
Круто ты его деньгами стал давить, сча замолчит...)) Кроме демки в запросах ещё два альбома с конкретизированными изданиями, см. по кат.нумберам, которые мы рано или поздно купим и сами...

_________________
THRASH 'EM ALL


Top
 Profile E-mail  
 
 
PostPosted: 12 Jul 2017 
Хиппей (support team)
User avatar
Joined: 30 Jul 2007
Posts: 113081
Lоcаtion: Киев (Kyiv, UA)
Age: 46
Name: Andrey
splatty wrote:
Кроме демки в запросах ещё два альбома с конкретизированными изданиями, см. по кат.нумберам, которые мы рано или поздно купим и сами...

Это я уже понял, введя запрос в Гугл. Ну ок, ваши правила, вам и решать, как тута чего запрашивать у самих себя=)

_________________


Top
 Profile E-mail  
 
 
PostPosted: 12 Jul 2017 
Хиппей (support team)
User avatar
Joined: 30 Jul 2007
Posts: 113081
Lоcаtion: Киев (Kyiv, UA)
Age: 46
Name: Andrey
splatty wrote:
сча замолчит...))

Сглазил :tro: Ща я его заставлю нервничать немного :cry:

| +
Image

_________________


Top
 Profile E-mail  
 
 
PostPosted: 12 Jul 2017 
Хиппей (support team)
User avatar
Joined: 30 Jul 2007
Posts: 113081
Lоcаtion: Киев (Kyiv, UA)
Age: 46
Name: Andrey
В общем, дальше пошла малоинтересная вам бодяга :pardon:

| +
Image


По ходу, я уже понял, что с ним ранее общался =)

_________________


Top
 Profile E-mail  
 
 
PostPosted: 12 Jul 2017 
консэрваторъ
User avatar
Joined: 11 Aug 2007
Posts: 16974
Lоcаtion: Псков
Age: 45
Name: Сергей
Спасибо, Андрей, за проделанную работу... будем надеяться когда-нибудь это издадут в бонусах...

_________________
THRASH 'EM ALL


Top
 Profile E-mail  
 
 
PostPosted: 04 Aug 2017 
Работнечег
User avatar
Joined: 28 Aug 2007
Posts: 5846
Lоcаtion: г. Москва
Age: 30
Name: Дима
2009 куплен :paid:


Top
 Profile E-mail  
 
 
PostPosted: 05 Aug 2017 
консэрваторъ
User avatar
Joined: 11 Aug 2007
Posts: 16974
Lоcаtion: Псков
Age: 45
Name: Сергей
Тот самый?.. :oops: :oops: :oops:

_________________
THRASH 'EM ALL


Top
 Profile E-mail  
 
 
PostPosted: 05 Aug 2017 
Работнечег
User avatar
Joined: 28 Aug 2007
Posts: 5846
Lоcаtion: г. Москва
Age: 30
Name: Дима
Ага, должен быть тот самый)


Top
 Profile E-mail  
 
 
PostPosted: 05 Aug 2017 
консэрваторъ
User avatar
Joined: 11 Aug 2007
Posts: 16974
Lоcаtion: Псков
Age: 45
Name: Сергей
Ну круть тогда!.. :lob: :lob:

_________________
THRASH 'EM ALL


Top
 Profile E-mail  
 
 
PostPosted: 10 Mar 2018 
Работнечег
User avatar
Joined: 28 Aug 2007
Posts: 5846
Lоcаtion: г. Москва
Age: 30
Name: Дима
Sacrifice (Canada) - The Ones I Condemn 2009

Image

Label: Sonic Unyon SUNCD1242
Format: Flac + Log + Cue + Covers
Size: 349 Mb

LOG
Exact Audio Copy V0.99 prebeta 5 from 4. May 2009

EAC extraction logfile from 17. February 2018, 15:58

Sacrifice / The Ones I Condemn

Used drive : PIONEER DVD-RW DVR-221 Adapter: 2 ID: 1

Read mode : Secure
Utilize accurate stream : Yes
Defeat audio cache : Yes
Make use of C2 pointers : No

Read offset correction : 6
Overread into Lead-In and Lead-Out : No
Fill up missing offset samples with silence : Yes
Delete leading and trailing silent blocks : No
Null samples used in CRC calculations : Yes
Used interface : Native Win32 interface for Win NT & 2000

Used output format : User Defined Encoder
Selected bitrate : 32 kBit/s
Quality : High
Add ID3 tag : No
Command line compressor : C:\Program Files\Exact Audio Copy\Flac\flac.exe
Additional command line options : -6 -V %s


TOC of the extracted CD

Track | Start | Length | Start sector | End sector
---------------------------------------------------------
1 | 0:00.00 | 2:15.23 | 0 | 10147
2 | 2:15.23 | 3:21.60 | 10148 | 25282
3 | 5:37.08 | 3:27.21 | 25283 | 40828
4 | 9:04.29 | 4:40.26 | 40829 | 61854
5 | 13:44.55 | 5:04.22 | 61855 | 84676
6 | 18:49.02 | 3:55.70 | 84677 | 102371
7 | 22:44.72 | 4:19.56 | 102372 | 121852
8 | 27:04.53 | 2:36.44 | 121853 | 133596
9 | 29:41.22 | 3:20.41 | 133597 | 148637
10 | 33:01.63 | 7:22.16 | 148638 | 181803
11 | 40:24.04 | 4:26.59 | 181804 | 201812


Range status and errors

Selected range

Filename D:\Музыка\Lossless\Sacrifice - The Ones I Condemn (2009)\Sacrifice - The Ones I Condemn.wav

Peak level 99.2 %
Range quality 100.0 %
Copy CRC A94C4BD8
Copy OK

No errors occurred


AccurateRip summary

Track 1 accurately ripped (confidence 2) [97007C74]
Track 2 accurately ripped (confidence 2) [FB9DF14C]
Track 3 accurately ripped (confidence 2) [674CFC8D]
Track 4 accurately ripped (confidence 2) [6EF7366F]
Track 5 accurately ripped (confidence 2) [2A8739EA]
Track 6 accurately ripped (confidence 2) [309968F1]
Track 7 accurately ripped (confidence 2) [44BA0939]
Track 8 accurately ripped (confidence 2) [2D32C6C2]
Track 9 accurately ripped (confidence 2) [9A063D11]
Track 10 accurately ripped (confidence 2) [7F49B9E8]
Track 11 accurately ripped (confidence 2) [5E957607]

All tracks accurately ripped

End of status report

CUE
REM GENRE "Thrash Metal"
REM DATE 2009
REM DISCID 960A820B
REM COMMENT "ExactAudioCopy v0.99pb5"
PERFORMER "Sacrifice"
TITLE "The Ones I Condemn "
FILE "Sacrifice - The Ones I Condemn.flac" WAVE
TRACK 01 AUDIO
TITLE "We Will Prevail"
PERFORMER "Sacrifice"
INDEX 01 00:00:00
TRACK 02 AUDIO
TITLE "The Ones I Condemn"
PERFORMER "Sacrifice"
INDEX 01 02:15:23
TRACK 03 AUDIO
TITLE "Give Me Justice"
PERFORMER "Sacrifice"
INDEX 01 05:37:08
TRACK 04 AUDIO
TITLE "The Great Wall"
PERFORMER "Sacrifice"
INDEX 01 09:04:29
TRACK 05 AUDIO
TITLE "Tetragrammaton"
PERFORMER "Sacrifice"
INDEX 01 13:44:55
TRACK 06 AUDIO
TITLE "Atrocity"
PERFORMER "Sacrifice"
INDEX 01 18:49:02
TRACK 07 AUDIO
TITLE "Hiroshima"
PERFORMER "Sacrifice"
INDEX 01 22:44:72
TRACK 08 AUDIO
TITLE "The Devil's Martyr"
PERFORMER "Sacrifice"
INDEX 01 27:04:53
TRACK 09 AUDIO
TITLE "Ultimate Power Corrupts"
PERFORMER "Sacrifice"
INDEX 01 29:41:22
TRACK 10 AUDIO
TITLE "Desolation Alive"
PERFORMER "Sacrifice"
INDEX 01 33:01:63
TRACK 11 AUDIO
TITLE "Anthem (Rush Cover)"
PERFORMER "Sacrifice"
INDEX 01 40:24:04


Tracklist:
1. We Will Prevail 02:18
2. The Ones I Condemn 03:22
3. Give Me Justice 03:27
4. The Great Wall 04:45
5. Tetragrammaton 05:24
6. Atrocity 03:55
7. Hiroshima 04:19
8. The Devil's Martyr 02:36
9. Ultimate Power Corrupts 03:21
10. Desolation Alive 07:19
11. Anthem (Rush cover bonus) 04:26

Yadi


Top
 Profile E-mail  
 
 
PostPosted: 10 Mar 2018 
консэрваторъ
User avatar
Joined: 11 Aug 2007
Posts: 16974
Lоcаtion: Псков
Age: 45
Name: Сергей
Вот так вот!!! Я уже не думал, не гадал, а Дима взял и сделал!.. Ещё один дремучий бородатый рекс ушёл!.. Браво, Дима, браво!!! :lob: :lob: :lob:

_________________
THRASH 'EM ALL


Top
 Profile E-mail  
 
 
PostPosted: 10 Mar 2018 
Прокъмитолист
User avatar
Joined: 12 Aug 2007
Posts: 6557
Lоcаtion: Санктъ-Петербуркъ
Age: 51
Name: Олекъ
это япончег штоль? спасибо, Димка! :thanx:

_________________
прокъметол - это музыко, от которово есть прок (ы)


Top
 Profile  
 
Display posts from previous:  Sort by  
Post new topic Reply to topic  [ 111 posts ]  Go to page Previous  1, 2, 3, 4, 5, 6  Next

All times are UTC + 3 hours


Who is online

Users browsing this forum: splatty and 3 guests


You cannot post new topics in this forum
You cannot reply to topics in this forum
You cannot edit your posts in this forum
You cannot delete your posts in this forum
You cannot post attachments in this forum

Search for:
Яндекс.Метрика
Powered by phpBB © 2000, 2002, 2005, 2007 phpBB Group