\m/ 80's metal \m/

Информационно-аналитический форум "80 см пыли" (In Search We Trust) "У нас никто никуда не спешит"
Me For You - http://me-4u.com
It is currently 23 Apr 2019

All times are UTC + 3 hours

Spoiler
Chat - temporary registration for foreign users (please leave your application here)





Forum rules


Уважаемые пользователи ресурса, друзья, коллеги и гости нашего форума. Данный раздел конференции создан с целью рафинации, и посвящён такому стилевому направлению в музыке, как Thrash Metal во всех его проявлениях и ипостасях, а иногда и переходящему на пограничные стили Speed, Power, Groove, Crossover, MDM и т.п.
Главное правило здесь одно: Одна группа – одна тема! Всё остальное созвучно основным нормам поведения на конференции.
Шаблон оформления тем в этом подфоруме должен быть основан на данных сайта www.metal-archives.com и выглядеть следующим образом:

Группа (Страна) - Стилевые рамки - дискография
Slayer (USA) - Thrash Metal - дискография


В теме допустимо размещение всей информации касающейся данного коллектива: анонсы любых альбомов в любых форматах, запросы любых релизов коллектива (кроме релизов текущего и прошлого годов), обсуждения, обзоры, а в остальном всё как обычно. Уважаем друг друга, не грубим, соблюдаем нормы поведения на конференции, оформляем анонсы и запросы красиво и информативно, что бы модераторы не посчитали их троллингом, и не отправили куда положено, выписав Вам предупреждение или ещё что похуже… Прежде чем что-то запросить или запостить, пользуемся поиском! Пользуемся поиском! ПОЛЬЗУЕМСЯ ПОИСКОМ!!! Так слышно меня?.. :pardon:
Интересного, конструктивного и креативного общения! ;)

Image



Post new topic Reply to topic  [ 73 posts ]  Go to page 1, 2, 3, 4  Next
Author Message
 
PostPosted: 26 Jan 2008 
Хиппей (support team)
User avatar
Joined: 30 Jul 2007
Posts: 111788
Lоcаtion: Киев (Kyiv, UA)
Age: 45
Name: Andrey
Heathen - 1987 - Breaking The Silence (Re-Issue) [320]

Image

Genre: Speed Thrash
Location: USA
Size: 73 + 73 + 7 Mb


Quote:
This CD version has "Heathen"(06:33) as a bonus track. The re-release CD
features 4 songs from the "Pray for Death" demo.


    01. Death by Hanging
    02. Goblin's Blade
    03. Open The Grave
    04. Pray For Death
    05. Set Me Free (Sweet Cover)
    06. Breaking The Silence
    07. Worlds End
    08. Save The Skull
    09. Heathen
    10. Pray For Death (Bonus Track)
    11. Goblin's Blade (Bonus Track)
    12. Open The Grave (Bonus Track)
    13. Heathen (Bonus Track)


iFolder - part1
iFolder - part2
iFolder - part3

Примечание: Если архивы не распаковываются, переименовываем файлы в
*.000
*.001
*.002
и собираем при помощи Total Commander.


Top
 Profile E-mail  
 
 
PostPosted: 25 May 2009 
Хиппей (support team)
User avatar
Joined: 30 Jul 2007
Posts: 111788
Lоcаtion: Киев (Kyiv, UA)
Age: 45
Name: Andrey
Heathen - 2005 - Demo [128]

Image

Genre: Speed Power Heavy/Thrash
Location: USA
Size: 17.5 Mb


Line-up:
David White (aka David Godfrey) - Vocals (1985-1988, 1989-1992, 2001-) (Blind Illusion, Inner Threshold, Laughing Dead, Defiance (US))
Lee Altus - Guitar (1984-1992, 2001-) (Angel Witch, Exodus, Die Krupps)
??? - Guitar
Jon Torres - Bass (2004-) (Angel Witch, Laaz Rockit, Ulysses Siren, Warning S.F., I4NI, The Lord Weird Slough Feg)
Darren Minter - Drums (1988-1992, 2001-2007, 2008-) (Angel Witch, Brutal Groove, Die Krupps)

    1. Arrows of Agony - 06:29
    2. Dying Season - 06:22
    3. Empty Nothingness - 06:14

    TPT: 19:05

Narod
iFolder
Mega

В предверии выхода свежего альбом, решил заслушать эту демку (спасибо за наводку Серёге Splatty) и профигел.
Три песни выдержаны с духе ранних 90-х. Скоростной техничный и мелодичный трэш, очень напоминает Testament 89-года, только, естественно, полегче и мелодичнее.
Новый-старый вокалист очень порадовал :true:

зы. Альбом скачал с официального сайта, но при удалил некоторые неприятные артефакты.

_________________


Top
 Profile E-mail  
 
 
PostPosted: 26 May 2009 
Mechanix
User avatar
Joined: 05 Sep 2007
Posts: 480
Lоcаtion: Ekaterinodar
Age: 46
Name: Alexey
Сибо! :true:

_________________
Image
Image


Top
 Profile  
 
 
PostPosted: 19 Nov 2009 
ыыыы
User avatar
Joined: 17 May 2009
Posts: 952
Lоcаtion: Пушкино, МО
Age: 40
Name: Дмитрий
Heathen - 1987 Breaking The Silence Japan CD 1st Press


Image


Recording line-up:

David Godfrey - Vocals
Lee Altus - Guitar
Doug Piercy - Guitar
Mike "Yaz" Jastremski - Bass
Carl Sacco - Drums

США. Образована в 1985 г.
Дуг Пирси (гитара), Дэвид Годфри (вокал), Ли Олтус (гитара), Эрик Вонг (бас), Карл Сакко (бас).

Quote:
Из отрывка статьи "Heathen" - "Энциклопедия металлического рока".
Кокарёв Андрей, журнал "Мы", 1993 г.

Ансамбль Хизен (Варвар) происходит из Сан-Франциско. Возник он не на пустом месте- кроме Олтуса (родившегося, кстати, в СССР), все музыканты были тёртыми калачами: Пирси играл в Anvil Chorus, Exodus и Legacy, Сакко – в Metal Church, Годфри- в Blind Illusion, а Вонг – в Sceptre. Таким образом, получилась маленькая супергруппа калифорнийского масштаба.
Первая же демо-лента «Хизена» произвела небольшую сенсацию в мире треша: фанзины и крупные специализирующиеся на роке издания наперебой расхваливали эту запись, сделанную в лучших традициях скоростного мЕтала Metallica/Мegadeth с корнями, уходящими в европейский мЕтал в лице Iron Maiden, Judas Priest. Группой заинтересовались фирмы грамзаписи и вскоре «Хизен» подписали контракт с «Комбат Рекордс». Немедленно они запёрлись в студии, правда, без Вонга, которого сменил Майк Ястремски (экс-Griffin). ЛП «Конец тишины» ансамбль записывал с продюсером Ронни Монтроузом. Это было одной из главных ошибок. Ронни, известный рок-музыкант 1970-х гг., гитарист и композитор, никогда до тех пор не работал метал-продюсером, к тому же всё его музыкальное чутьё осталось на рубеже 1970-х гг. В итоге ЛП «выстрелил» вхолостую. Великолепная демо-лента настроила всех на ожидание великого треш-произведения, а из-под пера и режиссёрского пульта вышла посредственность.
Фирма грамзаписи стала выражать неудовольствие результатами продажи ЛП (50 000 экз.) и отказалась заниматься организацией гастролей «Хизена». В ответ «Хизен» расторгли контракт с «Комбат», рассчитанный на запись четырёх дисков, и заметались, не зная, что делать и куда приткнуться. Кто-то намекнул им на слабость вокальных партий, и потерявшие голову ребята тут же выкинули из обоймы Дэвида Годфри. Ему на замену пригласили Пола Бэлофа из Exodus и разочаровались еще больше. Пришлось извиняться перед Годфри и звать его обратно. Видя, что группу лихорадит, от греха подальше решили податься Карл Сакко и Майкл Ястремски – новым ударником стал Даррен Минтер, а басистом- Рэнди Лайар.
Второй ЛП был практически готов в 1989 г., но вышел только в 1992 г. на Роадраннер рекордс»…

Songs:

1. Death by Hanging 05:04
2. Goblin's Blade 04:33
3. Open the Grave 07:22
4. Pray for Death 03:42
5. Set Me Free (Sweet cover) 03:46
6. Breaking the Silence 05:49
7. World's End 07:05
8. Save the Skull 05:20
9. Heathen 06:33
====================
Playing time: 55:54

Released: Japan 1988 COMBAT/RELATIVITY/CBS/SONY
Cat #: 25DP 5070
Matrix: DP-1938 2

Photo Narod
Narod
MEGAUPLOAD

Log
EAC extraction logfile from 12. November 2009, 20:41 for CD
Heathen / Breaking The Silence [25DP 5070]

Used drive : ASUS DRW-2014S1 Adapter: 0 ID: 0
Read mode : Secure with NO C2, accurate stream, disable cache
Read offset correction : 6
Overread into Lead-In and Lead-Out : No

Used output format : Internal WAV Routines
44.100 Hz; 16 Bit; Stereo

Other options :
Fill up missing offset samples with silence : Yes
Delete leading and trailing silent blocks : No
Installed external ASPI interface


Range status and errors
Selected range
Filename Y:\Музыка\Heathen\1987 Breaking The Silence\Heathen - Breaking The Silence [25DP 5070].wav

Peak level 100.0 %
Range quality 99.9 %
CRC 6A7C2817
Copy OK

No errors occured

End of status report

------------------------------------------------------------

EAC extraction logfile from 12. November 2009, 20:41 for CD
Heathen / Breaking The Silence [25DP 5070]

Used drive : ASUS DRW-2014S1 Adapter: 0 ID: 0
Read mode : Secure with NO C2, accurate stream, disable cache
Read offset correction : 6
Overread into Lead-In and Lead-Out : No

Used output format : Internal WAV Routines
44.100 Hz; 16 Bit; Stereo

Other options :
Fill up missing offset samples with silence : Yes
Delete leading and trailing silent blocks : No
Installed external ASPI interface


Range status and errors
Selected range
Filename Y:\Музыка\Heathen\1987 Breaking The Silence\Heathen - Breaking The Silence [25DP 5070].wav

Peak level 100.0 %
Range quality 99.9 %
CRC 6A7C2817
Copy OK

No errors occured

End of status report


Куй
REM GENRE "Heavy Metal"
REM DATE 1987
REM DISCID 680B8F09
REM COMMENT "ExactAudioCopy v0.95b4"
PERFORMER "Heathen"
TITLE "Breaking The Silence [25DP 5070]"
FILE "Heathen - Breaking The Silence [25DP 5070].flac" WAVE
TRACK 01 AUDIO
TITLE "Death By Hanging"
PERFORMER "Heathen"
INDEX 01 00:00:00
TRACK 02 AUDIO
TITLE "Goblins Blade"
PERFORMER "Heathen"
INDEX 01 05:04:20
TRACK 03 AUDIO
TITLE "Open The Grave"
PERFORMER "Heathen"
INDEX 01 09:37:45
TRACK 04 AUDIO
TITLE "Pray For Death"
PERFORMER "Heathen"
INDEX 01 16:59:62
TRACK 05 AUDIO
TITLE "Set Me Free"
PERFORMER "Heathen"
INDEX 01 20:42:20
TRACK 06 AUDIO
TITLE "Breaking The Silence"
PERFORMER "Heathen"
INDEX 01 24:28:42
TRACK 07 AUDIO
TITLE "Worlds End"
PERFORMER "Heathen"
INDEX 01 30:18:55
TRACK 08 AUDIO
TITLE "Save The Skull"
PERFORMER "Heathen"
INDEX 01 37:24:37
TRACK 09 AUDIO
TITLE "Heathen"
PERFORMER "Heathen"
INDEX 01 42:45:57

_________________
Витасу до Даймонда как Алсу до Руссоса | При переразмещении - спрашивать разрешение!!


Last edited by iezuit on 21 Nov 2009, edited 4 times in total.

Top
 Profile  
 
 
PostPosted: 19 Nov 2009 
HAMMER
User avatar
Joined: 16 May 2009
Posts: 5477
Lоcаtion: Тверь
Age: 46
Name: Александр
Спасибо.


Top
 Profile E-mail  
 
 
PostPosted: 19 Nov 2009 
Хиппей (support team)
User avatar
Joined: 30 Jul 2007
Posts: 111788
Lоcаtion: Киев (Kyiv, UA)
Age: 45
Name: Andrey
iezuit wrote:
Ансамбль Хизен (Варвар)

Хм, я почему группу всегда считал "Язычником" :oops:

Спасибо за рип :true:

_________________


Top
 Profile E-mail  
 
 
PostPosted: 19 Nov 2009 
Metal Collector
User avatar
Joined: 16 Nov 2008
Posts: 1238
Lоcаtion: Химки
Age: 36
Name: Андрей
Пасиба, Дим, ещё раз!


Top
 Profile E-mail  
 
 
PostPosted: 19 Nov 2009 
ыыыы
User avatar
Joined: 17 May 2009
Posts: 952
Lоcаtion: Пушкино, МО
Age: 40
Name: Дмитрий
Приятного прослушивания!!! :true:

_________________
Витасу до Даймонда как Алсу до Руссоса | При переразмещении - спрашивать разрешение!!


Top
 Profile  
 
 
PostPosted: 19 Nov 2009 
Работнечег
User avatar
Joined: 28 Aug 2007
Posts: 5809
Lоcаtion: г. Москва
Age: 30
Name: Дима
Отличный альбомец! Спасибо! А второй есть? :oops:


Top
 Profile E-mail  
 
 
PostPosted: 19 Nov 2009 
ыыыы
User avatar
Joined: 17 May 2009
Posts: 952
Lоcаtion: Пушкино, МО
Age: 40
Name: Дмитрий
есть)) скоро выложу

_________________
Витасу до Даймонда как Алсу до Руссоса | При переразмещении - спрашивать разрешение!!


Top
 Profile  
 
 
PostPosted: 19 Nov 2009 
Работнечег
User avatar
Joined: 28 Aug 2007
Posts: 5809
Lоcаtion: г. Москва
Age: 30
Name: Дима
Пасиб заранее! :thanx:


Top
 Profile E-mail  
 
 
PostPosted: 20 Nov 2009 
5-speed satisfactor
User avatar
Joined: 16 Feb 2009
Posts: 3723
Lоcаtion: New York, USA
Age: 41
Name: Leonid
А почему Конец Тишины? Скорее "Нарушая Тишину". Но не суть важно. Есть и американский первопресс первого Combat/Relativity и американский первопресс второго на RoadRacer. Не вижу смысла выкладывать американский первопресс, если уже выложен японский. Если будут проблемы со вторым, рипну и выложу.

А они переиздались с премиальными треками. Есть у кого нибудь бонусы в лосе?

_________________
Death rules! Metal to all who oppose!


Top
 Profile  
 
 
PostPosted: 20 Nov 2009 
ыыыы
User avatar
Joined: 17 May 2009
Posts: 952
Lоcаtion: Пушкино, МО
Age: 40
Name: Дмитрий
как Вы понимаете, текст придумал не я, я его только набиваю с вырезки, поэтому я сохранил ориг. перевод автора- Конец Тишины. На первом альбоме японского издания бонус- 9. Heathen. Второй фемсовский сегодня выложу.

_________________
Витасу до Даймонда как Алсу до Руссоса | При переразмещении - спрашивать разрешение!!


Top
 Profile  
 
 
PostPosted: 20 Nov 2009 
5-speed satisfactor
User avatar
Joined: 16 Feb 2009
Posts: 3723
Lоcаtion: New York, USA
Age: 41
Name: Leonid
На американском издании тоже 9 треков.

_________________
Death rules! Metal to all who oppose!


Top
 Profile  
 
 
PostPosted: 21 Nov 2009 
ыыыы
User avatar
Joined: 17 May 2009
Posts: 952
Lоcаtion: Пушкино, МО
Age: 40
Name: Дмитрий
Heathen - Victims of Deception 1991 Japan CD 1st Press


Image


Из отрывка статьи "Heathen" - "Энциклопедия металлического рока".
Кокарёв Андрей, журнал "Мы", 1993 г.

Продолжение

..Целых четыре года группа старалась обрести стабильность в составе и в взаимоотношениях с фирмами грамзаписи – и всё никак не удавалось!
«Жертвы обмана» получился на редкость удачным диском, сумевшим продемонстрировать лучшие стороны «Хизена» - напор, исполнительское мастерство и мелодизм…
Музыка этого диска доказала, что хоронить «Хизен» рановато. Однако сами музыканты, видимо, не делают большую ставку на совместную работу. Как стало известно, Ли Олтус в начале 90-х гг. «погуливал на стороне», помогая возрождению группы Angel Witch, а Дэйв Годфри «открыл» молодых трешеров из Сан-Франциско Laughing Dead записал с ними демо. Дуг Пирси и Даррен Минтер в 1992 г. «подали заявление об уходе» в 1992 г. и больше на репетиции не приходили. В довершение всего в автокатастрофе погиб басист Рэнди Лайар.
На выручку старым друзьям бросился Карл Сакко. Он уговорил Олтуса и Годфри остаться и привёл новых музыкантов: Марка Биперму (бас, экс- Blind Illusion) и Таэма Расмуссена (гитара, экс-Anvil Chorus). Оба участвовали в записи второго ЛП группы: Марк отыграл часть трэков вместо погибшего Лайара, а Расмуссен исполнил гитарные партии на песне «Гитармони», которая была сочинена ещё в 1983 г. в группе Anvil Chorus, когда там играли вместе Расмуссен и Дуг Пирси.
Зэ Енд.

Recording line-up:

Dave White - Vocals
Lee Altus - Guitar
Doug Piercy - Guitar
Marc Biedermann - Bass
Darren Minter - Drums

Songs:

1. Hypnotized 08:35
2. Opiate of the Masses 07:50
3. Heathen's Song 09:27
4. Kill the King (Rainbow cover) 03:35
5. Fear of the Unknown 07:08
6. Prisoners of Fate 06:21
7. Morbid Curiosity 06:28
8. Guitarmony (instrumental) 03:31
9. Mercy Is No Virtue 06:29
10. Timeless Cell Of Prophecy 05:21
====================
Playing time: 64:46

Released: Japan 1991 F.E.M.S./APOLLON/ROADRUNNER RECORDS
Cat #: APCY-8046
Matrix: APCY-8046-A1M 11 V

Narod
MEGAUPLOAD

Log
EAC extraction logfile from 17. November 2009, 0:26 for CD
Heathen / Victims Of Deception [APCY-8046]

Used drive : ASUS DRW-2014S1 Adapter: 0 ID: 0
Read mode : Secure with NO C2, accurate stream, disable cache
Read offset correction : 6
Overread into Lead-In and Lead-Out : No

Used output format : Internal WAV Routines
44.100 Hz; 16 Bit; Stereo

Other options :
Fill up missing offset samples with silence : Yes
Delete leading and trailing silent blocks : No
Installed external ASPI interface


Range status and errors
Selected range
Filename Y:\Музыка\Heathen\1991 Victims Of Deception\Heathen - Victims Of Deception [APCY-8046].wav

Peak level 100.0 %
Range quality 99.9 %
CRC 62F39F1E
Copy OK

No errors occured

End of status report

------------------------------------------------------------

EAC extraction logfile from 17. November 2009, 0:26 for CD
Heathen / Victims Of Deception [APCY-8046]

Used drive : ASUS DRW-2014S1 Adapter: 0 ID: 0
Read mode : Secure with NO C2, accurate stream, disable cache
Read offset correction : 6
Overread into Lead-In and Lead-Out : No

Used output format : Internal WAV Routines
44.100 Hz; 16 Bit; Stereo

Other options :
Fill up missing offset samples with silence : Yes
Delete leading and trailing silent blocks : No
Installed external ASPI interface


Range status and errors
Selected range
Filename Y:\Музыка\Heathen\1991 Victims Of Deception\Heathen - Victims Of Deception [APCY-8046].wav

Peak level 100.0 %
Range quality 99.9 %
CRC 62F39F1E
Copy OK

No errors occured

End of status report


Куй
REM GENRE Metal
REM DATE 1991
REM DISCID B50F2E0A
REM COMMENT "ExactAudioCopy v0.95b4"
CATALOG 0000000000000
PERFORMER "Heathen"
TITLE "Victims Of Deception [APCY-8046]"
FILE "Heathen - Victims Of Deception [APCY-8046].flac" WAVE
TRACK 01 AUDIO
TITLE "Hypnotized"
PERFORMER "Heathen"
INDEX 00 00:00:00
INDEX 01 00:00:37
TRACK 02 AUDIO
TITLE "Opiate Of The Masses"
PERFORMER "Heathen"
INDEX 01 08:36:17
TRACK 03 AUDIO
TITLE "Heathen's Song"
PERFORMER "Heathen"
INDEX 00 16:26:08
INDEX 01 16:27:39
TRACK 04 AUDIO
TITLE "Kill The King"
PERFORMER "Heathen"
INDEX 01 25:53:69
TRACK 05 AUDIO
TITLE "Fear Of The Unknown"
PERFORMER "Heathen"
INDEX 01 29:28:27
TRACK 06 AUDIO
TITLE "Prisoners Of Fate"
PERFORMER "Heathen"
INDEX 00 36:35:33
INDEX 01 36:36:62
TRACK 07 AUDIO
TITLE "Morbid Curiosity"
PERFORMER "Heathen"
INDEX 01 42:57:67
TRACK 08 AUDIO
TITLE "Guitarmony"
PERFORMER "Heathen"
INDEX 00 49:25:23
INDEX 01 49:25:24
TRACK 09 AUDIO
TITLE "Mercy Is No Virtue"
PERFORMER "Heathen"
INDEX 01 52:57:04
TRACK 10 AUDIO
TITLE "Timeless Cell Of Prophecy"
PERFORMER "Heathen"
INDEX 00 59:23:63
INDEX 01 59:25:34

_________________
Витасу до Даймонда как Алсу до Руссоса | При переразмещении - спрашивать разрешение!!


Last edited by iezuit on 21 Nov 2009, edited 1 time in total.

Top
 Profile  
 
 
PostPosted: 21 Nov 2009 
ыыыы
User avatar
Joined: 17 May 2009
Posts: 952
Lоcаtion: Пушкино, МО
Age: 40
Name: Дмитрий
У кого-нибудь есть что-нибудь из Anvil Chorus, кроме демок??

_________________
Витасу до Даймонда как Алсу до Руссоса | При переразмещении - спрашивать разрешение!!


Top
 Profile  
 
 
PostPosted: 21 Nov 2009 
Metal Collector
User avatar
Joined: 16 Nov 2008
Posts: 1238
Lоcаtion: Химки
Age: 36
Name: Андрей
Пасиб, Дим! Возьму.


Top
 Profile E-mail  
 
 
PostPosted: 21 Nov 2009 
Metal Collector
User avatar
Joined: 16 Nov 2008
Posts: 1238
Lоcаtion: Химки
Age: 36
Name: Андрей
Походу это CD-bonus.


Top
 Profile E-mail  
 
 
PostPosted: 21 Nov 2009 
Хиппей (support team)
User avatar
Joined: 30 Jul 2007
Posts: 111788
Lоcаtion: Киев (Kyiv, UA)
Age: 45
Name: Andrey
iezuit wrote:
как Вы понимаете, текст придумал не я, я его только набиваю с вырезки

:shok: Опаньке. Дим, тогда цитаткой его окружай, плиз. А то низя чужие слова себе приписывать в культурном обществе. Тем более не совсем правильные :pardon:

_________________


Top
 Profile E-mail  
 
 
PostPosted: 21 Nov 2009 
Работнечег
User avatar
Joined: 28 Aug 2007
Posts: 5809
Lоcаtion: г. Москва
Age: 30
Name: Дима
iezuit wrote:
У кого-нибудь есть что-нибудь из Anvil Chorus, кроме демок??

Какой формат нужен?А у них есть разве что-нибудь кроме демок?у меня есть бутлег с ингви мальмстином.


Top
 Profile E-mail  
 
Display posts from previous:  Sort by  
Post new topic Reply to topic  [ 73 posts ]  Go to page 1, 2, 3, 4  Next

All times are UTC + 3 hours


Who is online

Users browsing this forum: No registered users and 3 guests


You cannot post new topics in this forum
You cannot reply to topics in this forum
You cannot edit your posts in this forum
You cannot delete your posts in this forum
You cannot post attachments in this forum

Search for:
Яндекс.Метрика
Powered by phpBB © 2000, 2002, 2005, 2007 phpBB Group