\m/ 80's metal \m/

Информационно-аналитический форум "80 см пыли" (In Search We Trust) "У нас никто никуда не спешит"
Me For You - http://me-4u.com
It is currently 24 Apr 2019

All times are UTC + 3 hours

Spoiler
Chat - temporary registration for foreign users (please leave your application here)





Forum rules


Уважаемые пользователи ресурса, друзья, коллеги и гости нашего форума. Данный раздел конференции создан с целью рафинации, и посвящён такому стилевому направлению в музыке, как Thrash Metal во всех его проявлениях и ипостасях, а иногда и переходящему на пограничные стили Speed, Power, Groove, Crossover, MDM и т.п.
Главное правило здесь одно: Одна группа – одна тема! Всё остальное созвучно основным нормам поведения на конференции.
Шаблон оформления тем в этом подфоруме должен быть основан на данных сайта www.metal-archives.com и выглядеть следующим образом:

Группа (Страна) - Стилевые рамки - дискография
Slayer (USA) - Thrash Metal - дискография


В теме допустимо размещение всей информации касающейся данного коллектива: анонсы любых альбомов в любых форматах, запросы любых релизов коллектива (кроме релизов текущего и прошлого годов), обсуждения, обзоры, а в остальном всё как обычно. Уважаем друг друга, не грубим, соблюдаем нормы поведения на конференции, оформляем анонсы и запросы красиво и информативно, что бы модераторы не посчитали их троллингом, и не отправили куда положено, выписав Вам предупреждение или ещё что похуже… Прежде чем что-то запросить или запостить, пользуемся поиском! Пользуемся поиском! ПОЛЬЗУЕМСЯ ПОИСКОМ!!! Так слышно меня?.. :pardon:
Интересного, конструктивного и креативного общения! ;)

Image



Post new topic Reply to topic  [ 115 posts ]  Go to page Previous  1, 2, 3, 4, 5, 6
Author Message
 
PostPosted: 24 Aug 2016 
А может смените мне статус?..
User avatar
Joined: 02 Feb 2009
Posts: 999
Lоcаtion: из Тулы
Age: 44
Name: Максим
ждем новых релизов от музыкантов

_________________
КМА


Top
 Profile  
 
 
PostPosted: 25 Aug 2016 
консэрваторъ
Joined: 11 Aug 2007
Posts: 16829
Lоcаtion: Псков
Age: 45
Name: Сергей
Таки да!.. Мы их победили усех!.. Всем спасибо, рекс снят...

_________________
THRASH 'EM ALL


Top
 Profile E-mail  
 
 
PostPosted: 25 Aug 2016 
Хиппей (support team)
User avatar
Joined: 30 Jul 2007
Posts: 111813
Lоcаtion: Киев (Kyiv, UA)
Age: 45
Name: Andrey
:thanx:



Тихо, скромно, без понтов и лички. Взяли языка в плен и завербовали. Молодцы :kro:

_________________


Top
 Profile E-mail  
 
 
PostPosted: 25 Aug 2016 
Хиппей (support team)
User avatar
Joined: 30 Jul 2007
Posts: 111813
Lоcаtion: Киев (Kyiv, UA)
Age: 45
Name: Andrey
splatty wrote:
рекс снят...

Серёг, а тута всё нашли в лосиках? Или часть в мп3?
А то пока не понимаю, В Бухту пихать, но с пометкой мр3, или чяво?

_________________


Top
 Profile E-mail  
 
 
PostPosted: 25 Aug 2016 
консэрваторъ
Joined: 11 Aug 2007
Posts: 16829
Lоcаtion: Псков
Age: 45
Name: Сергей
Здесь винегрет из мптрей и лосей... кому надо разберётся, не переживай... все мои запросы, начиная с первой страницы выполнены в лосях, но первый лось был кривой и я его вылаживал подпиленный в мп3 уже... короче забей...

_________________
THRASH 'EM ALL


Top
 Profile E-mail  
 
 
PostPosted: 26 Aug 2016 
Metal Collector
User avatar
Joined: 16 Nov 2008
Posts: 1238
Lоcаtion: Химки
Age: 36
Name: Андрей
Новый After All мне лично Agent Steel классический напомнил...

ну первые 2 альбома мне оно не напомнило ничем
или классика распространяется и дальше? ) но даже если так, то, имхо, афтероллы, этого дальше уже на порядок круче

Ну я не говорю про тотальное цитирование (да, первых двух), но при прослушивании вспомнились почему-то именно они. А так да, недурно.


Top
 Profile E-mail  
 
 
PostPosted: 20 Sep 2016 
Хиппей (support team)
User avatar
Joined: 30 Jul 2007
Posts: 111813
Lоcаtion: Киев (Kyiv, UA)
Age: 45
Name: Andrey
After All & Double Diamond - 2001 - Armageddon Come - Conquer with Steel (split) [flacs]

Image Image

mirror: iFolder l Narod l M-Cloud


Image Image

Image Image

Image

После всяких невнятных трэшей этот короткий сплитничек пошёл как мёд на раны :meloman:

7/10

Спасибо Максу и музыкантам за радость :thanx:

_________________


Top
 Profile E-mail  
 
 
PostPosted: 20 Sep 2016 
А может смените мне статус?..
User avatar
Joined: 02 Feb 2009
Posts: 999
Lоcаtion: из Тулы
Age: 44
Name: Максим
Ну Максу и всем остальным...

_________________
КМА


Top
 Profile  
 
 
PostPosted: 20 Sep 2016 
Хиппей (support team)
User avatar
Joined: 30 Jul 2007
Posts: 111813
Lоcаtion: Киев (Kyiv, UA)
Age: 45
Name: Andrey
Всех перечислять? :kro:

_________________


Top
 Profile E-mail  
 
 
PostPosted: 29 Sep 2016 
Хиппей (support team)
User avatar
Joined: 30 Jul 2007
Posts: 111813
Lоcаtion: Киев (Kyiv, UA)
Age: 45
Name: Andrey
Свежак :arrow: https://rutracker.org/forum/viewtopic.php?t=5288772

After All - 2016 - Waves Of Annihilation [flac]

Image

mirror: iFolder l Narod l M-Cloud

pics
Image

Image

Image

Image

Image

Image

Image

Image

Image

Image


log
Exact Audio Copy V1.1 from 23. June 2015

Отчёт EAC об извлечении, выполненном 27. сентября 2016, 20:10

After All / Waves Of Annihilation

Дисковод: TSSTcorpCDDVDW SE-208DB Adapter: 1 ID: 0

Режим чтения : Достоверность
Использование точного потока : Да
Отключение кэша аудио : Да
Использование указателей C2 : Нет

Коррекция смещения при чтении : 6
Способность читать области Lead-in и Lead-out : Нет
Заполнение пропущенных сэмплов тишиной : Да
Удаление блоков с тишиной в начале и конце : Нет
При вычислениях CRC использовались нулевые сэмплы : Да
Интерфейс : Встроенный Win32-интерфейс для Win NT/2000

Выходной формат : Пользовательский кодировщик
Выбранный битрейт : 1024 kBit/s
Качество : Высокий
Добавление ID3-тега : Да
Утилита сжатия : C:\Program Files (x86)\Exact Audio Copy\Flac\flac.exe
Дополнительные параметры : -V -8 -T "Date=%year%" -T "Genre=%genre%" %source%


TOC извлечённого CD

Трек | Старт | Длительность | Начальный сектор | Конечный сектор
---------------------------------------------------------------------
1 | 0:00.00 | 3:26.57 | 0 | 15506
2 | 3:26.57 | 3:08.15 | 15507 | 29621
3 | 6:34.72 | 3:56.56 | 29622 | 47377
4 | 10:31.53 | 4:01.41 | 47378 | 65493
5 | 14:33.19 | 3:59.16 | 65494 | 83434
6 | 18:32.35 | 5:13.55 | 83435 | 106964
7 | 23:46.15 | 3:42.33 | 106965 | 123647
8 | 27:28.48 | 5:00.05 | 123648 | 146152
9 | 32:28.53 | 6:25.58 | 146153 | 175085
10 | 38:54.36 | 4:35.61 | 175086 | 195771


Характеристики диапазона извлечения и сообщения об ошибках

Выбранный диапазон

Имя файла E:\Rutracker\DissidentAggressor\After All\Waves Of Annihilation\After All - Waves Of Annihilation.wav

Пиковый уровень 96.6 %
Скорость извлечения 4.3 X
Качество диапазона 100.0 %
CRC теста 3FFDE975
CRC копии 3FFDE975
Копирование... OK

Ошибок не произошло


AccurateRip: сводка

Трек 1 отсутствует в базе данных
Трек 2 отсутствует в базе данных
Трек 3 отсутствует в базе данных
Трек 4 отсутствует в базе данных
Трек 5 отсутствует в базе данных
Трек 6 отсутствует в базе данных
Трек 7 отсутствует в базе данных
Трек 8 отсутствует в базе данных
Трек 9 отсутствует в базе данных
Трек 10 отсутствует в базе данных

Ни одного трека нет в базе AccurateRip

Конец отчёта

==== Контрольная сумма отчёта 9A5A67A9409F89649AC29B4888808728B85AC0C706BAA81F58C6B550AF63BF04 ====

cue
REM GENRE "Thrash Metal"
REM DATE 2016
REM DISCID 7D0A320A
REM COMMENT "ExactAudioCopy v1.1"
PERFORMER "After All"
TITLE "Waves Of Annihilation"
FILE "After All - Waves Of Annihilation.flac" WAVE
TRACK 01 AUDIO
TITLE "Rejection Overruled"
PERFORMER "After All"
INDEX 01 00:00:00
TRACK 02 AUDIO
TITLE "Target Extinction"
PERFORMER "After All"
INDEX 01 03:26:57
TRACK 03 AUDIO
TITLE "The Unusual Sin"
PERFORMER "After All"
INDEX 01 06:34:72
TRACK 04 AUDIO
TITLE "Fall In Line"
PERFORMER "After All"
INDEX 01 10:31:53
TRACK 05 AUDIO
TITLE "None Can Defy"
PERFORMER "After All"
INDEX 01 14:33:19
TRACK 06 AUDIO
TITLE "First Class Terror"
PERFORMER "After All"
INDEX 01 18:32:35
TRACK 07 AUDIO
TITLE "Restore To Sanity"
PERFORMER "After All"
INDEX 00 23:46:13
INDEX 01 23:46:15
TRACK 08 AUDIO
TITLE "Lost In The Crowd"
PERFORMER "After All"
INDEX 00 27:27:27
INDEX 01 27:28:48
TRACK 09 AUDIO
TITLE "After The Hurt Is Gone"
PERFORMER "After All"
INDEX 00 32:28:49
INDEX 01 32:28:53
TRACK 10 AUDIO
TITLE "Destructive Force"
PERFORMER "After All"
INDEX 00 38:53:70
INDEX 01 38:54:36

_________________


Top
 Profile E-mail  
 
 
PostPosted: 29 Sep 2016 
Хиппей (support team)
User avatar
Joined: 30 Jul 2007
Posts: 111813
Lоcаtion: Киев (Kyiv, UA)
Age: 45
Name: Andrey
Половину альбома отслушал.
Не могу отвязаться от мысли, что слушаю... Annihilator середины 90-х :crazy:

_________________


Top
 Profile E-mail  
 
 
PostPosted: 29 Sep 2016 
Я набрал 1000 сообщений!
Joined: 09 Jul 2008
Posts: 2732
Age: 45
Name: Сергей
из-за названия альбома?


Top
 Profile  
 
 
PostPosted: 29 Sep 2016 
Хиппей (support team)
User avatar
Joined: 30 Jul 2007
Posts: 111813
Lоcаtion: Киев (Kyiv, UA)
Age: 45
Name: Andrey
По музыке и вокалу частично. По гитарным ходам. А вокал, кабы не рычал, то ваще убойно было бы =)

Хорош альбомец, почти трэшак :kro:

А название альбома я и не читал ешо :vic:

_________________


Top
 Profile E-mail  
 
 
PostPosted: 30 Sep 2016 
Metal Collector
User avatar
Joined: 16 Nov 2008
Posts: 1238
Lоcаtion: Химки
Age: 36
Name: Андрей
А мне упорно ранний Agent Steel напоминает...


Top
 Profile E-mail  
 
 
PostPosted: 30 Sep 2016 
Хиппей (support team)
User avatar
Joined: 30 Jul 2007
Posts: 111813
Lоcаtion: Киев (Kyiv, UA)
Age: 45
Name: Andrey
Да, есть немного, но звук слишком мощен и вокал зря бывает подрыкивает :esel: :esel: :esel:

зы. Последний трэк, это ж кавер? :shok:

А так альбом средненький, типичненький современный паверо-трэш с хорошим вокалом, разноплановым и широкодиапазонным.

6/10

_________________


Top
 Profile E-mail  
 
Display posts from previous:  Sort by  
Post new topic Reply to topic  [ 115 posts ]  Go to page Previous  1, 2, 3, 4, 5, 6

All times are UTC + 3 hours


Who is online

Users browsing this forum: No registered users and 3 guests


You cannot post new topics in this forum
You cannot reply to topics in this forum
You cannot edit your posts in this forum
You cannot delete your posts in this forum
You cannot post attachments in this forum

Search for:
Яндекс.Метрика
Powered by phpBB © 2000, 2002, 2005, 2007 phpBB Group