\m/ 80's metal \m/

Информационно-аналитический форум "80 см пыли" (In Search We Trust) "У нас никто никуда не спешит"
Me For You - http://me-4u.com
It is currently 20 Apr 2019

All times are UTC + 3 hours

Spoiler
Chat - temporary registration for foreign users (please leave your application here)





Forum rules


Уважаемые пользователи ресурса, друзья, коллеги и гости нашего форума. Данный раздел конференции создан с целью рафинации, и посвящён такому стилевому направлению в музыке, как Thrash Metal во всех его проявлениях и ипостасях, а иногда и переходящему на пограничные стили Speed, Power, Groove, Crossover, MDM и т.п.
Главное правило здесь одно: Одна группа – одна тема! Всё остальное созвучно основным нормам поведения на конференции.
Шаблон оформления тем в этом подфоруме должен быть основан на данных сайта www.metal-archives.com и выглядеть следующим образом:

Группа (Страна) - Стилевые рамки - дискография
Slayer (USA) - Thrash Metal - дискография


В теме допустимо размещение всей информации касающейся данного коллектива: анонсы любых альбомов в любых форматах, запросы любых релизов коллектива (кроме релизов текущего и прошлого годов), обсуждения, обзоры, а в остальном всё как обычно. Уважаем друг друга, не грубим, соблюдаем нормы поведения на конференции, оформляем анонсы и запросы красиво и информативно, что бы модераторы не посчитали их троллингом, и не отправили куда положено, выписав Вам предупреждение или ещё что похуже… Прежде чем что-то запросить или запостить, пользуемся поиском! Пользуемся поиском! ПОЛЬЗУЕМСЯ ПОИСКОМ!!! Так слышно меня?.. :pardon:
Интересного, конструктивного и креативного общения! ;)

Image



Post new topic Reply to topic  [ 406 posts ]  Go to page Previous  1 ... 12, 13, 14, 15, 16, 17, 18 ... 21  Next
Author Message
 
PostPosted: 11 Sep 2016 
Прокъмитолист
User avatar
Joined: 12 Aug 2007
Posts: 6545
Lоcаtion: Санктъ-Петербуркъ
Age: 51
Name: Олекъ
:thanx:

_________________
прокъметол - это музыко, от которово есть прок (ы)


Top
 Profile  
 
 
PostPosted: 11 Sep 2016 
Power Metal Maniac
User avatar
Joined: 09 Aug 2008
Posts: 6670
Lоcаtion: Москва
Age: 41
Name: Егор
:thanx:

_________________
Long Live Metal!


Top
 Profile  
 
 
PostPosted: 11 Sep 2016 
А может смените мне статус?..
Joined: 03 Jul 2009
Posts: 859
Lоcаtion: Serbia
Name: Laki
:thanx:


Top
 Profile E-mail  
 
 
PostPosted: 11 Sep 2016 
Труъ
User avatar
Joined: 27 Feb 2009
Posts: 186
Lоcаtion: Питер
Age: 51
Name: Олег
:thanx:


Top
 Profile  
 
 
PostPosted: 11 Sep 2016 
Хиппей (support team)
User avatar
Joined: 30 Jul 2007
Posts: 111729
Lоcаtion: Киев (Kyiv, UA)
Age: 45
Name: Andrey
Братья? :umnik:

Image

_________________


Top
 Profile E-mail  
 
 
PostPosted: 12 Sep 2016 
консэрваторъ
Joined: 11 Aug 2007
Posts: 16815
Lоcаtion: Псков
Age: 45
Name: Сергей
В зелёной простыне остался всего один рекс...

_________________
THRASH 'EM ALL


Top
 Profile E-mail  
 
 
PostPosted: 14 Sep 2016 
Хиппей (support team)
User avatar
Joined: 30 Jul 2007
Posts: 111729
Lоcаtion: Киев (Kyiv, UA)
Age: 45
Name: Andrey
Ай, через пару лет их там снова набросается 2-5 штуков.

_________________


Top
 Profile E-mail  
 
 
PostPosted: 14 Sep 2016 
консэрваторъ
Joined: 11 Aug 2007
Posts: 16815
Lоcаtion: Псков
Age: 45
Name: Сергей
Кто знает, что завтра будет, не известно, а пока так...

_________________
THRASH 'EM ALL


Top
 Profile E-mail  
 
 
PostPosted: 15 Sep 2016 
Хиппей (support team)
User avatar
Joined: 30 Jul 2007
Posts: 111729
Lоcаtion: Киев (Kyiv, UA)
Age: 45
Name: Andrey
15 сентября завтра, 15-е, Серёг. Скоро кончится отпуск у тебя :yyy:

_________________


Top
 Profile E-mail  
 
 
PostPosted: 15 Sep 2016 
консэрваторъ
Joined: 11 Aug 2007
Posts: 16815
Lоcаtion: Псков
Age: 45
Name: Сергей
Не факт... хотя, да, сча глянул в окно... вродь пятнадцатое... :scratch: отпуска тока половина... :dance:

_________________
THRASH 'EM ALL


Top
 Profile E-mail  
 
 
PostPosted: 15 Sep 2016 
Хиппей (support team)
User avatar
Joined: 30 Jul 2007
Posts: 111729
Lоcаtion: Киев (Kyiv, UA)
Age: 45
Name: Andrey
Месяц взял на отдых? :shok: :lob:

_________________


Top
 Profile E-mail  
 
 
PostPosted: 18 Sep 2016 
консэрваторъ
Joined: 11 Aug 2007
Posts: 16815
Lоcаtion: Псков
Age: 45
Name: Сергей
Еле вспомнил из-за чего искал ипиху 90-ого... :arrov: viewtopic.php?p=238515#p238515
На том рипе высоких побольше было, и песочка капельку поменьше (совсем чуть чуть), но этот тоже хорош, и самое главное нет перескока!.. Для себя пошинковал, подрезал краешки, освежевал и засунул бонусами в 91-ый... Благодарствую, Денис, премного!!. :thanx: :thanx: :thanx:

_________________
THRASH 'EM ALL


Top
 Profile E-mail  
 
 
PostPosted: 18 Sep 2016 
консэрваторъ
Joined: 11 Aug 2007
Posts: 16815
Lоcаtion: Псков
Age: 45
Name: Сергей
Да... :arrov: viewtopic.php?p=275708#p275708

_________________
THRASH 'EM ALL


Top
 Profile E-mail  
 
 
PostPosted: 13 Dec 2016 
Генеральный thrasher
User avatar
Joined: 03 Oct 2008
Posts: 3695
Lоcаtion: Ханты-Мансийский АО
Age: 44
Name: Сергей
Image

Year:1991 (2016 Remastered)
Style:Death/Thrash Metal
Country:U.S.A.
Archive:Flac+Cue+Log+Scans
Source:my CD
Size:311Mb
Label:Dark Symphonies

Tracklist:
01. Morbid Reality 05:03
02. The Last Step 04:50
03. Birds of Prey 06:32
04. Blood Hunter 03:52
05. Fire Mushrooms 05:44
06. Persecution Experience 05:20
07. Watery Graves 05:21
08. Spider Jam 03:56

"Cue"
REM GENRE Death/Thrash
REM DATE 2016
REM DISCID 67098508
REM COMMENT "ExactAudioCopy v1.1"
PERFORMER "Hexx"
TITLE "Morbid Reality"
FILE "Hexx - Morbid Reality.flac" WAVE
TRACK 01 AUDIO
TITLE "Morbid Reality"
PERFORMER "Hexx"
INDEX 01 00:00:00
TRACK 02 AUDIO
TITLE "The Last Step"
PERFORMER "Hexx"
INDEX 00 05:01:50
INDEX 01 05:02:50
TRACK 03 AUDIO
TITLE "Birds Of Prey"
PERFORMER "Hexx"
INDEX 00 09:52:10
INDEX 01 09:52:47
TRACK 04 AUDIO
TITLE "Blood Hunter"
PERFORMER "Hexx"
INDEX 00 16:23:69
INDEX 01 16:24:31
TRACK 05 AUDIO
TITLE "Fire Mushrooms"
PERFORMER "Hexx"
INDEX 01 20:16:49
TRACK 06 AUDIO
TITLE "Persecution Experience"
PERFORMER "Hexx"
INDEX 00 26:00:04
INDEX 01 26:01:04
TRACK 07 AUDIO
TITLE "Watery Graves"
PERFORMER "Hexx"
INDEX 01 31:20:69
TRACK 08 AUDIO
TITLE "Spider Jam"
PERFORMER "Hexx"
INDEX 00 36:40:59
INDEX 01 36:41:59

"Log"
Exact Audio Copy V1.1 from 23. June 2015

Отчёт EAC об извлечении, выполненном 16. июня 2016, 20:44

Hexx / Morbid Reality

Дисковод: HL-DT-STDVDRAM GTA0N Adapter: 1 ID: 0

Режим чтения : Достоверность
Использование точного потока : Да
Отключение кэша аудио : Да
Использование указателей C2 : Нет

Коррекция смещения при чтении : 102
Способность читать области Lead-in и Lead-out : Нет
Заполнение пропущенных сэмплов тишиной : Да
Удаление блоков с тишиной в начале и конце : Нет
При вычислениях CRC использовались нулевые сэмплы : Да
Интерфейс : Встроенный Win32-интерфейс для Win NT/2000

Выходной формат : Пользовательский кодировщик
Выбранный битрейт : 768 kBit/s
Качество : Высокий
Добавление ID3-тега : Нет
Утилита сжатия : C:\Program Files (x86)\Exact Audio Copy\FLAC\FLAC.EXE
Дополнительные параметры : -6 -V -T "ARTIST=%artist%" -T "TITLE=%title%" -T "ALBUM=%albumtitle%" -T "DATE=%year%" -T "TRACKNUMBER=%tracknr%" -T "GENRE=%genre%" -T "COMMENT=%comment%" -T "BAND=%albuminterpret%" -T "ALBUMARTIST=%albuminterpret%" -T "COMPOSER=%composer%" %haslyrics%--tag-from-file=LYRICS="%lyricsfile%"%haslyrics% -T "DISCNUMBER=%cdnumber%" -T "TOTALDISCS=%totalcds%" -T "TOTALTRACKS=%numtracks%" %hascover%--picture="%coverfile%"%hascover% %source% -o %dest%


TOC извлечённого CD

Трек | Старт | Длительность | Начальный сектор | Конечный сектор
---------------------------------------------------------------------
1 | 0:00.00 | 5:02.50 | 0 | 22699
2 | 5:02.50 | 4:49.72 | 22700 | 44446
3 | 9:52.47 | 6:31.59 | 44447 | 73830
4 | 16:24.31 | 3:52.18 | 73831 | 91248
5 | 20:16.49 | 5:44.30 | 91249 | 117078
6 | 26:01.04 | 5:19.65 | 117079 | 141068
7 | 31:20.69 | 5:20.65 | 141069 | 165133
8 | 36:41.59 | 3:56.15 | 165134 | 182848


Характеристики диапазона извлечения и сообщения об ошибках

Выбранный диапазон

Имя файла C:\Users\магазин\Music\Hexx - Morbid Reality.wav

Подозрительная позиция 0:06:13

Пиковый уровень 100.0 %
Скорость извлечения 1.5 X
Качество диапазона 99.9 %
CRC копии 9C01A09A
Копирование завершено

Были ошибки


AccurateRip: сводка

Трек 1 отсутствует в базе данных
Трек 2 отсутствует в базе данных
Трек 3 отсутствует в базе данных
Трек 4 отсутствует в базе данных
Трек 5 отсутствует в базе данных
Трек 6 отсутствует в базе данных
Трек 7 отсутствует в базе данных
Трек 8 отсутствует в базе данных

Ни одного трека нет в базе AccurateRip

Конец отчёта

---- CUETools DB Plugin V2.1.6

[CTDB TOCID: CjaO7U0H7pQ5HES6WCcL0K3LyY4-] disk not present in database
Submit result: CjaO7U0H7pQ5HES6WCcL0K3LyY4- has been submitted


Morbid Reality


Top
 Profile  
 
 
PostPosted: 13 Dec 2016 
Генеральный thrasher
User avatar
Joined: 03 Oct 2008
Posts: 3695
Lоcаtion: Ханты-Мансийский АО
Age: 44
Name: Сергей
Во имя полной коллекции на форуме...


Top
 Profile  
 
 
PostPosted: 13 Dec 2016 
Персональный статус
User avatar
Joined: 28 Mar 2013
Posts: 420
Lоcаtion: Russia (Bryansk)
Age: 25
Name: Michael
Пока без сканов
Under The Spell - 30th Anniversary Box Set

Хотелось бы сканы. Если можно. :oops:


Top
 Profile E-mail  
 
 
PostPosted: 13 Dec 2016 
Генеральный thrasher
User avatar
Joined: 03 Oct 2008
Posts: 3695
Lоcаtion: Ханты-Мансийский АО
Age: 44
Name: Сергей
А я их так и не выложил здесь? :shok: Можно конечно


Top
 Profile  
 
 
PostPosted: 13 Dec 2016 
Персональный статус
User avatar
Joined: 28 Mar 2013
Posts: 420
Lоcаtion: Russia (Bryansk)
Age: 25
Name: Michael
Нет ещё. Такой крутой рип и без сканов. :cry:


Top
 Profile E-mail  
 
 
PostPosted: 13 Dec 2016 
Генеральный thrasher
User avatar
Joined: 03 Oct 2008
Posts: 3695
Lоcаtion: Ханты-Мансийский АО
Age: 44
Name: Сергей
https://cloud.mail.ru/public/MbZE/USAc4KeWA


Top
 Profile  
 
 
PostPosted: 13 Dec 2016 
Персональный статус
User avatar
Joined: 28 Mar 2013
Posts: 420
Lоcаtion: Russia (Bryansk)
Age: 25
Name: Michael
Спасибо :thanx:


Top
 Profile E-mail  
 
Display posts from previous:  Sort by  
Post new topic Reply to topic  [ 406 posts ]  Go to page Previous  1 ... 12, 13, 14, 15, 16, 17, 18 ... 21  Next

All times are UTC + 3 hours


Who is online

Users browsing this forum: No registered users and 2 guests


You cannot post new topics in this forum
You cannot reply to topics in this forum
You cannot edit your posts in this forum
You cannot delete your posts in this forum
You cannot post attachments in this forum

Search for:
Яндекс.Метрика
cron
Powered by phpBB © 2000, 2002, 2005, 2007 phpBB Group