\m/ 80's metal \m/

Информационно-аналитический форум "80 см пыли" (In Search We Trust) "У нас никто никуда не спешит"
Me For You - http://me-4u.com
It is currently 20 Apr 2019

All times are UTC + 3 hours

Spoiler
Chat - temporary registration for foreign users (please leave your application here)





Forum rules


Уважаемые пользователи ресурса, друзья, коллеги и гости нашего форума. Данный раздел конференции создан с целью рафинации, и посвящён такому стилевому направлению в музыке, как Thrash Metal во всех его проявлениях и ипостасях, а иногда и переходящему на пограничные стили Speed, Power, Groove, Crossover, MDM и т.п.
Главное правило здесь одно: Одна группа – одна тема! Всё остальное созвучно основным нормам поведения на конференции.
Шаблон оформления тем в этом подфоруме должен быть основан на данных сайта www.metal-archives.com и выглядеть следующим образом:

Группа (Страна) - Стилевые рамки - дискография
Slayer (USA) - Thrash Metal - дискография


В теме допустимо размещение всей информации касающейся данного коллектива: анонсы любых альбомов в любых форматах, запросы любых релизов коллектива (кроме релизов текущего и прошлого годов), обсуждения, обзоры, а в остальном всё как обычно. Уважаем друг друга, не грубим, соблюдаем нормы поведения на конференции, оформляем анонсы и запросы красиво и информативно, что бы модераторы не посчитали их троллингом, и не отправили куда положено, выписав Вам предупреждение или ещё что похуже… Прежде чем что-то запросить или запостить, пользуемся поиском! Пользуемся поиском! ПОЛЬЗУЕМСЯ ПОИСКОМ!!! Так слышно меня?.. :pardon:
Интересного, конструктивного и креативного общения! ;)

Image



Post new topic Reply to topic  [ 406 posts ]  Go to page Previous  1 ... 7, 8, 9, 10, 11, 12, 13 ... 21  Next
Author Message
 
PostPosted: 04 Feb 2016 
консэрваторъ
Joined: 11 Aug 2007
Posts: 16807
Lоcаtion: Псков
Age: 45
Name: Сергей
thorbeorn wrote:
Купил бокс.

Серёг, ну что сказать?.. чтоб хотя бы тысячную долю восторга выразить... Ты маг!.. Я уже думал, мол опять лет через пятьсот это случится... :oops:

_________________
THRASH 'EM ALL


Top
 Profile E-mail  
 
 
PostPosted: 04 Feb 2016 
Alive Again
User avatar
Joined: 17 Dec 2008
Posts: 4747
Lоcаtion: Курск Воронеж Оскол
Age: 44
Name: Дмитрий
Quote:
Купил бокс.Ждём!Будет :lloo:

Ждём :thanx:


Top
 Profile E-mail  
 
 
PostPosted: 25 Feb 2016 
Генеральный thrasher
User avatar
Joined: 03 Oct 2008
Posts: 3695
Lоcаtion: Ханты-Мансийский АО
Age: 44
Name: Сергей
Бокс приехал.На днях оформлю...


Top
 Profile  
 
 
PostPosted: 25 Feb 2016 
консэрваторъ
Joined: 11 Aug 2007
Posts: 16807
Lоcаtion: Псков
Age: 45
Name: Сергей
:true: :lob:

_________________
THRASH 'EM ALL


Top
 Profile E-mail  
 
 
PostPosted: 03 Mar 2016 
Генеральный thrasher
User avatar
Joined: 03 Oct 2008
Posts: 3695
Lоcаtion: Ханты-Мансийский АО
Age: 44
Name: Сергей
Несколько запоздалый подарок Серёге splatty на день рождения.Пока без сканов.Сканнер что-то полосит.Бывает у него такое.Попозже сделаю.

Under The Spell - 30th Anniversary Box Set

Image

Year:2015
Style:Heavy Metal
Country:U.S.A.
Archive:Flac+Cue+Log
Size:560Mb+515Mb
Source:my CD
Label:Metal Blade Records

Under the Spell:
01. Hell Riders
02. A Time Of War
03. Edge Of Death
04. The Victim
05. Under The Spell
06. Out For Control
07. Suicide
08. The Hexx
09. Fever Dream
10. Midnight Sun
11. Edge Of Death (Live 1986)
NEW SONGS 2014 (with Dan Bryant on vocals):
12. Burn Or Boil
13. Swimming The Witch
UNDER THE SPELL Demo 1985:
14. Instrumental
15. Suicide
16. Under The Spell
17. Edge Of Death
18. The Victim
19. The Hexx
20. Fever Dream
21. The Golden Cross (Aka Midnight Sun)
22. Out For Control (Instrumental Version)

No Escape:
01. Terror
02. Invader
03. The Other Side
04. Look To The Sky
05. Beware The Darkness
06. Night Of Pain
07. No Escape
08. Live For The Night
09. Fear No Evil
10. Radio Spot KRQR
PARADOX Demo 1983:
11. No Escape
12. The Other Side
13. Search For The King
UP FROM THE GRAVE Demo 2013 (with Dennis Manzo on vocals):
14. Left For Dead
15. Lost My Way
16. Drop Away
17. Crumble
LIVE 2015 (with Eddy Vega on vocals):
18. Intro / The Victim
19. Edge Of Death
20. Under The Spell
21. Burn Or Boil

"Cue 1"
REM GENRE "Power/Thrash Metal "
REM DATE 2015
REM DISCID 3B12D316
REM COMMENT "ExactAudioCopy v1.1"
PERFORMER "Hexx"
TITLE "Under the Spell"
FILE "Hexx - Under the Spell.flac" WAVE
TRACK 01 AUDIO
TITLE "Hell Riders"
PERFORMER "Hexx"
INDEX 01 00:00:00
TRACK 02 AUDIO
TITLE "A Time of War"
PERFORMER "Hexx"
INDEX 01 02:32:23
TRACK 03 AUDIO
TITLE "Edge of Death"
PERFORMER "Hexx"
INDEX 01 06:17:48
TRACK 04 AUDIO
TITLE "The Victim"
PERFORMER "Hexx"
INDEX 01 09:56:04
TRACK 05 AUDIO
TITLE "Under the Spell"
PERFORMER "Hexx"
INDEX 01 13:40:32
TRACK 06 AUDIO
TITLE "Out for Control"
PERFORMER "Hexx"
INDEX 01 17:33:10
TRACK 07 AUDIO
TITLE "Suicide"
PERFORMER "Hexx"
INDEX 01 20:52:33
TRACK 08 AUDIO
TITLE "The Hexx"
PERFORMER "Hexx"
INDEX 01 23:54:01
TRACK 09 AUDIO
TITLE "Fever Dream"
PERFORMER "Hexx"
INDEX 01 27:10:29
TRACK 10 AUDIO
TITLE "Midnight Sun"
PERFORMER "Hexx"
INDEX 01 30:52:46
TRACK 11 AUDIO
TITLE "Edge Of Death (live 1986)"
PERFORMER "Hexx"
INDEX 01 35:40:48
TRACK 12 AUDIO
TITLE "Burn Or Boil (with Dan Bryant - Vocals)"
PERFORMER "Hexx"
INDEX 01 39:16:51
TRACK 13 AUDIO
TITLE "Swimming The Witch (with Dan Bryant - Vocals)"
PERFORMER "Hexx"
INDEX 01 43:09:57
TRACK 14 AUDIO
TITLE "Instrumental (UNDER THE SPELL DEMO 1985)"
PERFORMER "Hexx"
INDEX 01 48:28:68
TRACK 15 AUDIO
TITLE "Suicide (UNDER THE SPELL DEMO 1985)"
PERFORMER "Hexx"
INDEX 01 51:20:12
TRACK 16 AUDIO
TITLE "Under the Spell (UNDER THE SPELL DEMO 1985)"
PERFORMER "Hexx"
INDEX 01 54:33:03
TRACK 17 AUDIO
TITLE "Edge Of Death (UNDER THE SPELL DEMO 1985)"
PERFORMER "Hexx"
INDEX 01 58:18:30
TRACK 18 AUDIO
TITLE "The Victim (UNDER THE SPELL DEMO 1985)"
PERFORMER "Hexx"
INDEX 01 61:52:40
TRACK 19 AUDIO
TITLE "The Hexx (UNDER THE SPELL DEMO 1985)"
PERFORMER "Hexx"
INDEX 01 65:34:63
TRACK 20 AUDIO
TITLE "Fever Dream (UNDER THE SPELL DEMO 1985)"
PERFORMER "Hexx"
INDEX 01 68:44:32
TRACK 21 AUDIO
TITLE "The Golden Cross (aka Midnight Sun) (UNDER THE SPELL DEMO 1985)"
PERFORMER "Hexx"
INDEX 01 72:26:32
TRACK 22 AUDIO
TITLE "Out For Control (Instrumental version) (UNDER THE SPELL DEMO 1985)"
PERFORMER "Hexx"
INDEX 01 77:24:49

"Cue 2"
REM GENRE "Power/Thrash Metal"
REM DATE 2015
REM DISCID 23117F15
REM COMMENT "ExactAudioCopy v1.1"
PERFORMER "Hexx"
TITLE "No Escape"
FILE "Hexx - No Escape.flac" WAVE
TRACK 01 AUDIO
TITLE "Terror"
PERFORMER "Hexx"
INDEX 01 00:00:00
TRACK 02 AUDIO
TITLE "Invader"
PERFORMER "Hexx"
INDEX 01 03:58:16
TRACK 03 AUDIO
TITLE "The Other Side"
PERFORMER "Hexx"
INDEX 01 06:47:69
TRACK 04 AUDIO
TITLE "Look to the Sky"
PERFORMER "Hexx"
INDEX 01 10:30:63
TRACK 05 AUDIO
TITLE "Beware the Darkness"
PERFORMER "Hexx"
INDEX 01 13:38:73
TRACK 06 AUDIO
TITLE "Night of Pain"
PERFORMER "Hexx"
INDEX 01 17:33:42
TRACK 07 AUDIO
TITLE "No Escape"
PERFORMER "Hexx"
INDEX 01 20:42:05
TRACK 08 AUDIO
TITLE "Live For the Night"
PERFORMER "Hexx"
INDEX 01 24:31:22
TRACK 09 AUDIO
TITLE "Fear No Evil"
PERFORMER "Hexx"
INDEX 01 28:00:07
TRACK 10 AUDIO
TITLE "Radio spot KRQR “Best of the Clubs” 1985"
PERFORMER "Hexx"
INDEX 01 32:22:12
TRACK 11 AUDIO
TITLE "No Escape (PARADOX DEMO 1983)"
PERFORMER "Hexx"
INDEX 01 32:52:15
TRACK 12 AUDIO
TITLE "The Other Side (PARADOX DEMO 1983)"
PERFORMER "Hexx"
INDEX 00 36:20:62
INDEX 01 36:21:13
TRACK 13 AUDIO
TITLE "Search For The King (PARADOX DEMO 1983)"
PERFORMER "Hexx"
INDEX 00 40:23:07
INDEX 01 40:23:53
TRACK 14 AUDIO
TITLE "Left For Dead (UP FROM THE GRAVE DEMO 2013 with Dennis Manzo - vocals)"
PERFORMER "Hexx"
INDEX 00 43:56:01
INDEX 01 43:56:14
TRACK 15 AUDIO
TITLE "Lost My Way (UP FROM THE GRAVE DEMO 2013 with Dennis Manzo - vocals)"
PERFORMER "Hexx"
INDEX 00 46:21:47
INDEX 01 46:22:06
TRACK 16 AUDIO
TITLE "Drop Away (UP FROM THE GRAVE DEMO 2013 with Dennis Manzo - vocals)"
PERFORMER "Hexx"
INDEX 01 50:24:67
TRACK 17 AUDIO
TITLE "Crumble (UP FROM THE GRAVE DEMO 2013 with Dennis Manzo - vocals)"
PERFORMER "Hexx"
INDEX 01 54:39:34
TRACK 18 AUDIO
TITLE "Intro / The Victim (LIVE 2015 new line-up with Eddy Vega - vocals)"
PERFORMER "Hexx"
INDEX 01 59:22:02
TRACK 19 AUDIO
TITLE "Edge Of Death (LIVE 2015 new line-up with Eddy Vega - vocals)"
PERFORMER "Hexx"
INDEX 01 63:43:04
TRACK 20 AUDIO
TITLE "Under The Spell (LIVE 2015 new line-up with Eddy Vega - vocals)"
PERFORMER "Hexx"
INDEX 01 67:12:39
TRACK 21 AUDIO
TITLE "Burn Or Boil (LIVE 2015 new line-up with Eddy Vega - vocals)"
PERFORMER "Hexx"
INDEX 01 70:53:43


"Log"
Exact Audio Copy V1.1 from 23. June 2015

Отчёт EAC об извлечении, выполненном 2. марта 2016, 19:17

Hexx / Under the Spell

Дисковод: HL-DT-STDVDRAM GTA0N Adapter: 1 ID: 0

Режим чтения : Достоверность
Использование точного потока : Да
Отключение кэша аудио : Да
Использование указателей C2 : Нет

Коррекция смещения при чтении : 102
Способность читать области Lead-in и Lead-out : Нет
Заполнение пропущенных сэмплов тишиной : Да
Удаление блоков с тишиной в начале и конце : Нет
При вычислениях CRC использовались нулевые сэмплы : Да
Интерфейс : Встроенный Win32-интерфейс для Win NT/2000

Выходной формат : Пользовательский кодировщик
Выбранный битрейт : 768 kBit/s
Качество : Высокий
Добавление ID3-тега : Нет
Утилита сжатия : C:\Program Files (x86)\Exact Audio Copy\FLAC\FLAC.EXE
Дополнительные параметры : -6 -V -T "ARTIST=%artist%" -T "TITLE=%title%" -T "ALBUM=%albumtitle%" -T "DATE=%year%" -T "TRACKNUMBER=%tracknr%" -T "GENRE=%genre%" -T "COMMENT=%comment%" -T "BAND=%albuminterpret%" -T "ALBUMARTIST=%albuminterpret%" -T "COMPOSER=%composer%" %haslyrics%--tag-from-file=LYRICS="%lyricsfile%"%haslyrics% -T "DISCNUMBER=%cdnumber%" -T "TOTALDISCS=%totalcds%" -T "TOTALTRACKS=%numtracks%" %hascover%--picture="%coverfile%"%hascover% %source% -o %dest%


TOC извлечённого CD

Трек | Старт | Длительность | Начальный сектор | Конечный сектор
---------------------------------------------------------------------
1 | 0:00.00 | 2:32.23 | 0 | 11422
2 | 2:32.23 | 3:45.25 | 11423 | 28322
3 | 6:17.48 | 3:38.31 | 28323 | 44703
4 | 9:56.04 | 3:44.28 | 44704 | 61531
5 | 13:40.32 | 3:52.53 | 61532 | 78984
6 | 17:33.10 | 3:19.23 | 78985 | 93932
7 | 20:52.33 | 3:01.43 | 93933 | 107550
8 | 23:54.01 | 3:16.28 | 107551 | 122278
9 | 27:10.29 | 3:42.17 | 122279 | 138945
10 | 30:52.46 | 4:48.02 | 138946 | 160547
11 | 35:40.48 | 3:36.03 | 160548 | 176750
12 | 39:16.51 | 3:53.06 | 176751 | 194231
13 | 43:09.57 | 5:19.11 | 194232 | 218167
14 | 48:28.68 | 2:51.19 | 218168 | 231011
15 | 51:20.12 | 3:12.66 | 231012 | 245477
16 | 54:33.03 | 3:45.27 | 245478 | 262379
17 | 58:18.30 | 3:34.10 | 262380 | 278439
18 | 61:52.40 | 3:42.23 | 278440 | 295112
19 | 65:34.63 | 3:09.44 | 295113 | 309331
20 | 68:44.32 | 3:42.00 | 309332 | 325981
21 | 72:26.32 | 4:58.17 | 325982 | 348348
22 | 77:24.49 | 2:54.62 | 348349 | 361460


Характеристики диапазона извлечения и сообщения об ошибках

Выбранный диапазон

Имя файла C:\Users\магазин\Music\Hexx - Under the Spell.wav

Пиковый уровень 100.0 %
Скорость извлечения 4.4 X
Качество диапазона 100.0 %
CRC копии 91CC5C2E
Копирование... OK

Ошибок не произошло


AccurateRip: сводка

Трек 1 : извлечено точно (доверие 2) [B9F07ADF] (AR v2)
Трек 2 : извлечено точно (доверие 2) [225491B0] (AR v2)
Трек 3 : извлечено точно (доверие 2) [EF79A13B] (AR v2)
Трек 4 : извлечено точно (доверие 2) [12CD72B0] (AR v2)
Трек 5 : извлечено точно (доверие 2) [4F04D08B] (AR v2)
Трек 6 : извлечено точно (доверие 2) [1EE0E873] (AR v2)
Трек 7 : извлечено точно (доверие 2) [11E06743] (AR v2)
Трек 8 : извлечено точно (доверие 2) [DA3B6CBC] (AR v2)
Трек 9 : извлечено точно (доверие 2) [BC802159] (AR v2)
Трек 10 : извлечено точно (доверие 2) [B5BC1C88] (AR v2)
Трек 11 : извлечено точно (доверие 2) [DF80FFE7] (AR v2)
Трек 12 : извлечено точно (доверие 2) [25D040C4] (AR v2)
Трек 13 : извлечено точно (доверие 2) [16D33D57] (AR v2)
Трек 14 : извлечено точно (доверие 2) [ABE74369] (AR v2)
Трек 15 : извлечено точно (доверие 2) [CC98B530] (AR v2)
Трек 16 : извлечено точно (доверие 2) [B815A914] (AR v2)
Трек 17 : извлечено точно (доверие 2) [1FC94232] (AR v2)
Трек 18 : извлечено точно (доверие 2) [01DAC828] (AR v2)
Трек 19 : извлечено точно (доверие 2) [E5C6294E] (AR v2)
Трек 20 : извлечено точно (доверие 2) [E2D92C98] (AR v2)
Трек 21 : извлечено точно (доверие 2) [E676F4B7] (AR v2)
Трек 22 : извлечено точно (доверие 1) [8209B3BA] (AR v2)

Все треки извлечены точно

Конец отчёта

---- CUETools DB Plugin V2.1.6

[CTDB TOCID: XvOl8HQARx2ZKar9.Q9MNJY1dkw-] found
Submit result: XvOl8HQARx2ZKar9.Q9MNJY1dkw- has been confirmed
Track | CTDB Status
1 | (7/7) Accurately ripped
2 | (7/7) Accurately ripped
3 | (7/7) Accurately ripped
4 | (7/7) Accurately ripped
5 | (7/7) Accurately ripped
6 | (7/7) Accurately ripped
7 | (7/7) Accurately ripped
8 | (7/7) Accurately ripped
9 | (7/7) Accurately ripped
10 | (7/7) Accurately ripped
11 | (7/7) Accurately ripped
12 | (7/7) Accurately ripped
13 | (7/7) Accurately ripped
14 | (7/7) Accurately ripped
15 | (7/7) Accurately ripped
16 | (7/7) Accurately ripped
17 | (7/7) Accurately ripped
18 | (7/7) Accurately ripped
19 | (7/7) Accurately ripped
20 | (7/7) Accurately ripped
21 | (7/7) Accurately ripped
22 | (6/7) Accurately ripped

"Log 2"
Exact Audio Copy V1.1 from 23. June 2015

Отчёт EAC об извлечении, выполненном 2. марта 2016, 20:19

Hexx / No Escape

Дисковод: HL-DT-STDVDRAM GTA0N Adapter: 1 ID: 0

Режим чтения : Достоверность
Использование точного потока : Да
Отключение кэша аудио : Да
Использование указателей C2 : Нет

Коррекция смещения при чтении : 102
Способность читать области Lead-in и Lead-out : Нет
Заполнение пропущенных сэмплов тишиной : Да
Удаление блоков с тишиной в начале и конце : Нет
При вычислениях CRC использовались нулевые сэмплы : Да
Интерфейс : Встроенный Win32-интерфейс для Win NT/2000

Выходной формат : Пользовательский кодировщик
Выбранный битрейт : 768 kBit/s
Качество : Высокий
Добавление ID3-тега : Нет
Утилита сжатия : C:\Program Files (x86)\Exact Audio Copy\FLAC\FLAC.EXE
Дополнительные параметры : -6 -V -T "ARTIST=%artist%" -T "TITLE=%title%" -T "ALBUM=%albumtitle%" -T "DATE=%year%" -T "TRACKNUMBER=%tracknr%" -T "GENRE=%genre%" -T "COMMENT=%comment%" -T "BAND=%albuminterpret%" -T "ALBUMARTIST=%albuminterpret%" -T "COMPOSER=%composer%" %haslyrics%--tag-from-file=LYRICS="%lyricsfile%"%haslyrics% -T "DISCNUMBER=%cdnumber%" -T "TOTALDISCS=%totalcds%" -T "TOTALTRACKS=%numtracks%" %hascover%--picture="%coverfile%"%hascover% %source% -o %dest%


TOC извлечённого CD

Трек | Старт | Длительность | Начальный сектор | Конечный сектор
---------------------------------------------------------------------
1 | 0:00.00 | 3:58.16 | 0 | 17865
2 | 3:58.16 | 2:49.53 | 17866 | 30593
3 | 6:47.69 | 3:42.69 | 30594 | 47312
4 | 10:30.63 | 3:08.10 | 47313 | 61422
5 | 13:38.73 | 3:54.44 | 61423 | 79016
6 | 17:33.42 | 3:08.38 | 79017 | 93154
7 | 20:42.05 | 3:49.17 | 93155 | 110346
8 | 24:31.22 | 3:28.60 | 110347 | 126006
9 | 28:00.07 | 4:22.05 | 126007 | 145661
10 | 32:22.12 | 0:30.03 | 145662 | 147914
11 | 32:52.15 | 3:28.73 | 147915 | 163587
12 | 36:21.13 | 4:02.40 | 163588 | 181777
13 | 40:23.53 | 3:32.36 | 181778 | 197713
14 | 43:56.14 | 2:25.67 | 197714 | 208655
15 | 46:22.06 | 4:02.61 | 208656 | 226866
16 | 50:24.67 | 4:14.42 | 226867 | 245958
17 | 54:39.34 | 4:42.43 | 245959 | 267151
18 | 59:22.02 | 4:21.02 | 267152 | 286728
19 | 63:43.04 | 3:29.35 | 286729 | 302438
20 | 67:12.39 | 3:41.04 | 302439 | 319017
21 | 70:53.43 | 3:45.70 | 319018 | 335962


Характеристики диапазона извлечения и сообщения об ошибках

Выбранный диапазон

Имя файла C:\Users\магазин\Music\Hexx - No Escape.wav

Пиковый уровень 97.9 %
Скорость извлечения 4.4 X
Качество диапазона 100.0 %
CRC копии 09FC757A
Копирование... OK

Ошибок не произошло


AccurateRip: сводка

Трек 1 : извлечено точно (доверие 2) [9A7CDDDF] (AR v2)
Трек 2 : извлечено точно (доверие 2) [0E20C8E4] (AR v2)
Трек 3 : извлечено точно (доверие 2) [35B5AF0E] (AR v2)
Трек 4 : извлечено точно (доверие 2) [7131486C] (AR v2)
Трек 5 : извлечено точно (доверие 2) [C95AC4A3] (AR v2)
Трек 6 : извлечено точно (доверие 2) [5FD35FC4] (AR v2)
Трек 7 : извлечено точно (доверие 2) [41E90A13] (AR v2)
Трек 8 : извлечено точно (доверие 2) [F4850875] (AR v2)
Трек 9 : извлечено точно (доверие 2) [27E8F057] (AR v2)
Трек 10 : извлечено точно (доверие 2) [ECAE13D1] (AR v2)
Трек 11 : извлечено точно (доверие 2) [AEF74003] (AR v2)
Трек 12 : извлечено точно (доверие 2) [9C91B20C] (AR v2)
Трек 13 : извлечено точно (доверие 2) [57013CD7] (AR v2)
Трек 14 : извлечено точно (доверие 2) [963F0511] (AR v2)
Трек 15 : извлечено точно (доверие 2) [8559FAF0] (AR v2)
Трек 16 : извлечено точно (доверие 2) [835A8B90] (AR v2)
Трек 17 : извлечено точно (доверие 2) [961528E9] (AR v2)
Трек 18 : извлечено точно (доверие 2) [1DC150A2] (AR v2)
Трек 19 : извлечено точно (доверие 2) [C99C2BDD] (AR v2)
Трек 20 : извлечено точно (доверие 2) [4F057692] (AR v2)
Трек 21 : извлечено точно (доверие 2) [15A5138F] (AR v2)

Все треки извлечены точно

Конец отчёта

---- CUETools DB Plugin V2.1.6

[CTDB TOCID: .gtnwh4MsIKm8H_3Makhsp45rPY-] found
Submit result: .gtnwh4MsIKm8H_3Makhsp45rPY- has been confirmed
Track | CTDB Status
1 | (8/8) Accurately ripped
2 | (8/8) Accurately ripped
3 | (8/8) Accurately ripped
4 | (8/8) Accurately ripped
5 | (8/8) Accurately ripped
6 | (8/8) Accurately ripped
7 | (8/8) Accurately ripped
8 | (8/8) Accurately ripped
9 | (8/8) Accurately ripped
10 | (8/8) Accurately ripped
11 | (8/8) Accurately ripped
12 | (8/8) Accurately ripped
13 | (8/8) Accurately ripped
14 | (8/8) Accurately ripped
15 | (8/8) Accurately ripped
16 | (8/8) Accurately ripped
17 | (8/8) Accurately ripped
18 | (8/8) Accurately ripped
19 | (8/8) Accurately ripped
20 | (8/8) Accurately ripped
21 | (8/8) Accurately ripped


Under the Spell

No Escape


Top
 Profile  
 
 
PostPosted: 03 Mar 2016 
Хиппей (support team)
User avatar
Joined: 30 Jul 2007
Posts: 111717
Lоcаtion: Киев (Kyiv, UA)
Age: 45
Name: Andrey
По мне так первопресс почище звучит, как смог починил скорость и оставил его :thanx:

Ой, Саш, а могешь этим вариантом поделиться?

_________________


Top
 Profile E-mail  
 
 
PostPosted: 03 Mar 2016 
Хиппей (support team)
User avatar
Joined: 30 Jul 2007
Posts: 111717
Lоcаtion: Киев (Kyiv, UA)
Age: 45
Name: Andrey
thorbeorn wrote:
Under The Spell - 30th Anniversary Box Set

:thanx:

No Escape

mirror: iFolder l Narod l M-Cloud

Under the Spell

mirror: iFolder l Narod l M-Cloud

_________________


Top
 Profile E-mail  
 
 
PostPosted: 03 Mar 2016 
консэрваторъ
Joined: 11 Aug 2007
Posts: 16807
Lоcаtion: Псков
Age: 45
Name: Сергей
ААААААААААААААААААААААААААА!!!!!!!!!!!!!!!!!!!!!!!!!!!!!.................... :lob: :lob: :lob: :lob: :lob: :lob: :lob:
СПА-СИ-БААААААА!!!!.... :true: :true: :true: :true: :true: :true: :true: :meloman: :meloman: :meloman: :meloman:

_________________
THRASH 'EM ALL


Top
 Profile E-mail  
 
 
PostPosted: 03 Mar 2016 
Доктор энтомологии
User avatar
Joined: 22 Jan 2009
Posts: 9692
Lоcаtion: Даугавпилс
Age: 44
Name: Алексей
Какая богатая хрень! :shok: Спасибо Серега за труды! Скачаю потом, как место найду куда


Top
 Profile  
 
 
PostPosted: 03 Mar 2016 
Alive Again
User avatar
Joined: 17 Dec 2008
Posts: 4747
Lоcаtion: Курск Воронеж Оскол
Age: 44
Name: Дмитрий
:thanx:


Top
 Profile E-mail  
 
 
PostPosted: 03 Mar 2016 
Прокъмитолист
User avatar
Joined: 12 Aug 2007
Posts: 6545
Lоcаtion: Санктъ-Петербуркъ
Age: 51
Name: Олекъ
:thanx:

_________________
прокъметол - это музыко, от которово есть прок (ы)


Top
 Profile  
 
 
PostPosted: 03 Mar 2016 
А может смените мне статус?..
User avatar
Joined: 24 Dec 2008
Posts: 635
Age: 45
Name: Дмитрий
Спасибо!


Top
 Profile  
 
 
PostPosted: 03 Mar 2016 
Хиппей (support team)
User avatar
Joined: 30 Jul 2007
Posts: 111717
Lоcаtion: Киев (Kyiv, UA)
Age: 45
Name: Andrey
Entomologist wrote:
Какая богатая хрень! :shok:

Хм... По толщине? :oops:

_________________


Top
 Profile E-mail  
 
 
PostPosted: 03 Mar 2016 
Доктор энтомологии
User avatar
Joined: 22 Jan 2009
Posts: 9692
Lоcаtion: Даугавпилс
Age: 44
Name: Алексей
ага, по весу, гигабайт жеж целый :shok:


Top
 Profile  
 
 
PostPosted: 03 Mar 2016 
консэрваторъ
Joined: 11 Aug 2007
Posts: 16807
Lоcаtion: Псков
Age: 45
Name: Сергей
Слушаю 84-ый с этого бокса... :meloman: Особого чуда не произошло... стали тянуть высокие, посыпался песок... Не перегрузили, за что инжинирингу вельмипонеже!..

_________________
THRASH 'EM ALL


Top
 Profile E-mail  
 
 
PostPosted: 03 Mar 2016 
Анатолий
User avatar
Joined: 18 Oct 2008
Posts: 3409
Lоcаtion: Армавир
Age: 41
Name: Анатолий
Спасибо огромное!!! :thanx: :true:


Top
 Profile E-mail  
 
 
PostPosted: 03 Mar 2016 
консэрваторъ
Joined: 11 Aug 2007
Posts: 16807
Lоcаtion: Псков
Age: 45
Name: Сергей
Демо 83-его под именем Парадокса звучит лучше дебютника... ЛедЗеппелиновщина во всей своей красе... нафталин... :lob:
Демо 13-ого года интересное, можно развить в прекрасный альбом... этакая скоростная современная Зэппелиновщина с Рэйнбоувщиной...

_________________
THRASH 'EM ALL


Top
 Profile E-mail  
 
 
PostPosted: 03 Mar 2016 
Персональный статус
User avatar
Joined: 11 May 2011
Posts: 418
Lоcаtion: Omsk
Age: 29
Name: Alexander
Спасибо!
Ой, Саш, а могешь этим вариантом поделиться?

Переделал, ориентируясь на длительность cd. Тональность не крутил, только длительность. Не знаю правильно иль нет вышло, так что до вердикта лучше не перезаливать. :arrow:

_________________
Enigma, unholy, ungodly, commander of the regeneration
Insidious and caught, implored by disgrace
Inhumation... The burial of man
Confession... Unify all evil


Top
 Profile E-mail  
 
 
PostPosted: 03 Mar 2016 
консэрваторъ
Joined: 11 Aug 2007
Posts: 16807
Lоcаtion: Псков
Age: 45
Name: Сергей
Under The Spell из бокса 16-ого почищен великолепно, опять же не заклиппенгован... радует весьма!.. :true:

_________________
THRASH 'EM ALL


Top
 Profile E-mail  
 
 
PostPosted: 03 Mar 2016 
консэрваторъ
Joined: 11 Aug 2007
Posts: 16807
Lоcаtion: Псков
Age: 45
Name: Сергей
thorbeorn wrote:
NEW SONGS 2014 (with Dan Bryant on vocals):
12. Burn Or Boil
13. Swimming The Witch

Вот этот вот уклон в строну Пристовщины вообще порадовал!!. :meloman:

_________________
THRASH 'EM ALL


Top
 Profile E-mail  
 
Display posts from previous:  Sort by  
Post new topic Reply to topic  [ 406 posts ]  Go to page Previous  1 ... 7, 8, 9, 10, 11, 12, 13 ... 21  Next

All times are UTC + 3 hours


Who is online

Users browsing this forum: No registered users and 2 guests


You cannot post new topics in this forum
You cannot reply to topics in this forum
You cannot edit your posts in this forum
You cannot delete your posts in this forum
You cannot post attachments in this forum

Search for:
Яндекс.Метрика
Powered by phpBB © 2000, 2002, 2005, 2007 phpBB Group