\m/ 80's metal \m/

Информационно-аналитический форум "80 см пыли" (In Search We Trust) "У нас никто никуда не спешит"
Me For You - http://me-4u.com
It is currently 25 Apr 2019

All times are UTC + 3 hours

Spoiler
Chat - temporary registration for foreign users (please leave your application here)





Forum rules


Уважаемые пользователи ресурса, друзья, коллеги и гости нашего форума. Данный раздел конференции создан с целью рафинации, и посвящён такому стилевому направлению в музыке, как Thrash Metal во всех его проявлениях и ипостасях, а иногда и переходящему на пограничные стили Speed, Power, Groove, Crossover, MDM и т.п.
Главное правило здесь одно: Одна группа – одна тема! Всё остальное созвучно основным нормам поведения на конференции.
Шаблон оформления тем в этом подфоруме должен быть основан на данных сайта www.metal-archives.com и выглядеть следующим образом:

Группа (Страна) - Стилевые рамки - дискография
Slayer (USA) - Thrash Metal - дискография


В теме допустимо размещение всей информации касающейся данного коллектива: анонсы любых альбомов в любых форматах, запросы любых релизов коллектива (кроме релизов текущего и прошлого годов), обсуждения, обзоры, а в остальном всё как обычно. Уважаем друг друга, не грубим, соблюдаем нормы поведения на конференции, оформляем анонсы и запросы красиво и информативно, что бы модераторы не посчитали их троллингом, и не отправили куда положено, выписав Вам предупреждение или ещё что похуже… Прежде чем что-то запросить или запостить, пользуемся поиском! Пользуемся поиском! ПОЛЬЗУЕМСЯ ПОИСКОМ!!! Так слышно меня?.. :pardon:
Интересного, конструктивного и креативного общения! ;)

Image



Post new topic Reply to topic  [ 178 posts ]  Go to page Previous  1, 2, 3, 4, 5, 6 ... 9  Next
Author Message
 
PostPosted: 17 Jun 2009 
Пионэръ
User avatar
Joined: 20 Jan 2009
Posts: 28
Lоcаtion: Украина
Age: 43
Name: .
наверно ссылка мертва,не дает качать :vic: :vic: :vic:


Top
 Profile  
 
 
PostPosted: 17 Jun 2009 
хард н хэвщик (support team)
User avatar
Joined: 02 Jun 2008
Posts: 16881
Lоcаtion: Н.Новгород
Age: 32
Name: Артем
troll_swamp wrote:
наверно ссылка мертва,не дает качать :vic: :vic: :vic:

если у тебя мозилла, и стоит антирекламный модуль - отключи его.
В крайнем случае попробуй открыть ссылку в IE - у меня она открылась без проблем.


Top
 Profile  
 
 
PostPosted: 24 Jun 2009 
Хиппей (support team)
User avatar
Joined: 30 Jul 2007
Posts: 111851
Lоcаtion: Киев (Kyiv, UA)
Age: 45
Name: Andrey
Обновлены ссылки на видео. Качаем. Материал великолепный :true:
Ну и качество очень отличается от того, что с вхс-рипа :fingal:

_________________


Top
 Profile E-mail  
 
 
PostPosted: 27 Jun 2009 
Пионэръ
User avatar
Joined: 20 Jan 2009
Posts: 28
Lоcаtion: Украина
Age: 43
Name: .
СПАСИБО АГРОМНОЕ :thanx: :thanx: :true:


Top
 Profile  
 
 
PostPosted: 08 Aug 2010 
А может смените мне статус?..
User avatar
Joined: 17 Jan 2008
Posts: 880
Lоcаtion: Пенза
Age: 41
Name: Денис
Ищу переиздания от Metal Mind Records

Image

Toxik - World Circus 1987

1. Heart Attack
2. Social Overload
3. Pain and Misery
4. Voices
5. Door to Hell
6. World Circus
7. 47 Seconds of Sanity/Count Your Blessings
8. False Prophets
9. Haunted Earth
10. Victims
11. Machine Dream (demo version with original singer Mike)
12. Radio Interview (from 1989)



Image

Toxik - Think This 1989

1. Think This
2. Greed
3. Spontaneous
4. There Stood the Fence
5. Black and White
6. Technical Arrogance
7. WIR NJN8/In God
8. Machine Dream
9. Out on the Tiles (Led Zeppelin cover)
10. Shotgun Logic
11. Time After Time
12. Think That
13. Shotgun Logic (demo)
14. Black and White (demo)


Top
 Profile  
 
 
PostPosted: 08 Aug 2010 
Хиппей (support team)
User avatar
Joined: 30 Jul 2007
Posts: 111851
Lоcаtion: Киев (Kyiv, UA)
Age: 45
Name: Andrey
Кста, по ходу сразу же вопрос. Переиздание от Displeased Records 2007 года чем-то отличается по качеству зука с переизданием от поляков?
Денис. я так понял, ты ради бонусных демок релизы от ММ ищешь?

_________________


Top
 Profile E-mail  
 
 
PostPosted: 10 Aug 2010 
А может смените мне статус?..
User avatar
Joined: 17 Jan 2008
Posts: 880
Lоcаtion: Пенза
Age: 41
Name: Денис
Scatterbrain wrote:
Кста, по ходу сразу же вопрос. Переиздание от Displeased Records 2007 года чем-то отличается по качеству зука с переизданием от поляков?
Денис. я так понял, ты ради бонусных демок релизы от ММ ищешь?

А Андрей я понял,куда ты клонишь ;) Хочешь загнать мой запрос в кургузую секцию ищу бонуса??? :nea: Неа меня интересуют только полновесные впечетления,а не одни бонусные огрызки )))) :crazy:


Last edited by klod77 on 11 Aug 2010, edited 1 time in total.

Top
 Profile  
 
 
PostPosted: 10 Aug 2010 
Хиппей (support team)
User avatar
Joined: 30 Jul 2007
Posts: 111851
Lоcаtion: Киев (Kyiv, UA)
Age: 45
Name: Andrey
Кхм, Денис, так я вот и спрашиваю, если тебе бонусы пофек, то мож пойдет рип и от Дисплесед? :vic:

_________________


Top
 Profile E-mail  
 
 
PostPosted: 10 Aug 2010 
А может смените мне статус?..
User avatar
Joined: 17 Jan 2008
Posts: 880
Lоcаtion: Пенза
Age: 41
Name: Денис
Scatterbrain wrote:
Кхм, Денис, так я вот и спрашиваю, если тебе бонусы пофек, то мож пойдет рип и от Дисплесед? :vic:

Не от Дисплизид и оригиналы есть..Охота Метал Майнд.... :crazy:


Top
 Profile  
 
 
PostPosted: 10 Aug 2010 
Хиппей (support team)
User avatar
Joined: 30 Jul 2007
Posts: 111851
Lоcаtion: Киев (Kyiv, UA)
Age: 45
Name: Andrey
А смысел? :crazy: Там же кроме бестолковых демок ничо полезного :vic:
Я понимаю, буклет заиметь от ММ, то другое дело, а звук, по ходу, они лучше не сделали.

Хотя норм, пусть запрос остается в силе, найдем и это издание. Не покупать же диск ради эксперимента, внатуре :pardon:

_________________


Top
 Profile E-mail  
 
 
PostPosted: 10 Aug 2010 
А может смените мне статус?..
User avatar
Joined: 17 Jan 2008
Posts: 880
Lоcаtion: Пенза
Age: 41
Name: Денис
Scatterbrain wrote:
АТам же кроме бестолковых демок ничо полезного :vic:

ну тык,а для меня в этом интерес имеется :oops:
а запрос да..пусть висит..авось всплывёт


Top
 Profile  
 
 
PostPosted: 11 Aug 2010 
А может смените мне статус?..
Joined: 03 Jul 2009
Posts: 861
Lоcаtion: Serbia
Name: Laki
I have them. I will post them tomorrow.But, sound on Displeased reissues is better, at least I like them better


Top
 Profile E-mail  
 
 
PostPosted: 11 Aug 2010 
А может смените мне статус?..
User avatar
Joined: 17 Jan 2008
Posts: 880
Lоcаtion: Пенза
Age: 41
Name: Денис
glory11 wrote:
I have them. I will post them tomorrow.But, sound on Displeased reissues is better, at least I like them better

Good news man....I'll look forward to :true:


Top
 Profile  
 
 
PostPosted: 11 Aug 2010 
А может смените мне статус?..
Joined: 03 Jul 2009
Posts: 861
Lоcаtion: Serbia
Name: Laki
Toxik - World Circus 1987 (2007 Metal Mind MASS CD 0994)

Image Image Image

Release date: January 15th, 2007
Catalog ID: MASS CD 0994
Format: CD, Album, Reissue, Remastered
Country: Poland
Barcode: 5907785028791
ASIN: B000K98FVM


1. Heart Attack
2. Social Overload
3. Pain and Misery
4. Voices
5. Door to Hell
6. World Circus
7. 47 Seconds of Sanity/Count Your Blessings
8. False Prophets
9. Haunted Earth
10. Victims
11. Machine Dream (demo version with original singer Mike)
12. Radio Interview (from 1989)

Notes
Remastered using 24-bit process on a golden disc, housed in standard jewel case.
Under exclusive license from Roadrunner Records.

Cue
PERFORMER "Toxik"
TITLE "World Circus"
FILE "D:\Tox1\Toxik - World Circus\Toxik - World Circus.ape" WAVE
TRACK 01 AUDIO
TITLE "Heart Attack"
PERFORMER "Toxik"
INDEX 01 00:00:00
TRACK 02 AUDIO
TITLE "Social Overload"
PERFORMER "Toxik"
INDEX 01 03:48:44
TRACK 03 AUDIO
TITLE "Pain And Misery"
PERFORMER "Toxik"
INDEX 01 07:16:24
TRACK 04 AUDIO
TITLE "Voices"
PERFORMER "Toxik"
INDEX 01 10:32:67
TRACK 05 AUDIO
TITLE "Door To Hell"
PERFORMER "Toxik"
INDEX 01 13:57:69
TRACK 06 AUDIO
TITLE "World Circus"
PERFORMER "Toxik"
INDEX 01 17:49:37
TRACK 07 AUDIO
TITLE "47 Seconds Of Sanity\Count Your Blessings"
PERFORMER "Toxik"
INDEX 01 22:51:09
TRACK 08 AUDIO
TITLE "False Prophets"
PERFORMER "Toxik"
INDEX 01 27:48:22
TRACK 09 AUDIO
TITLE "Haunted Earth"
PERFORMER "Toxik"
INDEX 01 30:10:37
TRACK 10 AUDIO
TITLE "Victims"
PERFORMER "Toxik"
INDEX 01 33:38:59
TRACK 11 AUDIO
TITLE "Machine Dream (Demo version with original singer Mike)"
PERFORMER "Toxik"
INDEX 01 37:36:01
TRACK 12 AUDIO
TITLE "Radio Interview (from 1989)"
PERFORMER "Toxik"
INDEX 01 41:34:26

Log
Exact Audio Copy V0.99 prebeta 5 from 4. May 2009

EAC extraction logfile from 11. August 2010, 1:39

Toxik / World Circus

Used drive : PIONEER DVD-RW DVR-115D Adapter: 0 ID: 0

Read mode : Secure
Utilize accurate stream : Yes
Defeat audio cache : Yes
Make use of C2 pointers : No

Read offset correction : 48
Overread into Lead-In and Lead-Out : No
Fill up missing offset samples with silence : Yes
Delete leading and trailing silent blocks : No
Null samples used in CRC calculations : Yes
Used interface : Native Win32 interface for Win NT & 2000

Used output format : Monkey's Audio Lossless Encoder
Selected bitrate : High Lossless Compression
Quality : High
Add ID3 tag : No
Command line compressor : C:\Program Files\Exact Audio Copy\MAC.EXE


TOC of the extracted CD

Track | Start | Length | Start sector | End sector
---------------------------------------------------------
1 | 0:00.00 | 3:48.44 | 0 | 17143
2 | 3:48.44 | 3:27.55 | 17144 | 32723
3 | 7:16.24 | 3:16.43 | 32724 | 47466
4 | 10:32.67 | 3:25.02 | 47467 | 62843
5 | 13:57.69 | 3:51.43 | 62844 | 80211
6 | 17:49.37 | 5:01.47 | 80212 | 102833
7 | 22:51.09 | 4:57.13 | 102834 | 125121
8 | 27:48.22 | 2:22.15 | 125122 | 135786
9 | 30:10.37 | 3:28.22 | 135787 | 151408
10 | 33:38.59 | 3:57.17 | 151409 | 169200
11 | 37:36.01 | 3:58.25 | 169201 | 187075
12 | 41:34.26 | 3:45.71 | 187076 | 204021


Range status and errors

Selected range

Filename D:\Toxik - World Circus\Toxik - World Circus.wav

Peak level 99.9 %
Range quality 99.9 %
Copy CRC C9501797
Copy OK

No errors occurred


AccurateRip summary

Track 1 accurately ripped (confidence 4) [1EBFC6FA]
Track 2 accurately ripped (confidence 4) [02F9BDDF]
Track 3 accurately ripped (confidence 4) [867EF9A3]
Track 4 accurately ripped (confidence 4) [B80BB98D]
Track 5 accurately ripped (confidence 4) [E0B6D8B0]
Track 6 accurately ripped (confidence 4) [4391FD29]
Track 7 accurately ripped (confidence 4) [845370FD]
Track 8 accurately ripped (confidence 4) [FA4A203B]
Track 9 accurately ripped (confidence 4) [C913C0D8]
Track 10 accurately ripped (confidence 4) [70133436]
Track 11 accurately ripped (confidence 4) [6A9E928E]
Track 12 accurately ripped (confidence 3) [0B816A16]

All tracks accurately ripped

End of status report

Megaupload l Multiupload


Last edited by glory11 on 11 Aug 2010, edited 2 times in total.

Top
 Profile E-mail  
 
 
PostPosted: 11 Aug 2010 
Хиппей (support team)
User avatar
Joined: 30 Jul 2007
Posts: 111851
Lоcаtion: Киев (Kyiv, UA)
Age: 45
Name: Andrey
:crazy:

Thanx! :thanx:

_________________


Top
 Profile E-mail  
 
 
PostPosted: 11 Aug 2010 
А может смените мне статус?..
Joined: 03 Jul 2009
Posts: 861
Lоcаtion: Serbia
Name: Laki
Toxik - Think This 1989 (2007 Metal Mind MASS CD 0993)

Image Image

Release date: January 15th, 2007
Catalog ID: MASS CD 0993
Format: CD, Album, Reissue, Remastered
Country: Poland
Barcode: 5907785028784


1. Think This
2. Greed
3. Spontaneous
4. There Stood the Fence
5. Black and White
6. Technical Arrogance
7. WIR NJN8/In God
8. Machine Dream
9. Out on the Tiles (Led Zeppelin cover)
10. Shotgun Logic
11. Time After Time
12. Think That
13. Shotgun Logic (demo)
14. Black & White (demo)

Cue
PERFORMER "Toxik"
TITLE "Think This"
FILE "D:\Tox2\Toxik - Think This\Toxik - Think This.ape" WAVE
TRACK 01 AUDIO
TITLE "Think This"
PERFORMER "Toxik"
INDEX 01 00:00:00
TRACK 02 AUDIO
TITLE "Greed"
PERFORMER "Toxik"
INDEX 01 05:37:64
TRACK 03 AUDIO
TITLE "Spontaneous"
PERFORMER "Toxik"
INDEX 01 09:47:48
TRACK 04 AUDIO
TITLE "There Stood The Fence"
PERFORMER "Toxik"
INDEX 01 14:56:72
TRACK 05 AUDIO
TITLE "Black And White"
PERFORMER "Toxik"
INDEX 01 19:40:23
TRACK 06 AUDIO
TITLE "Technical Arrogance"
PERFORMER "Toxik"
INDEX 01 24:50:34
TRACK 07 AUDIO
TITLE "Wir Njn 8/in God"
PERFORMER "Toxik"
INDEX 00 30:15:02
INDEX 01 30:15:05
TRACK 08 AUDIO
TITLE "Machine Dream"
PERFORMER "Toxik"
INDEX 01 35:25:32
TRACK 09 AUDIO
TITLE "Out On The Tiles"
PERFORMER "Toxik"
INDEX 01 39:52:20
TRACK 10 AUDIO
TITLE "Shotgun Logic"
PERFORMER "Toxik"
INDEX 01 42:57:67
TRACK 11 AUDIO
TITLE "Time After Time"
PERFORMER "Toxik"
INDEX 01 48:12:13
TRACK 12 AUDIO
TITLE "Think That"
PERFORMER "Toxik"
INDEX 01 53:06:60
TRACK 13 AUDIO
TITLE "Shotgun Logic (Bonus Track)"
PERFORMER "Toxik"
INDEX 01 53:35:25
TRACK 14 AUDIO
TITLE "Black & White (Bonus Track)"
PERFORMER "Toxik"
INDEX 01 58:39:52

Log
Exact Audio Copy V0.99 prebeta 5 from 4. May 2009

EAC extraction logfile from 11. August 2010, 1:51

Toxik / Think This

Used drive : PIONEER DVD-RW DVR-115D Adapter: 0 ID: 0

Read mode : Secure
Utilize accurate stream : Yes
Defeat audio cache : Yes
Make use of C2 pointers : No

Read offset correction : 48
Overread into Lead-In and Lead-Out : No
Fill up missing offset samples with silence : Yes
Delete leading and trailing silent blocks : No
Null samples used in CRC calculations : Yes
Used interface : Native Win32 interface for Win NT & 2000

Used output format : Monkey's Audio Lossless Encoder
Selected bitrate : High Lossless Compression
Quality : High
Add ID3 tag : No
Command line compressor : C:\Program Files\Exact Audio Copy\MAC.EXE


TOC of the extracted CD

Track | Start | Length | Start sector | End sector
---------------------------------------------------------
1 | 0:00.00 | 5:37.64 | 0 | 25338
2 | 5:37.64 | 4:09.59 | 25339 | 44072
3 | 9:47.48 | 5:09.24 | 44073 | 67271
4 | 14:56.72 | 4:43.26 | 67272 | 88522
5 | 19:40.23 | 5:10.11 | 88523 | 111783
6 | 24:50.34 | 5:24.46 | 111784 | 136129
7 | 30:15.05 | 5:10.27 | 136130 | 159406
8 | 35:25.32 | 4:26.63 | 159407 | 179419
9 | 39:52.20 | 3:05.47 | 179420 | 193341
10 | 42:57.67 | 5:14.21 | 193342 | 216912
11 | 48:12.13 | 4:54.47 | 216913 | 239009
12 | 53:06.60 | 0:28.40 | 239010 | 241149
13 | 53:35.25 | 5:04.27 | 241150 | 263976
14 | 58:39.52 | 5:07.39 | 263977 | 287040


Range status and errors

Selected range

Filename D:\Toxik - Think This\Toxik - Think This.wav

Peak level 99.9 %
Range quality 100.0 %
Copy CRC CA879F44
Copy OK

No errors occurred


AccurateRip summary

Track 1 accurately ripped (confidence 5) [5E8985A1]
Track 2 accurately ripped (confidence 5) [77DBFF34]
Track 3 accurately ripped (confidence 5) [D87BD483]
Track 4 accurately ripped (confidence 5) [782327FF]
Track 5 accurately ripped (confidence 5) [1A079DBE]
Track 6 accurately ripped (confidence 5) [F677FB20]
Track 7 accurately ripped (confidence 5) [9CA4E86D]
Track 8 accurately ripped (confidence 5) [7E7EA7B9]
Track 9 accurately ripped (confidence 5) [D9470BAD]
Track 10 accurately ripped (confidence 5) [BB51A47A]
Track 11 accurately ripped (confidence 5) [1C0FF4C5]
Track 12 accurately ripped (confidence 5) [1EB6917F]
Track 13 accurately ripped (confidence 5) [973AD2CB]
Track 14 accurately ripped (confidence 5) [01BE5AFB]

All tracks accurately ripped

End of status report

Megaupload


Last edited by glory11 on 11 Aug 2010, edited 2 times in total.

Top
 Profile E-mail  
 
 
PostPosted: 11 Aug 2010 
Хиппей (support team)
User avatar
Joined: 30 Jul 2007
Posts: 111851
Lоcаtion: Киев (Kyiv, UA)
Age: 45
Name: Andrey
Laki, yourself did lossless file? :oops:

_________________


Top
 Profile E-mail  
 
 
PostPosted: 11 Aug 2010 
А может смените мне статус?..
Joined: 03 Jul 2009
Posts: 861
Lоcаtion: Serbia
Name: Laki
Here's the cue, sorry. I just remembered how to make it :crazy:


Top
 Profile E-mail  
 
 
PostPosted: 11 Aug 2010 
Хиппей (support team)
User avatar
Joined: 30 Jul 2007
Posts: 111851
Lоcаtion: Киев (Kyiv, UA)
Age: 45
Name: Andrey
Hmmm... cue file is not found in the folder with the album? :shok:

We'll ask Oleg SpiralArch what could be the problem .. Apparently you did not put in EAC option "to create cue" :vic:

_________________


Top
 Profile E-mail  
 
 
PostPosted: 11 Aug 2010 
Хиппей (support team)
User avatar
Joined: 30 Jul 2007
Posts: 111851
Lоcаtion: Киев (Kyiv, UA)
Age: 45
Name: Andrey
viewtopic.php?f=209&t=8052

_________________


Top
 Profile E-mail  
 
Display posts from previous:  Sort by  
Post new topic Reply to topic  [ 178 posts ]  Go to page Previous  1, 2, 3, 4, 5, 6 ... 9  Next

All times are UTC + 3 hours


Who is online

Users browsing this forum: No registered users and 1 guest


You cannot post new topics in this forum
You cannot reply to topics in this forum
You cannot edit your posts in this forum
You cannot delete your posts in this forum
You cannot post attachments in this forum

Search for:
Яндекс.Метрика
Powered by phpBB © 2000, 2002, 2005, 2007 phpBB Group