\m/ 80's metal \m/

Информационно-аналитический форум "80 см пыли" (In Search We Trust) "У нас никто никуда не спешит"
Me For You - http://me-4u.com
It is currently 18 Apr 2019

All times are UTC + 3 hours

Spoiler
Chat - temporary registration for foreign users (please leave your application here)





Forum rules


Уважаемые пользователи ресурса, друзья, коллеги и гости нашего форума. Данный раздел конференции создан с целью рафинации, и посвящён такому стилевому направлению в музыке, как Thrash Metal во всех его проявлениях и ипостасях, а иногда и переходящему на пограничные стили Speed, Power, Groove, Crossover, MDM и т.п.
Главное правило здесь одно: Одна группа – одна тема! Всё остальное созвучно основным нормам поведения на конференции.
Шаблон оформления тем в этом подфоруме должен быть основан на данных сайта www.metal-archives.com и выглядеть следующим образом:

Группа (Страна) - Стилевые рамки - дискография
Slayer (USA) - Thrash Metal - дискография


В теме допустимо размещение всей информации касающейся данного коллектива: анонсы любых альбомов в любых форматах, запросы любых релизов коллектива (кроме релизов текущего и прошлого годов), обсуждения, обзоры, а в остальном всё как обычно. Уважаем друг друга, не грубим, соблюдаем нормы поведения на конференции, оформляем анонсы и запросы красиво и информативно, что бы модераторы не посчитали их троллингом, и не отправили куда положено, выписав Вам предупреждение или ещё что похуже… Прежде чем что-то запросить или запостить, пользуемся поиском! Пользуемся поиском! ПОЛЬЗУЕМСЯ ПОИСКОМ!!! Так слышно меня?.. :pardon:
Интересного, конструктивного и креативного общения! ;)

Image



Post new topic Reply to topic  [ 8 posts ] 
Author Message
 
PostPosted: 12 Sep 2017 
Генеральный thrasher
User avatar
Joined: 03 Oct 2008
Posts: 3695
Lоcаtion: Ханты-Мансийский АО
Age: 44
Name: Сергей
Суровый австралийский трэшак.В ближайшее время должен выйти первый полнометражник Canticles of Corruption.

Image

Year:2013
Style:Thrash Metal
Country:Australia
Archive:Flac+Cue+Log+Scans
Source:my CD
Size:124Mb
Label:Self-Release

Tracklist:
01. Intro (Teufelstanz) 01:08
02. Sermon Of Hate 01:35
03. God Save The Antichrist 04:15
04. Sadistic Madness 05:09
05. Termination 04:21

"Log"
Exact Audio Copy V1.1 from 23. June 2015

Отчёт EAC об извлечении, выполненном 11. сентября 2017, 16:35

Maniaxe / Sacrificial

Дисковод: HL-DT-STDVDRAM GTA0N Adapter: 1 ID: 0

Режим чтения : Достоверность
Использование точного потока : Да
Отключение кэша аудио : Да
Использование указателей C2 : Нет

Коррекция смещения при чтении : 102
Способность читать области Lead-in и Lead-out : Нет
Заполнение пропущенных сэмплов тишиной : Да
Удаление блоков с тишиной в начале и конце : Нет
При вычислениях CRC использовались нулевые сэмплы : Да
Интерфейс : Встроенный Win32-интерфейс для Win NT/2000

Выходной формат : Пользовательский кодировщик
Выбранный битрейт : 768 kBit/s
Качество : Высокий
Добавление ID3-тега : Нет
Утилита сжатия : C:\Program Files (x86)\Exact Audio Copy\FLAC\FLAC.EXE
Дополнительные параметры : -V -8 -T "Date=%year%" -T "Genre=%genre%" %source%


TOC извлечённого CD

Трек | Старт | Длительность | Начальный сектор | Конечный сектор
---------------------------------------------------------------------
1 | 0:00.00 | 1:08.29 | 0 | 5128
2 | 1:08.29 | 1:35.12 | 5129 | 12265
3 | 2:43.41 | 4:15.21 | 12266 | 31411
4 | 6:58.62 | 5:08.41 | 31412 | 54552
5 | 12:07.28 | 4:20.57 | 54553 | 74109


Характеристики диапазона извлечения и сообщения об ошибках

Выбранный диапазон

Имя файла C:\Users\магазин\Music\Maniaxe - Sacrificial.wav

Пиковый уровень 100.0 %
Скорость извлечения 3.1 X
Качество диапазона 100.0 %
CRC теста B0099F58
CRC копии B0099F58
Копирование... OK

Ошибок не произошло


AccurateRip: сводка

Трек 1 отсутствует в базе данных
Трек 2 отсутствует в базе данных
Трек 3 отсутствует в базе данных
Трек 4 отсутствует в базе данных
Трек 5 отсутствует в базе данных

Ни одного трека нет в базе AccurateRip

Конец отчёта

---- CUETools DB Plugin V2.1.6

[CTDB TOCID: 2oMPt1e1_F76NJrUomm0UCMkdV8-] found
Submit result: 2oMPt1e1_F76NJrUomm0UCMkdV8- has been confirmed
Track | CTDB Status
1 | (2/2) Accurately ripped
2 | (2/2) Accurately ripped
3 | (2/2) Accurately ripped
4 | (2/2) Accurately ripped
5 | (2/2) Accurately ripped


Sacrificial (EP)


Top
 Profile  
 
 
PostPosted: 12 Sep 2017 
консэрваторъ
Joined: 11 Aug 2007
Posts: 16806
Lоcаtion: Псков
Age: 45
Name: Сергей
:thanx: :thanx: :true:
:arrov: https://www.metal-archives.com/bands/Maniaxe/3540295791

Image
А демку 9-ого бы ещё?.. :oops: и 14-ого... :oops: :oops:

_________________
THRASH 'EM ALL


Top
 Profile E-mail  
 
 
PostPosted: 12 Sep 2017 
Прокъмитолист
User avatar
Joined: 12 Aug 2007
Posts: 6545
Lоcаtion: Санктъ-Петербуркъ
Age: 51
Name: Олекъ
:thanx:

_________________
прокъметол - это музыко, от которово есть прок (ы)


Top
 Profile  
 
 
PostPosted: 12 Sep 2017 
Хиппей (support team)
User avatar
Joined: 30 Jul 2007
Posts: 111647
Lоcаtion: Киев (Kyiv, UA)
Age: 45
Name: Andrey
thorbeorn wrote:
Sacrificial (EP)

:thanx:

_________________


Top
 Profile E-mail  
 
 
PostPosted: 02 Oct 2017 
консэрваторъ
Joined: 11 Aug 2007
Posts: 16806
Lоcаtion: Псков
Age: 45
Name: Сергей
Maniaxe по поводу демок wrote:
Haha yeah. Been meaning to chuck it up on YouTube along with the other Ep. We'll do it soon!

Предполагаю, что понавылаживают на YT страничке басиста Габриэля Моркома... :arrov: https://www.youtube.com/channel/UCMhR95 ... rWv_0nACsA

Демо записи новых песен с грядущего альбома "Canticles of Corruption"...

Maniaxe - Apocalyptic Vision (Live Demo) | +

Maniaxe - Heavy Metal Onslaught (Live Demo) | +

_________________
THRASH 'EM ALL


Top
 Profile E-mail  
 
 
PostPosted: 02 Oct 2017 
консэрваторъ
Joined: 11 Aug 2007
Posts: 16806
Lоcаtion: Псков
Age: 45
Name: Сергей
А ещё у группы в декабре прошлого года записано 4 кавера... :vic:

Maniaxe - Bombs of Death (Hirax cover) | +

Maniaxe - Breaking the Law (Judas Priest cover) | +

Maniaxe - Iron Fist (Motörhead cover) | +

Maniaxe - Don't Burn the Witch (Venom cover) | +


Выдернул на всякий случай YT-rip 192...

_________________
THRASH 'EM ALL


Top
 Profile E-mail  
 
 
PostPosted: 05 Oct 2017 
Хиппей (support team)
User avatar
Joined: 30 Jul 2007
Posts: 111647
Lоcаtion: Киев (Kyiv, UA)
Age: 45
Name: Andrey
splatty wrote:
Maniaxe - Breaking the Law (Judas Priest cover)

:thanx:

_________________


Top
 Profile E-mail  
 
 
PostPosted: 14 Jul 2018 
консэрваторъ
Joined: 11 Aug 2007
Posts: 16806
Lоcаtion: Псков
Age: 45
Name: Сергей
thorbeorn wrote:
В ближайшее время должен выйти первый полнометражник Canticles of Corruption

https://www.deezer.com/ru/album/67432672 :true: :true:

_________________
THRASH 'EM ALL


Top
 Profile E-mail  
 
Display posts from previous:  Sort by  
Post new topic Reply to topic  [ 8 posts ] 

All times are UTC + 3 hours


Who is online

Users browsing this forum: No registered users and 2 guests


You cannot post new topics in this forum
You cannot reply to topics in this forum
You cannot edit your posts in this forum
You cannot delete your posts in this forum
You cannot post attachments in this forum

Search for:
Яндекс.Метрика
Powered by phpBB © 2000, 2002, 2005, 2007 phpBB Group