\m/ 80's metal \m/

Информационно-аналитический форум "80 см пыли" (In Search We Trust) "У нас никто никуда не спешит"
Me For You - http://me-4u.com
It is currently 18 Jun 2019

All times are UTC + 3 hours

Spoiler
Chat - temporary registration for foreign users (please leave your application here)





Forum rules


Уважаемые пользователи ресурса, друзья, коллеги и гости нашего форума. Данный раздел конференции создан с целью рафинации, и посвящён такому стилевому направлению в музыке, как Thrash Metal во всех его проявлениях и ипостасях, а иногда и переходящему на пограничные стили Speed, Power, Groove, Crossover, MDM и т.п.
Главное правило здесь одно: Одна группа – одна тема! Всё остальное созвучно основным нормам поведения на конференции.
Шаблон оформления тем в этом подфоруме должен быть основан на данных сайта www.metal-archives.com и выглядеть следующим образом:

Группа (Страна) - Стилевые рамки - дискография
Slayer (USA) - Thrash Metal - дискография


В теме допустимо размещение всей информации касающейся данного коллектива: анонсы любых альбомов в любых форматах, запросы любых релизов коллектива (кроме релизов текущего и прошлого годов), обсуждения, обзоры, а в остальном всё как обычно. Уважаем друг друга, не грубим, соблюдаем нормы поведения на конференции, оформляем анонсы и запросы красиво и информативно, что бы модераторы не посчитали их троллингом, и не отправили куда положено, выписав Вам предупреждение или ещё что похуже… Прежде чем что-то запросить или запостить, пользуемся поиском! Пользуемся поиском! ПОЛЬЗУЕМСЯ ПОИСКОМ!!! Так слышно меня?.. :pardon:
Интересного, конструктивного и креативного общения! ;)

Image



Post new topic Reply to topic  [ 42 posts ]  Go to page Previous  1, 2, 3  Next
Author Message
 
PostPosted: 04 Oct 2017 
Хиппей (support team)
User avatar
Joined: 30 Jul 2007
Posts: 113079
Lоcаtion: Киев (Kyiv, UA)
Age: 46
Name: Andrey
U.F.T.M. раздаю на трэкере...

:thanx:

_________________


Top
 Profile E-mail  
 
 
PostPosted: 20 Oct 2017 
Хиппей (support team)
User avatar
Joined: 30 Jul 2007
Posts: 113079
Lоcаtion: Киев (Kyiv, UA)
Age: 46
Name: Andrey
Strike Master - 2017 - U.F.T.M. [flac]

Image Image Image

mirror: Depos l Narod l M-Cloud l

Прикольное минималистическое андеграундное спид-трэшевое долбилово. Но меня не зацепило как-то :vic:

5/10

Image Image Image Image

Image Image Image Image

log
Exact Audio Copy V1.1 from 23. June 2015

Отчёт EAC об извлечении, выполненном 3. июля 2017, 11:28

Strike Master / U.F.T.M.

Дисковод: HL-DT-STDVDRAM GTA0N Adapter: 1 ID: 0

Режим чтения : Достоверность
Использование точного потока : Да
Отключение кэша аудио : Да
Использование указателей C2 : Нет

Коррекция смещения при чтении : 102
Способность читать области Lead-in и Lead-out : Нет
Заполнение пропущенных сэмплов тишиной : Да
Удаление блоков с тишиной в начале и конце : Нет
При вычислениях CRC использовались нулевые сэмплы : Да
Интерфейс : Встроенный Win32-интерфейс для Win NT/2000

Выходной формат : Пользовательский кодировщик
Выбранный битрейт : 768 kBit/s
Качество : Высокий
Добавление ID3-тега : Нет
Утилита сжатия : C:\Program Files (x86)\Exact Audio Copy\FLAC\FLAC.EXE
Дополнительные параметры : -V -8 -T "Date=%year%" -T "Genre=%genre%" %source%


TOC извлечённого CD

Трек | Старт | Длительность | Начальный сектор | Конечный сектор
---------------------------------------------------------------------
1 | 0:00.00 | 3:12.37 | 0 | 14436
2 | 3:12.37 | 6:17.37 | 14437 | 42748
3 | 9:29.74 | 5:49.38 | 42749 | 68961
4 | 15:19.37 | 3:14.48 | 68962 | 83559
5 | 18:34.10 | 5:15.73 | 83560 | 107257
6 | 23:50.08 | 4:14.40 | 107258 | 126347
7 | 28:04.48 | 5:04.37 | 126348 | 149184
8 | 33:09.10 | 3:24.09 | 149185 | 164493
9 | 36:33.19 | 2:51.50 | 164494 | 177368
10 | 39:24.69 | 0:54.64 | 177369 | 181482


Характеристики диапазона извлечения и сообщения об ошибках

Выбранный диапазон

Имя файла C:\Users\магазин\Music\Strike Master - U.F.T.M..wav

Пиковый уровень 100.0 %
Скорость извлечения 3.7 X
Качество диапазона 100.0 %
CRC теста 04D9E48D
CRC копии 04D9E48D
Копирование... OK

Ошибок не произошло


AccurateRip: сводка

Трек 1 отсутствует в базе данных
Трек 2 отсутствует в базе данных
Трек 3 отсутствует в базе данных
Трек 4 отсутствует в базе данных
Трек 5 отсутствует в базе данных
Трек 6 отсутствует в базе данных
Трек 7 отсутствует в базе данных
Трек 8 отсутствует в базе данных
Трек 9 отсутствует в базе данных
Трек 10 отсутствует в базе данных

Ни одного трека нет в базе AccurateRip

Конец отчёта

---- CUETools DB Plugin V2.1.6

[CTDB TOCID: 1GAPypfEezzO7yLU.w9ID6h_7uk-] disk not present in database
Submit result: 1GAPypfEezzO7yLU.w9ID6h_7uk- has been uploaded

cue
REM GENRE "Thrash Metal"
REM DATE 2017
REM DISCID 8709730A
REM COMMENT "ExactAudioCopy v1.1"
PERFORMER "Strike Master"
TITLE "U.F.T.M."
FILE "Strike Master - U.F.T.M..flac" WAVE
TRACK 01 AUDIO
TITLE "Maximum Amount Of Aggressions"
PERFORMER "Strike Master"
INDEX 01 00:00:00
TRACK 02 AUDIO
TITLE "Thrashing the Blind School"
PERFORMER "Strike Master"
INDEX 00 03:12:00
INDEX 01 03:12:37
TRACK 03 AUDIO
TITLE "Ritual Killings"
PERFORMER "Strike Master"
INDEX 00 09:29:37
INDEX 01 09:29:74
TRACK 04 AUDIO
TITLE "Street Criminals"
PERFORMER "Strike Master"
INDEX 00 15:19:00
INDEX 01 15:19:37
TRACK 05 AUDIO
TITLE "Merciless Machine"
PERFORMER "Strike Master"
INDEX 00 18:33:48
INDEX 01 18:34:10
TRACK 06 AUDIO
TITLE "A Drop Of Hell"
PERFORMER "Strike Master"
INDEX 00 23:49:46
INDEX 01 23:50:08
TRACK 07 AUDIO
TITLE "Suicidal License"
PERFORMER "Strike Master"
INDEX 00 28:04:11
INDEX 01 28:04:48
TRACK 08 AUDIO
TITLE "Rushed Death"
PERFORMER "Strike Master"
INDEX 00 33:08:48
INDEX 01 33:09:10
TRACK 09 AUDIO
TITLE "U.F.T.M."
PERFORMER "Strike Master"
INDEX 00 36:32:57
INDEX 01 36:33:19
TRACK 10 AUDIO
TITLE "Redemption"
PERFORMER "Strike Master"
INDEX 00 39:24:32
INDEX 01 39:24:69

_________________


Top
 Profile E-mail  
 
 
PostPosted: 10 Nov 2017 
консэрваторъ
User avatar
Joined: 11 Aug 2007
Posts: 16972
Lоcаtion: Псков
Age: 45
Name: Сергей
https://www.metal-archives.com/albums/S ... ter/675662

Косячёк в энциклопедии очередной 7. Anti Aereal Witchunt Battery правильно 7. Anti Aerial Witchunt Battery

Image

Новый альбом группы с клиппингом "0", удивительно... :vic: 320 в сети...

_________________
THRASH 'EM ALL


Top
 Profile E-mail  
 
 
PostPosted: 10 Nov 2017 
консэрваторъ
User avatar
Joined: 11 Aug 2007
Posts: 16972
Lоcаtion: Псков
Age: 45
Name: Сергей
Похоже парни решили написать свою Эндораму... :scratch: 2-ой трек шедевр!.. :true: Завтра бум внимательно изучать...

_________________
THRASH 'EM ALL


Top
 Profile E-mail  
 
 
PostPosted: 10 Nov 2017 
Генеральный thrasher
User avatar
Joined: 03 Oct 2008
Posts: 3710
Lоcаtion: Ханты-Мансийский АО
Age: 44
Name: Сергей
:lloo: нового альбома образом со сканами


Top
 Profile  
 
 
PostPosted: 10 Nov 2017 
А может смените мне статус?..
User avatar
Joined: 24 Dec 2008
Posts: 643
Age: 45
Name: Дмитрий
Спасибо! :thanx:


Top
 Profile  
 
 
PostPosted: 10 Nov 2017 
Хиппей (support team)
User avatar
Joined: 30 Jul 2007
Posts: 113079
Lоcаtion: Киев (Kyiv, UA)
Age: 46
Name: Andrey
splatty wrote:
Косячёк в энциклопедии очередной 7. Anti Aereal Witchunt Battery правильно 7. Anti Aerial Witchunt Battery

:thanx: Подправлено

_________________


Top
 Profile E-mail  
 
 
PostPosted: 10 Nov 2017 
Хиппей (support team)
User avatar
Joined: 30 Jul 2007
Posts: 113079
Lоcаtion: Киев (Kyiv, UA)
Age: 46
Name: Andrey

:thanx:

_________________


Top
 Profile E-mail  
 
 
PostPosted: 10 Nov 2017 
Доктор энтомологии
User avatar
Joined: 22 Jan 2009
Posts: 9768
Lоcаtion: Даугавпилс
Age: 44
Name: Алексей
Quote:
андеграундное спид-трэшевое долбилово

Тип того. Злой "бразильский"... Креатор :dash: без таланту только, но с удалью молодецкой :band: В меру интересный и разнообразный альбомец, с мутными, но и с многими хорошими моментами. Песенка Chant of Falcons - жуть просто :fingal: иль это каверочек на какой-то футбольный гимн? Отлично в целом, в топ его, лучших трэшевиков за 2017 по группам из Мексики (сразу после Ancesthor-a и Venemous).


Top
 Profile  
 
 
PostPosted: 10 Nov 2017 
Генеральный thrasher
User avatar
Joined: 03 Oct 2008
Posts: 3710
Lоcаtion: Ханты-Мансийский АО
Age: 44
Name: Сергей
Злой "бразильский"... Креатор :dash: без таланту только, но с удалью молодецкой


Ваапче не согласен!


Top
 Profile  
 
 
PostPosted: 10 Nov 2017 
Хиппей (support team)
User avatar
Joined: 30 Jul 2007
Posts: 113079
Lоcаtion: Киев (Kyiv, UA)
Age: 46
Name: Andrey
thorbeorn wrote:
Ваапче не согласен!

А то, что Лёша его в топы года забрал, не дочитал?

_________________


Top
 Profile E-mail  
 
 
PostPosted: 10 Nov 2017 
Генеральный thrasher
User avatar
Joined: 03 Oct 2008
Posts: 3710
Lоcаtion: Ханты-Мансийский АО
Age: 44
Name: Сергей
Дочитал...Лёха какой-то странный...


Top
 Profile  
 
 
PostPosted: 10 Nov 2017 
Доктор энтомологии
User avatar
Joined: 22 Jan 2009
Posts: 9768
Lоcаtion: Даугавпилс
Age: 44
Name: Алексей
Не творю кумира :lob:


Top
 Profile  
 
 
PostPosted: 10 Nov 2017 
Прокъмитолист
User avatar
Joined: 12 Aug 2007
Posts: 6557
Lоcаtion: Санктъ-Петербуркъ
Age: 51
Name: Олекъ
спасибо за новый, Серёг! :thanx:

_________________
прокъметол - это музыко, от которово есть прок (ы)


Top
 Profile  
 
 
PostPosted: 10 Nov 2017 
Я набрал 1000 сообщений!
Joined: 09 Jul 2008
Posts: 2825
Age: 45
Name: Сергей
новый альбом странный
соглашусь скорее с Алексеем
особенно не порадовало то, что практически каждую песню им зачем-то потребовалось испортить какой-нить ложкой дёгтя (
splatty wrote:
2-ой трек шедевр!.. :true:

следующая лучше ж


Top
 Profile  
 
 
PostPosted: 10 Nov 2017 
консэрваторъ
User avatar
Joined: 11 Aug 2007
Posts: 16972
Lоcаtion: Псков
Age: 45
Name: Сергей
Я до следующей не успел дослушать... в паре мест ещё тырнул, попал на какое-то нелепое подплимплимкивание соло гитары на основном ритме, подумал, что за хрень?!. и свалил трудиться... А, и ещё, сразу что сделал добавил полтора децибельчика в уровень, шоб поживей слушалось... :pardon: :oops: Я так понимаю парни заложили в пластинку некую пока непонятную мне мексиканскую мысль... :scratch:

_________________
THRASH 'EM ALL


Top
 Profile E-mail  
 
 
PostPosted: 10 Nov 2017 
Я набрал 1000 сообщений!
Joined: 09 Jul 2008
Posts: 2825
Age: 45
Name: Сергей
а почему эндорама, кстати? вообще никаких аналогий не возникло
и да, переделанный первый альбом мне, думаю, нравится больше нового, счас переслушал


Top
 Profile  
 
 
PostPosted: 10 Nov 2017 
Доктор энтомологии
User avatar
Joined: 22 Jan 2009
Posts: 9768
Lоcаtion: Даугавпилс
Age: 44
Name: Алексей
Надо будет освежить в памяти творчество ребят, уже порядочная у них диско :pavlik:


Top
 Profile  
 
 
PostPosted: 10 Nov 2017 
консэрваторъ
User avatar
Joined: 11 Aug 2007
Posts: 16972
Lоcаtion: Псков
Age: 45
Name: Сергей
Потому что "вопреки"... складывается из нюансов... Завтра видимо подробно распишу всё...

_________________
THRASH 'EM ALL


Top
 Profile E-mail  
 
 
PostPosted: 11 Nov 2017 
консэрваторъ
User avatar
Joined: 11 Aug 2007
Posts: 16972
Lоcаtion: Псков
Age: 45
Name: Сергей
Не, ну вот что это такое, скажите мне пожалуйста!?. Это соединение треков 07 Anti Aerial Witchunt Battery - 08 Chant Of Falcons, работа мексиканских звукорежев... :dash:

Image

_________________
THRASH 'EM ALL


Top
 Profile E-mail  
 
Display posts from previous:  Sort by  
Post new topic Reply to topic  [ 42 posts ]  Go to page Previous  1, 2, 3  Next

All times are UTC + 3 hours


Who is online

Users browsing this forum: No registered users and 3 guests


You cannot post new topics in this forum
You cannot reply to topics in this forum
You cannot edit your posts in this forum
You cannot delete your posts in this forum
You cannot post attachments in this forum

Search for:
Яндекс.Метрика
cron
Powered by phpBB © 2000, 2002, 2005, 2007 phpBB Group