\m/ 80's metal \m/

Информационно-аналитический форум "80 см пыли" (In Search We Trust) "У нас никто никуда не спешит"
Me For You - http://me-4u.com
It is currently 18 Jun 2019

All times are UTC + 3 hours

Spoiler
Chat - temporary registration for foreign users (please leave your application here)





Forum rules


Уважаемые пользователи ресурса, друзья, коллеги и гости нашего форума. Данный раздел конференции создан с целью рафинации, и посвящён такому стилевому направлению в музыке, как Thrash Metal во всех его проявлениях и ипостасях, а иногда и переходящему на пограничные стили Speed, Power, Groove, Crossover, MDM и т.п.
Главное правило здесь одно: Одна группа – одна тема! Всё остальное созвучно основным нормам поведения на конференции.
Шаблон оформления тем в этом подфоруме должен быть основан на данных сайта www.metal-archives.com и выглядеть следующим образом:

Группа (Страна) - Стилевые рамки - дискография
Slayer (USA) - Thrash Metal - дискография


В теме допустимо размещение всей информации касающейся данного коллектива: анонсы любых альбомов в любых форматах, запросы любых релизов коллектива (кроме релизов текущего и прошлого годов), обсуждения, обзоры, а в остальном всё как обычно. Уважаем друг друга, не грубим, соблюдаем нормы поведения на конференции, оформляем анонсы и запросы красиво и информативно, что бы модераторы не посчитали их троллингом, и не отправили куда положено, выписав Вам предупреждение или ещё что похуже… Прежде чем что-то запросить или запостить, пользуемся поиском! Пользуемся поиском! ПОЛЬЗУЕМСЯ ПОИСКОМ!!! Так слышно меня?.. :pardon:
Интересного, конструктивного и креативного общения! ;)

Image



Post new topic Reply to topic  [ 40 posts ]  Go to page Previous  1, 2
Author Message
 
PostPosted: 22 Jun 2017 
Хиппей (support team)
User avatar
Joined: 30 Jul 2007
Posts: 113085
Lоcаtion: Киев (Kyiv, UA)
Age: 46
Name: Andrey

:thanx:

mirror: Turbo l M-Cloud l Drop

_________________


Top
 Profile E-mail  
 
 
PostPosted: 22 Jun 2017 
Хиппей (support team)
User avatar
Joined: 30 Jul 2007
Posts: 113085
Lоcаtion: Киев (Kyiv, UA)
Age: 46
Name: Andrey
splatty wrote:
Vendeta - Face Beneath the Mask 2013 [320]

Серёг, а можешь лить на более качественный Дроп?

https://drop.me

_________________


Top
 Profile E-mail  
 
 
PostPosted: 22 Jun 2017 
Хиппей (support team)
User avatar
Joined: 30 Jul 2007
Posts: 113085
Lоcаtion: Киев (Kyiv, UA)
Age: 46
Name: Andrey
Крайний - понравился. Под Kreator 87-89 всё вообще заточено у них

Крайний с какой стороны? :scratch:

_________________


Top
 Profile E-mail  
 
 
PostPosted: 22 Jun 2017 
Генеральный thrasher
User avatar
Joined: 03 Oct 2008
Posts: 3710
Lоcаtion: Ханты-Мансийский АО
Age: 44
Name: Сергей
Крайний - это второй,я так понимаю.Мне очень нравится.


Top
 Profile  
 
 
PostPosted: 22 Jun 2017 
Доктор энтомологии
User avatar
Joined: 22 Jan 2009
Posts: 9769
Lоcаtion: Даугавпилс
Age: 44
Name: Алексей
2016-й, был крайним, когда его качал :oops: Хороший альбом


Top
 Profile  
 
 
PostPosted: 22 Jun 2017 
Хиппей (support team)
User avatar
Joined: 30 Jul 2007
Posts: 113085
Lоcаtion: Киев (Kyiv, UA)
Age: 46
Name: Andrey
А мне он ваще никак. Ща снова включил - ну то же самое клонирование Креатора. Только побольше соляков появилось гитарных, запилов даже мелодичных и скоростей поубивилось :cry:
По ходу это как раз тупик группы.

_________________


Top
 Profile E-mail  
 
 
PostPosted: 22 Jun 2017 
Доктор энтомологии
User avatar
Joined: 22 Jan 2009
Posts: 9769
Lоcаtion: Даугавпилс
Age: 44
Name: Алексей
Послушаем скоро и 13-й. Креаторов старых никогда не много


Top
 Profile  
 
 
PostPosted: 19 Sep 2017 
Генеральный thrasher
User avatar
Joined: 03 Oct 2008
Posts: 3710
Lоcаtion: Ханты-Мансийский АО
Age: 44
Name: Сергей
Лося Failure Of Humankind запостил на трэкер.


Top
 Profile  
 
 
PostPosted: 19 Sep 2017 
Хиппей (support team)
User avatar
Joined: 30 Jul 2007
Posts: 113085
Lоcаtion: Киев (Kyiv, UA)
Age: 46
Name: Andrey
Пойду качну :thanx:

http://prntscr.com/gn29cp какие знакомые все :kro:

_________________


Top
 Profile E-mail  
 
 
PostPosted: 19 Sep 2017 
консэрваторъ
User avatar
Joined: 11 Aug 2007
Posts: 16979
Lоcаtion: Псков
Age: 45
Name: Сергей
О!.. Не забыть перетянуть тему в трасх, как приеду... :pavlik:

_________________
THRASH 'EM ALL


Top
 Profile E-mail  
 
 
PostPosted: 26 Sep 2017 
Хиппей (support team)
User avatar
Joined: 30 Jul 2007
Posts: 113085
Lоcаtion: Киев (Kyiv, UA)
Age: 46
Name: Andrey
Scatterbrain wrote:
Vendeta - 2016 - Failure Of Humankind

Группа сбавила скорости и попыталась начать играть что-то своё и более оригинальное.
Вышло хреново :pardon:

4/10

Случайно ещё раз переслушал альбом.
Мнение такое же :(

_________________


Top
 Profile E-mail  
 
 
PostPosted: 26 Sep 2017 
Я набрал 1000 сообщений!
Joined: 09 Jul 2008
Posts: 2834
Age: 45
Name: Сергей
держи нас в курсе


Top
 Profile  
 
 
PostPosted: 27 Sep 2017 
Хиппей (support team)
User avatar
Joined: 30 Jul 2007
Posts: 113085
Lоcаtion: Киев (Kyiv, UA)
Age: 46
Name: Andrey
Курс пока не меняем :kro:

_________________


Top
 Profile E-mail  
 
 
PostPosted: 19 Oct 2017 
Хиппей (support team)
User avatar
Joined: 30 Jul 2007
Posts: 113085
Lоcаtion: Киев (Kyiv, UA)
Age: 46
Name: Andrey
Лося Failure Of Humankind запостил на трэкер.

:thanx:

Vendeta - 2016 - Failure Of Humankind [flac]

Image Image

mirror: Depos l Narod l M-Cloud l Drop

Image Image Image

Image Image Image

log
Exact Audio Copy V1.1 from 23. June 2015

Отчёт EAC об извлечении, выполненном 29. мая 2017, 22:20

Vendeta / Failure Of Humankind

Дисковод: HL-DT-STDVDRAM GTA0N Adapter: 1 ID: 0

Режим чтения : Достоверность
Использование точного потока : Да
Отключение кэша аудио : Да
Использование указателей C2 : Нет

Коррекция смещения при чтении : 102
Способность читать области Lead-in и Lead-out : Нет
Заполнение пропущенных сэмплов тишиной : Да
Удаление блоков с тишиной в начале и конце : Нет
При вычислениях CRC использовались нулевые сэмплы : Да
Интерфейс : Встроенный Win32-интерфейс для Win NT/2000

Выходной формат : Пользовательский кодировщик
Выбранный битрейт : 768 kBit/s
Качество : Высокий
Добавление ID3-тега : Нет
Утилита сжатия : C:\Program Files (x86)\Exact Audio Copy\FLAC\FLAC.EXE
Дополнительные параметры : -V -8 -T "Date=%year%" -T "Genre=%genre%" %source%


TOC извлечённого CD

Трек | Старт | Длительность | Начальный сектор | Конечный сектор
---------------------------------------------------------------------
1 | 0:00.00 | 5:02.50 | 0 | 22699
2 | 5:02.50 | 4:56.09 | 22700 | 44908
3 | 9:58.59 | 5:05.31 | 44909 | 67814
4 | 15:04.15 | 5:22.05 | 67815 | 91969
5 | 20:26.20 | 4:37.20 | 91970 | 112764
6 | 25:03.40 | 4:46.50 | 112765 | 134264
7 | 29:50.15 | 5:16.09 | 134265 | 157973


Характеристики диапазона извлечения и сообщения об ошибках

Выбранный диапазон

Имя файла C:\Users\магазин\Music\Vendeta - Failure Of Humankind.wav

Пиковый уровень 100.0 %
Скорость извлечения 1.9 X
Качество диапазона 100.0 %
CRC теста 453BF5B6
CRC копии 453BF5B6
Копирование... OK

Ошибок не произошло


AccurateRip: сводка

Трек 1 отсутствует в базе данных
Трек 2 отсутствует в базе данных
Трек 3 отсутствует в базе данных
Трек 4 отсутствует в базе данных
Трек 5 отсутствует в базе данных
Трек 6 отсутствует в базе данных
Трек 7 отсутствует в базе данных

Ни одного трека нет в базе AccurateRip

Конец отчёта

---- CUETools DB Plugin V2.1.6

[CTDB TOCID: PTwTwykuqK0hQzmAenhcz46zSOw-] disk not present in database
Submit result: PTwTwykuqK0hQzmAenhcz46zSOw- has been uploaded

cue
REM GENRE "Thrash Metal"
REM DATE 2016
REM DISCID 49083A07
REM COMMENT "ExactAudioCopy v1.1"
PERFORMER "Vendeta"
TITLE "Failure Of Humankind"
FILE "Vendeta - Failure Of Humankind.flac" WAVE
TRACK 01 AUDIO
TITLE "Contagion"
PERFORMER "Vendeta"
INDEX 01 00:00:00
TRACK 02 AUDIO
TITLE "Bloodthirsty Beasts"
PERFORMER "Vendeta"
INDEX 01 05:02:50
TRACK 03 AUDIO
TITLE "Suicide Of Murderer"
PERFORMER "Vendeta"
INDEX 01 09:58:59
TRACK 04 AUDIO
TITLE "Madness Of Sleep"
PERFORMER "Vendeta"
INDEX 01 15:04:15
TRACK 05 AUDIO
TITLE "Children's Predators"
PERFORMER "Vendeta"
INDEX 01 20:26:20
TRACK 06 AUDIO
TITLE "Painful Decision"
PERFORMER "Vendeta"
INDEX 01 25:03:40
TRACK 07 AUDIO
TITLE "The Failure Of Humankind"
PERFORMER "Vendeta"
INDEX 01 29:50:15

_________________


Top
 Profile E-mail  
 
 
PostPosted: 19 Oct 2017 
консэрваторъ
User avatar
Joined: 11 Aug 2007
Posts: 16979
Lоcаtion: Псков
Age: 45
Name: Сергей
splatty wrote:
О!.. Не забыть перетянуть тему в трасх, как приеду...

А ведь забыл... вечерком...

_________________
THRASH 'EM ALL


Top
 Profile E-mail  
 
 
PostPosted: 19 Oct 2017 
Хиппей (support team)
User avatar
Joined: 30 Jul 2007
Posts: 113085
Lоcаtion: Киев (Kyiv, UA)
Age: 46
Name: Andrey
Я как раз хотел напомнить :tro: Ровно месяц прошёл.

_________________


Top
 Profile E-mail  
 
 
PostPosted: 19 Oct 2017 
консэрваторъ
User avatar
Joined: 11 Aug 2007
Posts: 16979
Lоcаtion: Псков
Age: 45
Name: Сергей
Андрей, спасибо за перезалив лосяша, тема перетянут, врубил 16-ый, вновь хэдбэндю!.. :lob: 4/10 - мало, Андрей, мало... :oops:

_________________
THRASH 'EM ALL


Top
 Profile E-mail  
 
 
PostPosted: 19 Oct 2017 
Хиппей (support team)
User avatar
Joined: 30 Jul 2007
Posts: 113085
Lоcаtion: Киев (Kyiv, UA)
Age: 46
Name: Andrey
splatty wrote:
4/10 - мало, Андрей, мало...

Серёг, реально не за что вообще там оценки тыкать. Клон же :(

_________________


Top
 Profile E-mail  
 
 
PostPosted: 19 Oct 2017 
Я набрал 1000 сообщений!
Joined: 09 Jul 2008
Posts: 2834
Age: 45
Name: Сергей
клоуны для того и служат, чтоб радость людям приносить
/как по мне так лучше хороший клон чем ни на что не похожее нипойми что/


Top
 Profile  
 
 
PostPosted: 19 Oct 2017 
Хиппей (support team)
User avatar
Joined: 30 Jul 2007
Posts: 113085
Lоcаtion: Киев (Kyiv, UA)
Age: 46
Name: Andrey
Ну мне эти как-то показались наоборот, унылыми :(

_________________


Top
 Profile E-mail  
 
Display posts from previous:  Sort by  
Post new topic Reply to topic  [ 40 posts ]  Go to page Previous  1, 2

All times are UTC + 3 hours


Who is online

Users browsing this forum: No registered users and 2 guests


You cannot post new topics in this forum
You cannot reply to topics in this forum
You cannot edit your posts in this forum
You cannot delete your posts in this forum
You cannot post attachments in this forum

Search for:
Яндекс.Метрика
Powered by phpBB © 2000, 2002, 2005, 2007 phpBB Group