\m/ 80's metal \m/

Информационно-аналитический форум "80 см пыли" (In Search We Trust) "У нас никто никуда не спешит"
Me For You - http://me-4u.com
It is currently 25 Apr 2019

All times are UTC + 3 hours

Spoiler
Chat - temporary registration for foreign users (please leave your application here)





Forum rules


Уважаемые пользователи ресурса, друзья, коллеги и гости нашего форума. Данный раздел конференции создан с целью рафинации, и посвящён такому стилевому направлению в музыке, как Thrash Metal во всех его проявлениях и ипостасях, а иногда и переходящему на пограничные стили Speed, Power, Groove, Crossover, MDM и т.п.
Главное правило здесь одно: Одна группа – одна тема! Всё остальное созвучно основным нормам поведения на конференции.
Шаблон оформления тем в этом подфоруме должен быть основан на данных сайта www.metal-archives.com и выглядеть следующим образом:

Группа (Страна) - Стилевые рамки - дискография
Slayer (USA) - Thrash Metal - дискография


В теме допустимо размещение всей информации касающейся данного коллектива: анонсы любых альбомов в любых форматах, запросы любых релизов коллектива (кроме релизов текущего и прошлого годов), обсуждения, обзоры, а в остальном всё как обычно. Уважаем друг друга, не грубим, соблюдаем нормы поведения на конференции, оформляем анонсы и запросы красиво и информативно, что бы модераторы не посчитали их троллингом, и не отправили куда положено, выписав Вам предупреждение или ещё что похуже… Прежде чем что-то запросить или запостить, пользуемся поиском! Пользуемся поиском! ПОЛЬЗУЕМСЯ ПОИСКОМ!!! Так слышно меня?.. :pardon:
Интересного, конструктивного и креативного общения! ;)

Image



Post new topic Reply to topic  [ 12 posts ] 
Author Message
 
PostPosted: 25 May 2017 
Генеральный thrasher
User avatar
Joined: 03 Oct 2008
Posts: 3696
Lоcаtion: Ханты-Мансийский АО
Age: 44
Name: Сергей
Единственный альбом ирландской банды.Может кто-нибудь заинтересуется...

Image

Year:1990 (2013 Re-Issue)
Style:Thrash Metal
Country:Ireland
Archive:Flac+Cue+Log+Scans
Source:my CD
Size:418Mb
Label:Slaney Records

Tracklist:
An Act Of Violence LP (1990)
01. An Act Of Violence 05:53
02. Streetwise 03:37
03. Hate War 03:23
04. Premeditated Murder 04:57
05. No Mercy 02:08
06. The End 04:28
07. Persecution 04:15
08. A Change In Two Directions 05:59
09. When The World Dies 04:39
Immoral Condition Demo (1988)
10. Intro 01:03
11. When The World Dies 04:59
12. Hate War 03:47
13. Killin' For Kicks 03:42
14. Slaughter Of Innocence 03:15

"Cue"
REM GENRE "Thrash Metal"
REM DATE 2013
REM DISCID B30D250E
REM COMMENT "ExactAudioCopy v1.1"
PERFORMER "Moral Crusade"
TITLE "An Act Of Violence"
FILE "Moral Crusade - An Act Of Violence.flac" WAVE
TRACK 01 AUDIO
TITLE "An Act Of Violence"
PERFORMER "Moral Crusade"
INDEX 01 00:00:00
TRACK 02 AUDIO
TITLE "Streetwise"
PERFORMER "Moral Crusade"
INDEX 01 05:53:32
TRACK 03 AUDIO
TITLE "Hate War"
PERFORMER "Moral Crusade"
INDEX 01 09:30:56
TRACK 04 AUDIO
TITLE "Premeditated Murder"
PERFORMER "Moral Crusade"
INDEX 01 12:53:65
TRACK 05 AUDIO
TITLE "No Mercy"
PERFORMER "Moral Crusade"
INDEX 01 17:50:74
TRACK 06 AUDIO
TITLE "The End"
PERFORMER "Moral Crusade"
INDEX 00 19:59:20
INDEX 01 19:59:21
TRACK 07 AUDIO
TITLE "Persecution"
PERFORMER "Moral Crusade"
INDEX 01 24:27:43
TRACK 08 AUDIO
TITLE "A Change In Two Directions"
PERFORMER "Moral Crusade"
INDEX 01 28:42:74
TRACK 09 AUDIO
TITLE "When The World Dies"
PERFORMER "Moral Crusade"
INDEX 01 34:41:40
TRACK 10 AUDIO
TITLE "Intro"
PERFORMER "Moral Crusade"
INDEX 01 39:20:09
TRACK 11 AUDIO
TITLE "When The World Dies"
PERFORMER "Moral Crusade"
INDEX 01 40:23:01
TRACK 12 AUDIO
TITLE "Hate War"
PERFORMER "Moral Crusade"
INDEX 01 45:22:00
TRACK 13 AUDIO
TITLE "Killin' For Kicks"
PERFORMER "Moral Crusade"
INDEX 01 49:08:64
TRACK 14 AUDIO
TITLE "Slaughter Of Innocence"
PERFORMER "Moral Crusade"
INDEX 01 52:50:43

"Log"
Exact Audio Copy V1.1 from 23. June 2015

Отчёт EAC об извлечении, выполненном 22. мая 2017, 16:15

Moral Crusade / An Act Of Violence

Дисковод: HL-DT-STDVDRAM GTA0N Adapter: 1 ID: 0

Режим чтения : Достоверность
Использование точного потока : Да
Отключение кэша аудио : Да
Использование указателей C2 : Нет

Коррекция смещения при чтении : 102
Способность читать области Lead-in и Lead-out : Нет
Заполнение пропущенных сэмплов тишиной : Да
Удаление блоков с тишиной в начале и конце : Нет
При вычислениях CRC использовались нулевые сэмплы : Да
Интерфейс : Встроенный Win32-интерфейс для Win NT/2000

Выходной формат : Пользовательский кодировщик
Выбранный битрейт : 768 kBit/s
Качество : Высокий
Добавление ID3-тега : Нет
Утилита сжатия : C:\Program Files (x86)\Exact Audio Copy\FLAC\FLAC.EXE
Дополнительные параметры : -V -8 -T "Date=%year%" -T "Genre=%genre%" %source%


TOC извлечённого CD

Трек | Старт | Длительность | Начальный сектор | Конечный сектор
---------------------------------------------------------------------
1 | 0:00.00 | 5:53.32 | 0 | 26506
2 | 5:53.32 | 3:37.24 | 26507 | 42805
3 | 9:30.56 | 3:23.09 | 42806 | 58039
4 | 12:53.65 | 4:57.09 | 58040 | 80323
5 | 17:50.74 | 2:08.22 | 80324 | 89945
6 | 19:59.21 | 4:28.22 | 89946 | 110067
7 | 24:27.43 | 4:15.31 | 110068 | 129223
8 | 28:42.74 | 5:58.41 | 129224 | 156114
9 | 34:41.40 | 4:38.44 | 156115 | 177008
10 | 39:20.09 | 1:02.67 | 177009 | 181725
11 | 40:23.01 | 4:58.74 | 181726 | 204149
12 | 45:22.00 | 3:46.64 | 204150 | 221163
13 | 49:08.64 | 3:41.54 | 221164 | 237792
14 | 52:50.43 | 3:14.45 | 237793 | 252387


Характеристики диапазона извлечения и сообщения об ошибках

Выбранный диапазон

Имя файла C:\Users\магазин\Music\Moral Crusade - An Act Of Violence.wav

Пиковый уровень 100.0 %
Скорость извлечения 4.0 X
Качество диапазона 99.9 %
CRC теста 21D45051
CRC копии 21D45051
Копирование... OK

Ошибок не произошло


AccurateRip: сводка

Трек 1 отсутствует в базе данных
Трек 2 отсутствует в базе данных
Трек 3 отсутствует в базе данных
Трек 4 отсутствует в базе данных
Трек 5 отсутствует в базе данных
Трек 6 отсутствует в базе данных
Трек 7 отсутствует в базе данных
Трек 8 отсутствует в базе данных
Трек 9 отсутствует в базе данных
Трек 10 отсутствует в базе данных
Трек 11 отсутствует в базе данных
Трек 12 отсутствует в базе данных
Трек 13 отсутствует в базе данных
Трек 14 отсутствует в базе данных

Ни одного трека нет в базе AccurateRip

Конец отчёта

---- CUETools DB Plugin V2.1.6

[CTDB TOCID: z3CsymFY7y16RCKqPtDA2butKXM-] found
Submit result: z3CsymFY7y16RCKqPtDA2butKXM- has been confirmed
Track | CTDB Status
1 | (3/3) Accurately ripped
2 | (3/3) Accurately ripped
3 | (3/3) Accurately ripped
4 | (3/3) Accurately ripped
5 | (3/3) Accurately ripped
6 | (3/3) Accurately ripped
7 | (3/3) Accurately ripped
8 | (3/3) Accurately ripped
9 | (3/3) Accurately ripped
10 | (3/3) Accurately ripped
11 | (3/3) Accurately ripped
12 | (3/3) Accurately ripped
13 | (3/3) Accurately ripped
14 | (3/3) Accurately ripped


An Act Of Violence


Top
 Profile  
 
 
PostPosted: 25 May 2017 
Хиппей (support team)
User avatar
Joined: 30 Jul 2007
Posts: 111835
Lоcаtion: Киев (Kyiv, UA)
Age: 45
Name: Andrey
:thanx:

mirror: Depos l M-Cloud l Narod

_________________


Top
 Profile E-mail  
 
 
PostPosted: 25 May 2017 
Хиппей (support team)
User avatar
Joined: 30 Jul 2007
Posts: 111835
Lоcаtion: Киев (Kyiv, UA)
Age: 45
Name: Andrey
Снова прикольная, но серьёзная по саунду и лирике помесь.
На этот раз... Slayer + Celtic Frost :tro:

6/10

_________________


Top
 Profile E-mail  
 
 
PostPosted: 25 May 2017 
Хиппей (support team)
User avatar
Joined: 30 Jul 2007
Posts: 111835
Lоcаtion: Киев (Kyiv, UA)
Age: 45
Name: Andrey
Да, качество звука фуфло. Или с мп3 делали или с ленты (кассеты), высокие частоты свистят и плавают как на мп3 128 :fingal:

_________________


Top
 Profile E-mail  
 
 
PostPosted: 25 May 2017 
Генеральный thrasher
User avatar
Joined: 03 Oct 2008
Posts: 3696
Lоcаtion: Ханты-Мансийский АО
Age: 44
Name: Сергей
Трэки альбомные определяются как CDDA,а демка как mpeg.


Top
 Profile  
 
 
PostPosted: 25 May 2017 
Прокъмитолист
User avatar
Joined: 12 Aug 2007
Posts: 6545
Lоcаtion: Санктъ-Петербуркъ
Age: 51
Name: Олекъ
Серёг, спасибо! :thanx:

_________________
прокъметол - это музыко, от которово есть прок (ы)


Top
 Profile  
 
 
PostPosted: 25 May 2017 
консэрваторъ
User avatar
Joined: 11 Aug 2007
Posts: 16837
Lоcаtion: Псков
Age: 45
Name: Сергей
Scatterbrain wrote:
Slayer + Celtic Frost

Интересно, тож на заметку...

_________________
THRASH 'EM ALL


Top
 Profile E-mail  
 
 
PostPosted: 25 May 2017 
Хиппей (support team)
User avatar
Joined: 30 Jul 2007
Posts: 111835
Lоcаtion: Киев (Kyiv, UA)
Age: 45
Name: Andrey
thorbeorn wrote:
Трэки альбомные определяются как CDDA

Ну вот они именно и звучат свистяще-плоскою А демковые как и положено - слух не режут, кассетный артефакты я лично люблю не меньше винильных. И звук там уместный.

_________________


Top
 Profile E-mail  
 
 
PostPosted: 25 May 2017 
Хиппей (support team)
User avatar
Joined: 30 Jul 2007
Posts: 111835
Lоcаtion: Киев (Kyiv, UA)
Age: 45
Name: Andrey
Scatterbrain wrote:
Slayer + Celtic Frost

Интересно, тож на заметку...

Ну, не так всё прямолинейно там, но основа, фукдамент музыки этой группы явно ощущается вот в такой паре знатных коллективов.
На мой слух, естественно. Явно там кто-то расслышит и Содом, и Креатор, а кое-где и Коронер.

_________________


Top
 Profile E-mail  
 
 
PostPosted: 06 Jun 2017 
консэрваторъ
User avatar
Joined: 11 Aug 2007
Posts: 16837
Lоcаtion: Псков
Age: 45
Name: Сергей
Особых впечатлений не вызвали, скучноватый трасх... :vic: Андрей, тему так же можно переименовать в дискографию...

_________________
THRASH 'EM ALL


Top
 Profile E-mail  
 
 
PostPosted: 10 Jun 2017 
Хиппей (support team)
User avatar
Joined: 30 Jul 2007
Posts: 111835
Lоcаtion: Киев (Kyiv, UA)
Age: 45
Name: Andrey
splatty wrote:
переименовать в дискографию...

Сделато :thanx:

_________________


Top
 Profile E-mail  
 
 
PostPosted: 12 Jun 2017 
Работнечег
User avatar
Joined: 28 Aug 2007
Posts: 5819
Lоcаtion: г. Москва
Age: 30
Name: Дима
Спасибо, Серег Заберу в коллекцию! :thanx:


Top
 Profile E-mail  
 
Display posts from previous:  Sort by  
Post new topic Reply to topic  [ 12 posts ] 

All times are UTC + 3 hours


Who is online

Users browsing this forum: No registered users and 4 guests


You cannot post new topics in this forum
You cannot reply to topics in this forum
You cannot edit your posts in this forum
You cannot delete your posts in this forum
You cannot post attachments in this forum

Search for:
Яндекс.Метрика
Powered by phpBB © 2000, 2002, 2005, 2007 phpBB Group