\m/ 80's metal \m/

Информационно-аналитический форум "80 см пыли" (In Search We Trust) "У нас никто никуда не спешит"
Me For You - http://me-4u.com
It is currently 18 Jun 2019

All times are UTC + 3 hours

Spoiler
Chat - temporary registration for foreign users (please leave your application here)





Forum rules


Уважаемые пользователи ресурса, друзья, коллеги и гости нашего форума. Данный раздел конференции создан с целью рафинации, и посвящён такому стилевому направлению в музыке, как Thrash Metal во всех его проявлениях и ипостасях, а иногда и переходящему на пограничные стили Speed, Power, Groove, Crossover, MDM и т.п.
Главное правило здесь одно: Одна группа – одна тема! Всё остальное созвучно основным нормам поведения на конференции.
Шаблон оформления тем в этом подфоруме должен быть основан на данных сайта www.metal-archives.com и выглядеть следующим образом:

Группа (Страна) - Стилевые рамки - дискография
Slayer (USA) - Thrash Metal - дискография


В теме допустимо размещение всей информации касающейся данного коллектива: анонсы любых альбомов в любых форматах, запросы любых релизов коллектива (кроме релизов текущего и прошлого годов), обсуждения, обзоры, а в остальном всё как обычно. Уважаем друг друга, не грубим, соблюдаем нормы поведения на конференции, оформляем анонсы и запросы красиво и информативно, что бы модераторы не посчитали их троллингом, и не отправили куда положено, выписав Вам предупреждение или ещё что похуже… Прежде чем что-то запросить или запостить, пользуемся поиском! Пользуемся поиском! ПОЛЬЗУЕМСЯ ПОИСКОМ!!! Так слышно меня?.. :pardon:
Интересного, конструктивного и креативного общения! ;)

Image



Post new topic Reply to topic  [ 46 posts ]  Go to page 1, 2, 3  Next
Author Message
 
PostPosted: 14 Mar 2017 
Генеральный thrasher
User avatar
Joined: 03 Oct 2008
Posts: 3710
Lоcаtion: Ханты-Мансийский АО
Age: 44
Name: Сергей
В преддверии грядущего выхода нового альбома трэшеров из Любляны,думаю нелишне будет собрать дискографию на нашем форуме.Тем более коллектив неплох.

Image

Year:2009 (2013)
Style:Thrash Metal
Country:Slovenia
Archive:Flac+Cue+Log+Scans
Source:my CD
Size:408Mb
Label:Xtreem Music

Tracklist:
01. Prayers, Betrayers 05:11
02. Monumental Mind 04:52
03. The Auditors 04:15
04. Democracy 05:47
05. Electrifried 04:21
06. Playing with Matches 04:27
07. Twisted Reality 07:35
08. Inner Wastelands 06:11
09. The Sands of Time 04:59
10. Monumental Mind (live) 04:43
11. Democracy (live) 05:19

Cue"
REM GENRE "Thrash Metal"
REM DATE 2013
REM DISCID 8B0D680B
REM COMMENT "ExactAudioCopy v1.1"
PERFORMER "Eruption"
TITLE "Lifeless Paradise"
FILE "Eruption - Lifeless Paradise.flac" WAVE
TRACK 01 AUDIO
TITLE "Prayer, Betrayers"
PERFORMER "Eruption"
INDEX 01 00:00:00
TRACK 02 AUDIO
TITLE "Monumental Mind"
PERFORMER "Eruption"
INDEX 01 05:09:54
TRACK 03 AUDIO
TITLE "The Auditors"
PERFORMER "Eruption"
INDEX 01 09:59:16
TRACK 04 AUDIO
TITLE "Democracy"
PERFORMER "Eruption"
INDEX 01 14:13:16
TRACK 05 AUDIO
TITLE "Electrifried"
PERFORMER "Eruption"
INDEX 01 19:57:06
TRACK 06 AUDIO
TITLE "Playing with Matches"
PERFORMER "Eruption"
INDEX 01 24:17:23
TRACK 07 AUDIO
TITLE "Twisted Reality"
PERFORMER "Eruption"
INDEX 01 28:40:60
TRACK 08 AUDIO
TITLE "Inner Wastelands"
PERFORMER "Eruption"
INDEX 01 36:05:71
TRACK 09 AUDIO
TITLE "Sands of Time"
PERFORMER "Eruption"
INDEX 01 42:13:71
TRACK 10 AUDIO
TITLE "Monumental Mind (live)"
PERFORMER "Eruption"
INDEX 01 47:10:21
TRACK 11 AUDIO
TITLE "Democracy (live)"
PERFORMER "Eruption"
INDEX 01 51:53:21

"Log"
Exact Audio Copy V1.1 from 23. June 2015

Отчёт EAC об извлечении, выполненном 12. марта 2017, 17:29

Eruption / Lifeless Paradise

Дисковод: HL-DT-STDVDRAM GTA0N Adapter: 1 ID: 0

Режим чтения : Достоверность
Использование точного потока : Да
Отключение кэша аудио : Да
Использование указателей C2 : Нет

Коррекция смещения при чтении : 102
Способность читать области Lead-in и Lead-out : Нет
Заполнение пропущенных сэмплов тишиной : Да
Удаление блоков с тишиной в начале и конце : Нет
При вычислениях CRC использовались нулевые сэмплы : Да
Интерфейс : Встроенный Win32-интерфейс для Win NT/2000

Выходной формат : Пользовательский кодировщик
Выбранный битрейт : 768 kBit/s
Качество : Высокий
Добавление ID3-тега : Нет
Утилита сжатия : C:\Program Files (x86)\Exact Audio Copy\FLAC\FLAC.EXE
Дополнительные параметры : -V -8 -T "Date=%year%" -T "Genre=%genre%" %source%


TOC извлечённого CD

Трек | Старт | Длительность | Начальный сектор | Конечный сектор
---------------------------------------------------------------------
1 | 0:00.00 | 5:09.54 | 0 | 23228
2 | 5:09.54 | 4:49.37 | 23229 | 44940
3 | 9:59.16 | 4:14.00 | 44941 | 63990
4 | 14:13.16 | 5:43.65 | 63991 | 89780
5 | 19:57.06 | 4:20.17 | 89781 | 109297
6 | 24:17.23 | 4:23.37 | 109298 | 129059
7 | 28:40.60 | 7:25.11 | 129060 | 162445
8 | 36:05.71 | 6:08.00 | 162446 | 190045
9 | 42:13.71 | 4:56.25 | 190046 | 212270
10 | 47:10.21 | 4:43.00 | 212271 | 233495
11 | 51:53.21 | 5:19.00 | 233496 | 257420


Характеристики диапазона извлечения и сообщения об ошибках

Выбранный диапазон

Имя файла C:\Users\магазин\Music\Eruption - Lifeless Paradise.wav

Пиковый уровень 100.0 %
Скорость извлечения 4.2 X
Качество диапазона 100.0 %
CRC теста 3E0189B5
CRC копии 3E0189B5
Копирование... OK

Ошибок не произошло


AccurateRip: сводка

Трек 1 точность не определена (достоверность 1) [D6A1F9F6], AccurateRip вернул [368669DF] (AR v2)
Трек 2 : извлечено точно (доверие 1) [A95CF8AE] (AR v2)
Трек 3 : извлечено точно (доверие 1) [BF3695EE] (AR v2)
Трек 4 : извлечено точно (доверие 1) [0B884FB5] (AR v2)
Трек 5 : извлечено точно (доверие 1) [F63FEDC4] (AR v2)
Трек 6 : извлечено точно (доверие 1) [AB0A3CFB] (AR v2)
Трек 7 : извлечено точно (доверие 1) [7FD8D1CE] (AR v2)
Трек 8 : извлечено точно (доверие 1) [89ACCE66] (AR v2)
Трек 9 : извлечено точно (доверие 1) [2264B37E] (AR v2)
Трек 10 : извлечено точно (доверие 1) [4ED02F69] (AR v2)
Трек 11 : извлечено точно (доверие 1) [EE3E814A] (AR v2)

10 трек(и) скопированы точно
1 трек(и) не удалось проверить на точность

Некоторые треки не прошли проверку на точность

Конец отчёта

---- CUETools DB Plugin V2.1.6

[CTDB TOCID: BntdYdnfqXXmh1RFTDBTaq0PKso-] found
Submit result: BntdYdnfqXXmh1RFTDBTaq0PKso- has been confirmed
Track | CTDB Status
1 | (1/1) Accurately ripped
2 | (1/1) Accurately ripped
3 | (1/1) Accurately ripped
4 | (1/1) Accurately ripped
5 | (1/1) Accurately ripped
6 | (1/1) Accurately ripped
7 | (1/1) Accurately ripped
8 | (1/1) Accurately ripped
9 | (1/1) Accurately ripped
10 | (1/1) Accurately ripped
11 | (1/1) Accurately ripped


Lifeless Paradise

Image

Year:2012
Style:Thrash Metal
Country:Slovenia
Archive:Flac+Cue+Log+Scans
Source:my CD
Size:337Mb
Label:Xtreem Music

Tracklist:
01. Fractured 04:42
02. Celestial God 04:38
03. Enter the Hive 04:30
04. Selfcaged 04:34
05. Last Transmission 06:45
06. Unknown Dimensions 01:22
07. The Forlorn 05:19
08. Unparticled Matter 07:01
09. Empty Shells 05:41

"Cue"
REM GENRE "Thrash Metal"
REM DATE 2012
REM DISCID 690A7109
REM COMMENT "ExactAudioCopy v1.1"
PERFORMER "Eruption"
TITLE "Tenses Collide"
FILE "Eruption - Tenses Collide.flac" WAVE
TRACK 01 AUDIO
TITLE "Fractured"
PERFORMER "Eruption"
INDEX 01 00:00:00
TRACK 02 AUDIO
TITLE "Celestial God"
PERFORMER "Eruption"
INDEX 01 04:42:34
TRACK 03 AUDIO
TITLE "Enter The Hive"
PERFORMER "Eruption"
INDEX 01 09:20:37
TRACK 04 AUDIO
TITLE "Selfcaged"
PERFORMER "Eruption"
INDEX 01 13:50:70
TRACK 05 AUDIO
TITLE "Last Transmission"
PERFORMER "Eruption"
INDEX 01 18:25:06
TRACK 06 AUDIO
TITLE "Unknown Dimensions"
PERFORMER "Eruption"
INDEX 01 25:10:14
TRACK 07 AUDIO
TITLE "The Forlorn"
PERFORMER "Eruption"
INDEX 01 26:32:37
TRACK 08 AUDIO
TITLE "Unparticled Matter"
PERFORMER "Eruption"
INDEX 01 31:51:51
TRACK 09 AUDIO
TITLE "Empty Shells"
PERFORMER "Eruption"
INDEX 01 38:52:35

"Log"
Exact Audio Copy V1.1 from 23. June 2015

Отчёт EAC об извлечении, выполненном 12. марта 2017, 16:54

Eruption / Tenses Collide

Дисковод: HL-DT-STDVDRAM GTA0N Adapter: 1 ID: 0

Режим чтения : Достоверность
Использование точного потока : Да
Отключение кэша аудио : Да
Использование указателей C2 : Нет

Коррекция смещения при чтении : 102
Способность читать области Lead-in и Lead-out : Нет
Заполнение пропущенных сэмплов тишиной : Да
Удаление блоков с тишиной в начале и конце : Нет
При вычислениях CRC использовались нулевые сэмплы : Да
Интерфейс : Встроенный Win32-интерфейс для Win NT/2000

Выходной формат : Пользовательский кодировщик
Выбранный битрейт : 768 kBit/s
Качество : Высокий
Добавление ID3-тега : Нет
Утилита сжатия : C:\Program Files (x86)\Exact Audio Copy\FLAC\FLAC.EXE
Дополнительные параметры : -V -8 -T "Date=%year%" -T "Genre=%genre%" %source%


TOC извлечённого CD

Трек | Старт | Длительность | Начальный сектор | Конечный сектор
---------------------------------------------------------------------
1 | 0:00.00 | 4:42.34 | 0 | 21183
2 | 4:42.34 | 4:38.03 | 21184 | 42036
3 | 9:20.37 | 4:30.33 | 42037 | 62319
4 | 13:50.70 | 4:34.11 | 62320 | 82880
5 | 18:25.06 | 6:45.08 | 82881 | 113263
6 | 25:10.14 | 1:22.23 | 113264 | 119436
7 | 26:32.37 | 5:19.14 | 119437 | 143375
8 | 31:51.51 | 7:00.59 | 143376 | 174934
9 | 38:52.35 | 5:40.72 | 174935 | 200506


Характеристики диапазона извлечения и сообщения об ошибках

Выбранный диапазон

Имя файла C:\Users\магазин\Music\Eruption - Tenses Collide.wav

Пиковый уровень 98.8 %
Скорость извлечения 4.0 X
Качество диапазона 100.0 %
CRC теста FC90EDB3
CRC копии FC90EDB3
Копирование... OK

Ошибок не произошло


AccurateRip: сводка

Трек 1 : извлечено точно (доверие 2) [A3D58E75] (AR v2)
Трек 2 : извлечено точно (доверие 2) [BB5AF7A0] (AR v2)
Трек 3 : извлечено точно (доверие 2) [0E4C133D] (AR v2)
Трек 4 : извлечено точно (доверие 2) [2B3A3CB5] (AR v2)
Трек 5 : извлечено точно (доверие 2) [420CA41F] (AR v2)
Трек 6 : извлечено точно (доверие 2) [02560B33] (AR v2)
Трек 7 : извлечено точно (доверие 2) [77203931] (AR v2)
Трек 8 : извлечено точно (доверие 2) [73A89AC5] (AR v2)
Трек 9 : извлечено точно (доверие 2) [26A4FED8] (AR v2)

Все треки извлечены точно

Конец отчёта

---- CUETools DB Plugin V2.1.6

[CTDB TOCID: .fBNiR8osiBMZiKSa.xGb_THuw4-] found
Submit result: .fBNiR8osiBMZiKSa.xGb_THuw4- has been confirmed
Track | CTDB Status
1 | (2/2) Accurately ripped
2 | (2/2) Accurately ripped
3 | (2/2) Accurately ripped
4 | (2/2) Accurately ripped
5 | (2/2) Accurately ripped
6 | (2/2) Accurately ripped
7 | (2/2) Accurately ripped
8 | (2/2) Accurately ripped
9 | (2/2) Accurately ripped


Tenses Collide

Image

Year:2014
Style:Thrash Metal
Country:Slovenia
Archive:Wav Tracks
Source:Bandcamp
Size:385Mb

Tracklist:
01. Fractured 04:56
02. Democracy 05:34
03. The Forlorn 05:11
04. The Auditors 04:16
05. Empty Shells 05:26

Live Transmissions

Image

Year:2007
Style:Thrash Metal
Country:Slovenia
Archive:mp3 320kbps
Size:43Mb

Tracklist:
01. Prayers, Betrayers 04:55
02. Democracy 05:02
03. Monumental Mind 04:23
04. The Sands of Time 04:04

Demo 2007


Top
 Profile  
 
 
PostPosted: 14 Mar 2017 
консэрваторъ
User avatar
Joined: 11 Aug 2007
Posts: 16972
Lоcаtion: Псков
Age: 45
Name: Сергей
Присоединяюсь к сбору средств... :oops:

_________________
THRASH 'EM ALL


Top
 Profile E-mail  
 
 
PostPosted: 14 Mar 2017 
Рарник и трушник
User avatar
Joined: 25 Dec 2009
Posts: 8649
Lоcаtion: Москва
Age: 53
Name: Виталий
Это случаем не тот Эрапшен, который ван-вей-тикет поёт, не? :benya:


Top
 Profile  
 
 
PostPosted: 14 Mar 2017 
консэрваторъ
User avatar
Joined: 11 Aug 2007
Posts: 16972
Lоcаtion: Псков
Age: 45
Name: Сергей
Не, эти вроде суровы... слушаю демо... совковость пока прёт изо всех щелей...

_________________
THRASH 'EM ALL


Top
 Profile E-mail  
 
 
PostPosted: 14 Mar 2017 
Генеральный thrasher
User avatar
Joined: 03 Oct 2008
Posts: 3710
Lоcаtion: Ханты-Мансийский АО
Age: 44
Name: Сергей
Ты не демо слушай тогда.Слушай Tenses Collide.Там уже натуральный штатовский трэш наподобие I.N.C. и иже с ними...


Top
 Profile  
 
 
PostPosted: 14 Mar 2017 
консэрваторъ
User avatar
Joined: 11 Aug 2007
Posts: 16972
Lоcаtion: Псков
Age: 45
Name: Сергей
Дебютник не впечатлил... всё несётся неким однообразным комом под монотонный усыпляющий вокал, иногда пытающийся взвизгуть... Разве что Twisted Reality вывела из ступора своим началом и неким разнообразием, песнь хороша!.. Серёг, надо жешь слушать по порядку, дабы понимать, с чего всё начиналось и к чему пришло... Tenses Collide уже только завтра... Но потенциал чувствуется даже уже здесь, на альбоме 9-ого года... Инструментал Inner Wastelands тоже весьма хорош!.. :true:

_________________
THRASH 'EM ALL


Top
 Profile E-mail  
 
 
PostPosted: 14 Mar 2017 
Прокъмитолист
User avatar
Joined: 12 Aug 2007
Posts: 6557
Lоcаtion: Санктъ-Петербуркъ
Age: 51
Name: Олекъ
тащу всё (кроме дебютника, лайва и демки :crazy: ). Серёг, спасибо! :thanx:

_________________
прокъметол - это музыко, от которово есть прок (ы)


Top
 Profile  
 
 
PostPosted: 15 Mar 2017 
Хиппей (support team)
User avatar
Joined: 30 Jul 2007
Posts: 113079
Lоcаtion: Киев (Kyiv, UA)
Age: 46
Name: Andrey
thorbeorn wrote:
Lifeless Paradise

:thanx:

mirror: Depos l Narod l M-Cloud

_________________


Top
 Profile E-mail  
 
 
PostPosted: 15 Mar 2017 
Хиппей (support team)
User avatar
Joined: 30 Jul 2007
Posts: 113079
Lоcаtion: Киев (Kyiv, UA)
Age: 46
Name: Andrey
thorbeorn wrote:
Tenses Collide

:thanx:

mirror: Depos l Narod l M-Cloud

_________________


Top
 Profile E-mail  
 
 
PostPosted: 15 Mar 2017 
Хиппей (support team)
User avatar
Joined: 30 Jul 2007
Posts: 113079
Lоcаtion: Киев (Kyiv, UA)
Age: 46
Name: Andrey
thorbeorn wrote:
Live Transmissions

:thanx:

mirror: Depos l Narod l M-Cloud

_________________


Top
 Profile E-mail  
 
 
PostPosted: 15 Mar 2017 
Хиппей (support team)
User avatar
Joined: 30 Jul 2007
Posts: 113079
Lоcаtion: Киев (Kyiv, UA)
Age: 46
Name: Andrey
thorbeorn wrote:
Demo 2007

:thanx:

mirror: Depos l Narod l M-Cloud

_________________


Top
 Profile E-mail  
 
 
PostPosted: 15 Mar 2017 
консэрваторъ
User avatar
Joined: 11 Aug 2007
Posts: 16972
Lоcаtion: Псков
Age: 45
Name: Сергей
2012 Tenses Collide - ну вот же, вот!.. Вот и трасх нормовый подоспел, а всё почему?.. Просто Klemen Kalin походил на уроки вокала и создал правильную атмосферу на альбоме, хотя попытки быть заунывным нет, нет, да и проскакивают в вокализе... музыканты играть явно поднаучились... :true:
Записал в блокнотик, мол сильно жду новый альбом 2 мая... :oops: :true:



Спасибо, Серёга, за проделанную работу по собиранию и вылаживанию дискографии!!! :lob:

_________________
THRASH 'EM ALL


Top
 Profile E-mail  
 
 
PostPosted: 15 Mar 2017 
Генеральный thrasher
User avatar
Joined: 03 Oct 2008
Posts: 3710
Lоcаtion: Ханты-Мансийский АО
Age: 44
Name: Сергей
Всегда пожалуйста,Серёг!Думаю заняться их соотечественниками Panikk.Их новый альбом уже на трэкере.А я тем временем их демку в лосях прикупил на бэндкампе.


Top
 Profile  
 
 
PostPosted: 15 Mar 2017 
Хиппей (support team)
User avatar
Joined: 30 Jul 2007
Posts: 113079
Lоcаtion: Киев (Kyiv, UA)
Age: 46
Name: Andrey
thorbeorn wrote:
Tenses Collide

:shok: :shok: :shok: Ого, как меня вокал на альбоме торкнул :shok: :shok: :shok:

_________________


Top
 Profile E-mail  
 
 
PostPosted: 15 Mar 2017 
Генеральный thrasher
User avatar
Joined: 03 Oct 2008
Posts: 3710
Lоcаtion: Ханты-Мансийский АО
Age: 44
Name: Сергей
Ждём новьё,Андрей!


Top
 Profile  
 
 
PostPosted: 15 Mar 2017 
Хиппей (support team)
User avatar
Joined: 30 Jul 2007
Posts: 113079
Lоcаtion: Киев (Kyiv, UA)
Age: 46
Name: Andrey
thorbeorn wrote:
Tenses Collide

9/10

Срочно в личные топы :kro: И продолжаю наслаждаться альбомом :meloman:

Остальное пока слушать не буду. Некогда.

Серёг, спасибо в очередной раз за очередной шедевр :thanx: :lob: :lob: :lob:

_________________


Top
 Profile E-mail  
 
 
PostPosted: 15 Mar 2017 
Хиппей (support team)
User avatar
Joined: 30 Jul 2007
Posts: 113079
Lоcаtion: Киев (Kyiv, UA)
Age: 46
Name: Andrey
Eruption - Uparticled Matter (HD/1080p)


Красота ж какая? :meloman:

_________________


Top
 Profile E-mail  
 
 
PostPosted: 15 Mar 2017 
Доктор энтомологии
User avatar
Joined: 22 Jan 2009
Posts: 9768
Lоcаtion: Даугавпилс
Age: 44
Name: Алексей
Ухтышка, стильно играют :meloman: Качаю большие альбомы :lob: :thanx:


Top
 Profile  
 
 
PostPosted: 28 Mar 2017 
Я набрал 1000 сообщений!
Joined: 09 Jul 2008
Posts: 2825
Age: 45
Name: Сергей
ERUPTION - Drones


Top
 Profile  
 
 
PostPosted: 01 May 2017 
Генеральный thrasher
User avatar
Joined: 03 Oct 2008
Posts: 3710
Lоcаtion: Ханты-Мансийский АО
Age: 44
Name: Сергей
Новый альбом в сети! :true:


Top
 Profile  
 
Display posts from previous:  Sort by  
Post new topic Reply to topic  [ 46 posts ]  Go to page 1, 2, 3  Next

All times are UTC + 3 hours


Who is online

Users browsing this forum: No registered users and 4 guests


You cannot post new topics in this forum
You cannot reply to topics in this forum
You cannot edit your posts in this forum
You cannot delete your posts in this forum
You cannot post attachments in this forum

Search for:
Яндекс.Метрика
Powered by phpBB © 2000, 2002, 2005, 2007 phpBB Group