\m/ 80's metal \m/

Информационно-аналитический форум "80 см пыли" (In Search We Trust) "У нас никто никуда не спешит"
Me For You - http://me-4u.com
It is currently 21 Jun 2019

All times are UTC + 3 hours

Spoiler
Chat - temporary registration for foreign users (please leave your application here)





Forum rules


Уважаемые пользователи ресурса, друзья, коллеги и гости нашего форума. Данный раздел конференции создан с целью рафинации, и посвящён такому стилевому направлению в музыке, как Thrash Metal во всех его проявлениях и ипостасях, а иногда и переходящему на пограничные стили Speed, Power, Groove, Crossover, MDM и т.п.
Главное правило здесь одно: Одна группа – одна тема! Всё остальное созвучно основным нормам поведения на конференции.
Шаблон оформления тем в этом подфоруме должен быть основан на данных сайта www.metal-archives.com и выглядеть следующим образом:

Группа (Страна) - Стилевые рамки - дискография
Slayer (USA) - Thrash Metal - дискография


В теме допустимо размещение всей информации касающейся данного коллектива: анонсы любых альбомов в любых форматах, запросы любых релизов коллектива (кроме релизов текущего и прошлого годов), обсуждения, обзоры, а в остальном всё как обычно. Уважаем друг друга, не грубим, соблюдаем нормы поведения на конференции, оформляем анонсы и запросы красиво и информативно, что бы модераторы не посчитали их троллингом, и не отправили куда положено, выписав Вам предупреждение или ещё что похуже… Прежде чем что-то запросить или запостить, пользуемся поиском! Пользуемся поиском! ПОЛЬЗУЕМСЯ ПОИСКОМ!!! Так слышно меня?.. :pardon:
Интересного, конструктивного и креативного общения! ;)

Image



Post new topic Reply to topic  [ 33 posts ]  Go to page 1, 2  Next
Author Message
 
PostPosted: 09 Feb 2017 
Генеральный thrasher
User avatar
Joined: 03 Oct 2008
Posts: 3711
Lоcаtion: Ханты-Мансийский АО
Age: 44
Name: Сергей
> Осталось найти: | Still looking:
Imminent Attack - Imminent Thrash Attack 2009 (Demo)


Второй полнометражник бразильцев.Если понравится,первый раздаю на трэкере.

Image

Year:2015
Style:Thrash Metal/Crossover
Country:Brazil
Archive:Flac+Cue+Log+Scans
Source:my CD
Size:252Mb
Label:Metal Maximus

Tracklist:
01. Rush of Violence 02:29
02. This Troubled Mind 01:37
03. Abductors 01:52
04. Kill or Be Killed 02:08
05. Work, Buy, Die 02:09
06. Devil's Tattoo 02:22
07. The Black Sheep Reborns 02:15
08. The Meaning of Life 02:37
09. My Name, My Greed 02:28
10. Time for Revenge 01:59
11. Right to Be Wrong 02:42
12. G.U.N. (Generic Useless Nation) 02:14
13. Defyning Gods 02:07
14. My Funeral 01:44
15. Coward Liar 01:01

"Cue"
REM GENRE "Thrash Metal/Crossover"
REM DATE 2015
REM DISCID CA07700F
REM COMMENT "ExactAudioCopy v1.1"
PERFORMER "Imminent Attack"
TITLE "Welcome To My Funeral"
FILE "Imminent Attack - Welcome To My Funeral.flac" WAVE
TRACK 01 AUDIO
TITLE "Rush of Violence"
PERFORMER "Imminent Attack"
INDEX 01 00:00:00
TRACK 02 AUDIO
TITLE "This Troubled Mind"
PERFORMER "Imminent Attack"
INDEX 00 02:27:37
INDEX 01 02:29:21
TRACK 03 AUDIO
TITLE "Abductors"
PERFORMER "Imminent Attack"
INDEX 00 04:04:62
INDEX 01 04:06:46
TRACK 04 AUDIO
TITLE "Kill or Be Killed"
PERFORMER "Imminent Attack"
INDEX 00 05:56:60
INDEX 01 05:58:44
TRACK 05 AUDIO
TITLE "Work, Buy, Die"
PERFORMER "Imminent Attack"
INDEX 00 08:04:61
INDEX 01 08:06:45
TRACK 06 AUDIO
TITLE "Devil's Tattoo"
PERFORMER "Imminent Attack"
INDEX 00 10:13:69
INDEX 01 10:15:53
TRACK 07 AUDIO
TITLE "The Black Sheep Reborns"
PERFORMER "Imminent Attack"
INDEX 00 12:36:05
INDEX 01 12:37:64
TRACK 08 AUDIO
TITLE "The Meaning of Life"
PERFORMER "Imminent Attack"
INDEX 00 14:50:63
INDEX 01 14:52:47
TRACK 09 AUDIO
TITLE "My Name, My Greed"
PERFORMER "Imminent Attack"
INDEX 00 17:27:28
INDEX 01 17:29:12
TRACK 10 AUDIO
TITLE "Time for Revenge"
PERFORMER "Imminent Attack"
INDEX 00 19:55:00
INDEX 01 19:56:59
TRACK 11 AUDIO
TITLE "Right to Be Wrong"
PERFORMER "Imminent Attack"
INDEX 00 21:53:59
INDEX 01 21:55:45
TRACK 12 AUDIO
TITLE "G.U.N. (Generic Useless Nation)"
PERFORMER "Imminent Attack"
INDEX 00 24:36:16
INDEX 01 24:38:00
TRACK 13 AUDIO
TITLE "Defyning Gods"
PERFORMER "Imminent Attack"
INDEX 00 26:50:47
INDEX 01 26:52:31
TRACK 14 AUDIO
TITLE "My Funeral"
PERFORMER "Imminent Attack"
INDEX 00 28:57:44
INDEX 01 28:59:29
TRACK 15 AUDIO
TITLE "Coward Liar"
PERFORMER "Imminent Attack"
INDEX 00 30:41:52
INDEX 01 30:43:37

"Log"
Exact Audio Copy V1.1 from 23. June 2015

Отчёт EAC об извлечении, выполненном 9. февраля 2017, 13:18

Imminent Attack / Welcome To My Funeral

Дисковод: HL-DT-STDVDRAM GTA0N Adapter: 1 ID: 0

Режим чтения : Достоверность
Использование точного потока : Да
Отключение кэша аудио : Да
Использование указателей C2 : Нет

Коррекция смещения при чтении : 102
Способность читать области Lead-in и Lead-out : Нет
Заполнение пропущенных сэмплов тишиной : Да
Удаление блоков с тишиной в начале и конце : Нет
При вычислениях CRC использовались нулевые сэмплы : Да
Интерфейс : Встроенный Win32-интерфейс для Win NT/2000

Выходной формат : Пользовательский кодировщик
Выбранный битрейт : 768 kBit/s
Качество : Высокий
Добавление ID3-тега : Нет
Утилита сжатия : C:\Program Files (x86)\Exact Audio Copy\FLAC\FLAC.EXE
Дополнительные параметры : -6 -V -T "ARTIST=%artist%" -T "TITLE=%title%" -T "ALBUM=%albumtitle%" -T "DATE=%year%" -T "TRACKNUMBER=%tracknr%" -T "GENRE=%genre%" -T "COMMENT=%comment%" -T "BAND=%albuminterpret%" -T "ALBUMARTIST=%albuminterpret%" -T "COMPOSER=%composer%" %haslyrics%--tag-from-file=LYRICS="%lyricsfile%"%haslyrics% -T "DISCNUMBER=%cdnumber%" -T "TOTALDISCS=%totalcds%" -T "TOTALTRACKS=%numtracks%" %hascover%--picture="%coverfile%"%hascover% %source% -o %dest%


TOC извлечённого CD

Трек | Старт | Длительность | Начальный сектор | Конечный сектор
---------------------------------------------------------------------
1 | 0:00.00 | 2:29.21 | 0 | 11195
2 | 2:29.21 | 1:37.25 | 11196 | 18495
3 | 4:06.46 | 1:51.73 | 18496 | 26893
4 | 5:58.44 | 2:08.01 | 26894 | 36494
5 | 8:06.45 | 2:09.08 | 36495 | 46177
6 | 10:15.53 | 2:22.11 | 46178 | 56838
7 | 12:37.64 | 2:14.58 | 56839 | 66946
8 | 14:52.47 | 2:36.40 | 66947 | 78686
9 | 17:29.12 | 2:27.47 | 78687 | 89758
10 | 19:56.59 | 1:58.61 | 89759 | 98669
11 | 21:55.45 | 2:42.30 | 98670 | 110849
12 | 24:38.00 | 2:14.31 | 110850 | 120930
13 | 26:52.31 | 2:06.73 | 120931 | 130453
14 | 28:59.29 | 1:44.08 | 130454 | 138261
15 | 30:43.37 | 1:01.11 | 138262 | 142847


Характеристики диапазона извлечения и сообщения об ошибках

Выбранный диапазон

Имя файла C:\Users\магазин\Music\Imminent Attack - Welcome To My Funeral.wav

Пиковый уровень 94.4 %
Скорость извлечения 3.5 X
Качество диапазона 99.9 %
CRC теста 633C7CF1
CRC копии 633C7CF1
Копирование... OK

Ошибок не произошло


AccurateRip: сводка

Трек 1 отсутствует в базе данных
Трек 2 отсутствует в базе данных
Трек 3 отсутствует в базе данных
Трек 4 отсутствует в базе данных
Трек 5 отсутствует в базе данных
Трек 6 отсутствует в базе данных
Трек 7 отсутствует в базе данных
Трек 8 отсутствует в базе данных
Трек 9 отсутствует в базе данных
Трек 10 отсутствует в базе данных
Трек 11 отсутствует в базе данных
Трек 12 отсутствует в базе данных
Трек 13 отсутствует в базе данных
Трек 14 отсутствует в базе данных
Трек 15 отсутствует в базе данных

Ни одного трека нет в базе AccurateRip

Конец отчёта

---- CUETools DB Plugin V2.1.6

[CTDB TOCID: cn4OmTOgSRrqmJ_P8ZNEYRCT16c-] found
Submit result: cn4OmTOgSRrqmJ_P8ZNEYRCT16c- has been uploaded
Track | CTDB Status
1 | (1/1) Accurately ripped
2 | (1/1) Accurately ripped
3 | (1/1) Accurately ripped
4 | (1/1) Differs in 11 samples @00:57:06,00:57:17,00:57:37,00:58:33
5 | (1/1) Accurately ripped
6 | (1/1) Accurately ripped
7 | (1/1) Accurately ripped
8 | (1/1) Accurately ripped
9 | (1/1) Accurately ripped
10 | (1/1) Differs in 2 samples @01:02:25
11 | (1/1) Accurately ripped
12 | (1/1) Differs in 3 samples @01:48:52
13 | (1/1) Accurately ripped
14 | (1/1) Accurately ripped
15 | (1/1) Accurately ripped
If you are sure that your rip contains errors, you can use CUETools to repair it.


Welcome To My Funeral


Last edited by splatty on 04 Jul 2017, edited 4 times in total.
Это я название темки и первого поста в ней подправил, угу


Top
 Profile  
 
 
PostPosted: 09 Feb 2017 
консэрваторъ
User avatar
Joined: 11 Aug 2007
Posts: 16980
Lоcаtion: Псков
Age: 45
Name: Сергей
Явно понравится... :oops:

_________________
THRASH 'EM ALL


Top
 Profile E-mail  
 
 
PostPosted: 09 Feb 2017 
Я набрал 1000 сообщений!
Joined: 09 Jul 2008
Posts: 2835
Age: 45
Name: Сергей
очень странный вокал - то ли пропущенный через какую-то примочку, то ли извращенческий по жизни, и, к тому же, витающий где-то на заднем плане, практически не портит этот веселенький кроссовер )


Top
 Profile  
 
 
PostPosted: 12 Feb 2017 
консэрваторъ
User avatar
Joined: 11 Aug 2007
Posts: 16980
Lоcаtion: Псков
Age: 45
Name: Сергей
А есть у кого первая демка?.. Вылаживалась на Арее некогда... :arrov: http://metalarea.org/forum/index.php?showtopic=198235

Imminent Attack - Imminent Thrash Attack 2009 (Demo)

Image

1. Intro 01:28
2. Elliot 02:46
3. Ignorance Price 02:07
4. Violent Piece 02:10
5. Freddie Krueger (S.O.D. cover) 02:28

_________________
THRASH 'EM ALL


Top
 Profile E-mail  
 
 
PostPosted: 12 Feb 2017 
консэрваторъ
User avatar
Joined: 11 Aug 2007
Posts: 16980
Lоcаtion: Псков
Age: 45
Name: Сергей
Серёг, а ты ипиху по итогам заимел Couch Potato 2014?.. Она жешь тока на виниле была, а ты вроде винил не купляешь... Меня тут мысль озарила, что вместо ипихи надо компиляцию найти... Во-первых, она на циде выходила, во-вторых там эта ипиха целиком... :oops:

Imminent Attack / Hocnis / Puppets - Hellstouch - Three Ways to Hell 2013

Image Image

1. Hocnis - Introduction of Agony/Necrophobia 06:00
2. Hocnis - Fear of Pain 06:47
3. Hocnis - Narcozy 04:56
4. Hocnis - Hocnis 04:12
5. Hocnis - Against All 02:46
6. Hocnis - Pigs of Hell 04:17
7. Hocnis - Hate in Your Eyes 03:45
8. Imminent Attack - Couch Potato 01:58
9. Imminent Attack - Dirty, Noise and Fun 01:03
10. Imminent Attack - Nobody Cares 01:52
11. Imminent Attack - United by Fear 02:15

12. Imminent Attack - Noise for Nothing 02:31
13. Imminent Attack - Splact 02:43
14. Puppets - Abre a Roda 02:11
15. Puppets - Hardcore 03:36
16. Puppets - Piada Suja...Rio de Janeiro 03:57
17. Puppets - Assasinos da Verdade 04:32
18. Puppets - Dark Lands 06:08
19. Puppets - Puppets from Hell 04:36
20. Puppets - Chased by Words 04:35
21. Puppets - Guilty Man 03:12

Так же вылаживалась на арее :arrov: https://metalarea.org/forum/index.php?showtopic=239114
А ещё подозрительно дёшево продаётся в Бразилии... :scratch: :arrov: http://www.lojashinigamirecords.com.br/ ... ell-(Split)

_________________
THRASH 'EM ALL


Top
 Profile E-mail  
 
 
PostPosted: 13 Feb 2017 
Генеральный thrasher
User avatar
Joined: 03 Oct 2008
Posts: 3711
Lоcаtion: Ханты-Мансийский АО
Age: 44
Name: Сергей
Есть у меня этот диск.


Top
 Profile  
 
 
PostPosted: 13 Feb 2017 
консэрваторъ
User avatar
Joined: 11 Aug 2007
Posts: 16980
Lоcаtion: Псков
Age: 45
Name: Сергей
Фигасе, круть!.. Ждём... :oops: :oops: :thanx: :thanx:

_________________
THRASH 'EM ALL


Top
 Profile E-mail  
 
 
PostPosted: 16 Jun 2017 
консэрваторъ
User avatar
Joined: 11 Aug 2007
Posts: 16980
Lоcаtion: Псков
Age: 45
Name: Сергей
splatty wrote:
Imminent Attack / Hocnis / Puppets - Hellstouch - Three Ways to Hell 2013 (Split)

thorbeorn wrote:
Есть у меня этот диск.

https://cloud.mail.ru/public/GfrW/262XAe36N от Серёги... Ему земной поклон!.. :thanx:
Остаётся возродить по ним первое демо Imminent Thrash Attack 2009 (Demo)... :oops:

_________________
THRASH 'EM ALL


Top
 Profile E-mail  
 
 
PostPosted: 18 Jun 2017 
Хиппей (support team)
User avatar
Joined: 30 Jul 2007
Posts: 113091
Lоcаtion: Киев (Kyiv, UA)
Age: 46
Name: Andrey
thorbeorn wrote:
Welcome To My Funeral

:thanx:

mirror: Turbo l Narod l Drop l M-Cloud

_________________


Top
 Profile E-mail  
 
 
PostPosted: 18 Jun 2017 
Хиппей (support team)
User avatar
Joined: 30 Jul 2007
Posts: 113091
Lоcаtion: Киев (Kyiv, UA)
Age: 46
Name: Andrey
thorbeorn wrote:
Imminent Attack / Hocnis / Puppets - Hellstouch - Three Ways to Hell 2013 (Split)

:thanx:

mirror: Turbo l Narod l M-Cloud l Drop

_________________


Top
 Profile E-mail  
 
 
PostPosted: 18 Jun 2017 
Хиппей (support team)
User avatar
Joined: 30 Jul 2007
Posts: 113091
Lоcаtion: Киев (Kyiv, UA)
Age: 46
Name: Andrey
splatty wrote:
Imminent Attack / Hocnis / Puppets - Hellstouch - Three Ways to Hell 2013 (Split)

Остаётся возродить по ним первое демо Imminent Thrash Attack 2009 (Demo)... :oops:

Ага, ремастеривать в СаундФорже и выслать группе, шоб она его заново издала на CD + с японскими бонусами :lob:

_________________


Top
 Profile E-mail  
 
 
PostPosted: 19 Jun 2017 
Хиппей (support team)
User avatar
Joined: 30 Jul 2007
Posts: 113091
Lоcаtion: Киев (Kyiv, UA)
Age: 46
Name: Andrey
thorbeorn wrote:
Welcome To My Funeral

Обожаю хардкор трэшэвый (он же - кроссовер настоящий, без фанка и прочей лабуды) и всё, что с ним связано, но.. этот альбом чего-то не очень покатил :vic:
Возможно дело НЕ в достаточно противном и наглом вокале и малом количестве бэков :scratch:

6/10

_________________


Top
 Profile E-mail  
 
 
PostPosted: 19 Jun 2017 
Хиппей (support team)
User avatar
Joined: 30 Jul 2007
Posts: 113091
Lоcаtion: Киев (Kyiv, UA)
Age: 46
Name: Andrey
splatty wrote:
Hocnis

Какой натужный трэш-дэз (почти) с надрывающимся вокалистом.. :cry:
Второй трэк обязательно дослушайте полностью - в конце его прорвало :foc: :true: :true: :true:
А в третьем, в самом начале, ваще вспомнился легендарный альбом американского проекта Massacre :lob: :lob: :lob:

_________________


Top
 Profile E-mail  
 
 
PostPosted: 19 Jun 2017 
Хиппей (support team)
User avatar
Joined: 30 Jul 2007
Posts: 113091
Lоcаtion: Киев (Kyiv, UA)
Age: 46
Name: Andrey
splatty

Серёг, а здесь :arrow: https://hocnis.bandcamp.com/album/demo-niac как-то можно бесплатно "купить" флаки?
Очень уж мне группка понравилась своей оригинальностью безбашенной :meloman:

_________________


Top
 Profile E-mail  
 
 
PostPosted: 19 Jun 2017 
Хиппей (support team)
User avatar
Joined: 30 Jul 2007
Posts: 113091
Lоcаtion: Киев (Kyiv, UA)
Age: 46
Name: Andrey
splatty wrote:
Puppets

Тоже весьма занятный проект и вновь намного оригинальнее самой группы из шапки топика :lob: :lob: :lob:

_________________


Top
 Profile E-mail  
 
 
PostPosted: 19 Jun 2017 
консэрваторъ
User avatar
Joined: 11 Aug 2007
Posts: 16980
Lоcаtion: Псков
Age: 45
Name: Сергей
Там бесплатно по 0,5 за трек или тубрик оптом за все три, но это уже другая тема... а тут лучше б ты Imminent Thrash Attack 2009 (Demo) нашёл нам, было б круть!..

_________________
THRASH 'EM ALL


Top
 Profile E-mail  
 
 
PostPosted: 19 Jun 2017 
Хиппей (support team)
User avatar
Joined: 30 Jul 2007
Posts: 113091
Lоcаtion: Киев (Kyiv, UA)
Age: 46
Name: Andrey
splatty wrote:
Там бесплатно по 0,5 за трек или тубрик оптом за все три, но это уже другая тема...

Это называется платно :tro:
splatty wrote:
а тут лучше б ты Imminent Thrash Attack 2009 (Demo) нашёл нам, было б круть!..

Можно было бы попробовать, кабы в шапке темы был запрос по нему :pardon:

_________________


Top
 Profile E-mail  
 
 
PostPosted: 19 Jun 2017 
Хиппей (support team)
User avatar
Joined: 30 Jul 2007
Posts: 113091
Lоcаtion: Киев (Kyiv, UA)
Age: 46
Name: Andrey
thorbeorn wrote:
Если понравится,первый раздаю на трэкере

:thanx:

Imminent Attack - 2012 - Deliver Us From Ourselves [flac]

Image

Image

mirror: Turbo l Narod l Drop l M-Cloud


Скачал. Отслушал и слушаю дальше.
Но, тоже самое - оценка 6 из 10. Ничего своего у группы, к сожалению, и на дебютнике не было :pardon:
Но сама музыка доставляет :meloman:

6/10

log
Exact Audio Copy V0.99 prebeta 5 from 4. May 2009

Отчёт EAC об извлечении, выполненном 16. января 2014, 10:18

Imminent Attack / Deliver Us From Ourselves

Дисковод: MATSHITADVD-RAM UJ8A0AS Adapter: 0 ID: 1

Режим чтения : Достоверность
Использование точного потока : Да
Отключение кэша аудио : Да
Использование указателей C2 : Нет

Коррекция смещения при чтении : 102
Способность читать области Lead-in и Lead-out : Нет
Заполнение пропущенных сэмплов тишиной : Да
Удаление блоков с тишиной в начале и конце : Нет
При вычислениях CRC использовались нулевые сэмплы : Да
Интерфейс : Встроенный Win32-интерфейс для Win NT/2000

Выходной формат : Пользовательский кодировщик
Выбранный битрейт : 1024 kBit/s
Качество : Высокий
Добавление ID3-тэга : Нет
Утилита сжатия : C:\Program Files\Exact Audio Copy\FLAC\FLAC.EXE
Дополнительные параметры : -6 -V -T "ARTIST=%a" -T "TITLE=%t" -T "ALBUM=%g" -T "DATE=%y" -T "TRACKNUMBER=%n" -T "GENRE=%m" -T "COMMENT=%e" %s -o %d


TOC извлечённого CD

Трек | Старт | Длительность | Начальный сектор | Конечный сектор
---------------------------------------------------------------------
1 | 0:00.00 | 2:53.53 | 0 | 13027
2 | 2:53.53 | 2:23.38 | 13028 | 23790
3 | 5:17.16 | 2:28.28 | 23791 | 34918
4 | 7:45.44 | 2:06.46 | 34919 | 44414
5 | 9:52.15 | 2:13.12 | 44415 | 54401
6 | 12:05.27 | 2:13.69 | 54402 | 64445
7 | 14:19.21 | 0:50.29 | 64446 | 68224
8 | 15:09.50 | 1:30.48 | 68225 | 75022
9 | 16:40.23 | 2:53.35 | 75023 | 88032
10 | 19:33.58 | 1:56.10 | 88033 | 96742
11 | 21:29.68 | 2:34.03 | 96743 | 108295
12 | 24:03.71 | 2:41.41 | 108296 | 120411
13 | 26:45.37 | 2:11.09 | 120412 | 130245
14 | 28:56.46 | 2:13.69 | 130246 | 140289


Характеристики диапазона извлечения и сообщения об ошибках

Выбранный диапазон

Имя файла C:\Users\эксперт\Music\Imminent Attack - Deliver Us From Ourselves.wav

Пиковый уровень 91.2 %
Качество диапазона 99.9 %
CRC копии B17CC096
Копирование... OK

Ошибок не произошло


AccurateRip: сводка

Трек 1 нет в базе данных
Трек 2 нет в базе данных
Трек 3 нет в базе данных
Трек 4 нет в базе данных
Трек 5 нет в базе данных
Трек 6 нет в базе данных
Трек 7 нет в базе данных
Трек 8 нет в базе данных
Трек 9 нет в базе данных
Трек 10 нет в базе данных
Трек 11 нет в базе данных
Трек 12 нет в базе данных
Трек 13 нет в базе данных
Трек 14 нет в базе данных

Ни одного трека нет в базе AccurateRip

Конец отчёта

cue
REM GENRE "Thrash Metal/Crossover"
REM DATE 2012
REM DISCID B6074E0E
REM COMMENT "ExactAudioCopy v0.99pb5"
PERFORMER "Imminent Attack"
TITLE "Deliver Us From Ourselves"
FILE "Imminent Attack - Deliver Us From Ourselves.flac" WAVE
TRACK 01 AUDIO
TITLE "Elliot"
PERFORMER "Imminent Attack"
INDEX 01 00:00:00
TRACK 02 AUDIO
TITLE "Imminent Attack"
PERFORMER "Imminent Attack"
INDEX 01 02:53:53
TRACK 03 AUDIO
TITLE "Noise For Nothing"
PERFORMER "Imminent Attack"
INDEX 01 05:17:16
TRACK 04 AUDIO
TITLE "Secret Of Skin"
PERFORMER "Imminent Attack"
INDEX 01 07:45:44
TRACK 05 AUDIO
TITLE "Ignorance's Price"
PERFORMER "Imminent Attack"
INDEX 01 09:52:15
TRACK 06 AUDIO
TITLE "No Name"
PERFORMER "Imminent Attack"
INDEX 01 12:05:27
TRACK 07 AUDIO
TITLE "Mousebeer"
PERFORMER "Imminent Attack"
INDEX 01 14:19:21
TRACK 08 AUDIO
TITLE "Mechanical Mind"
PERFORMER "Imminent Attack"
INDEX 01 15:09:50
TRACK 09 AUDIO
TITLE "Sweet & Pink"
PERFORMER "Imminent Attack"
INDEX 01 16:40:23
TRACK 10 AUDIO
TITLE "Drinks And Fun"
PERFORMER "Imminent Attack"
INDEX 01 19:33:58
TRACK 11 AUDIO
TITLE "Naked Mammoth"
PERFORMER "Imminent Attack"
INDEX 01 21:29:68
TRACK 12 AUDIO
TITLE "Splact"
PERFORMER "Imminent Attack"
INDEX 01 24:03:71
TRACK 13 AUDIO
TITLE "Paradise Now"
PERFORMER "Imminent Attack"
INDEX 01 26:45:37
TRACK 14 AUDIO
TITLE "St. Madness"
PERFORMER "Imminent Attack"
INDEX 01 28:56:46

_________________


Top
 Profile E-mail  
 
 
PostPosted: 19 Jun 2017 
консэрваторъ
User avatar
Joined: 11 Aug 2007
Posts: 16980
Lоcаtion: Псков
Age: 45
Name: Сергей
Scatterbrain wrote:
кабы в шапке темы был

Сделато...

_________________
THRASH 'EM ALL


Top
 Profile E-mail  
 
 
PostPosted: 19 Jun 2017 
Генеральный thrasher
User avatar
Joined: 03 Oct 2008
Posts: 3711
Lоcаtion: Ханты-Мансийский АО
Age: 44
Name: Сергей
Остаётся возродить по ним первое демо Imminent Thrash Attack 2009 (Demo)... :oops:


Так напиши им,Серёг!


Top
 Profile  
 
Display posts from previous:  Sort by  
Post new topic Reply to topic  [ 33 posts ]  Go to page 1, 2  Next

All times are UTC + 3 hours


Who is online

Users browsing this forum: No registered users and 1 guest


You cannot post new topics in this forum
You cannot reply to topics in this forum
You cannot edit your posts in this forum
You cannot delete your posts in this forum
You cannot post attachments in this forum

Search for:
Яндекс.Метрика
Powered by phpBB © 2000, 2002, 2005, 2007 phpBB Group