\m/ 80's metal \m/

Информационно-аналитический форум "80 см пыли" (In Search We Trust) "У нас никто никуда не спешит"
Me For You - http://me-4u.com
It is currently 22 Apr 2019

All times are UTC + 3 hours

Spoiler
Chat - temporary registration for foreign users (please leave your application here)





Forum rules


Уважаемые пользователи ресурса, друзья, коллеги и гости нашего форума. Данный раздел конференции создан с целью рафинации, и посвящён такому стилевому направлению в музыке, как Thrash Metal во всех его проявлениях и ипостасях, а иногда и переходящему на пограничные стили Speed, Power, Groove, Crossover, MDM и т.п.
Главное правило здесь одно: Одна группа – одна тема! Всё остальное созвучно основным нормам поведения на конференции.
Шаблон оформления тем в этом подфоруме должен быть основан на данных сайта www.metal-archives.com и выглядеть следующим образом:

Группа (Страна) - Стилевые рамки - дискография
Slayer (USA) - Thrash Metal - дискография


В теме допустимо размещение всей информации касающейся данного коллектива: анонсы любых альбомов в любых форматах, запросы любых релизов коллектива (кроме релизов текущего и прошлого годов), обсуждения, обзоры, а в остальном всё как обычно. Уважаем друг друга, не грубим, соблюдаем нормы поведения на конференции, оформляем анонсы и запросы красиво и информативно, что бы модераторы не посчитали их троллингом, и не отправили куда положено, выписав Вам предупреждение или ещё что похуже… Прежде чем что-то запросить или запостить, пользуемся поиском! Пользуемся поиском! ПОЛЬЗУЕМСЯ ПОИСКОМ!!! Так слышно меня?.. :pardon:
Интересного, конструктивного и креативного общения! ;)

Image



Post new topic Reply to topic  [ 8 posts ] 
Author Message
 
PostPosted: 03 Feb 2017 
Генеральный thrasher
User avatar
Joined: 03 Oct 2008
Posts: 3695
Lоcаtion: Ханты-Мансийский АО
Age: 44
Name: Сергей
Немножко турецкого трэша для разнообразия форуму не повредит!

Image

Year:2015
Style:Thrash Metal
Country:Turkey
Archive:Flac+Cue+Log+Scans
Source:my CD
Size:173Mb
Label:Xtreem Music

Tracklist:
01. Intro (Back To Ritual) 02:13
02. Vengeance of Fire 04:08
03. Thrash Assassinations Of Rotten Streets 02:48
04. Chainsaw Metal 04:23
05. Silent Torture (Demo) 05:05
06. Kill The Fake God (Demo) 03:57

"Cue"
REM GENRE "Thrash Metal"
REM DATE 2015
REM DISCID 3A054806
REM COMMENT "ExactAudioCopy v1.1"
PERFORMER "Thrashfire"
TITLE "Vengeance of Fire"
FILE "Thrashfire - Vengeance of Fire.flac" WAVE
TRACK 01 AUDIO
TITLE "Intro (Back To Ritual)"
PERFORMER "Thrashfire"
INDEX 01 00:00:00
TRACK 02 AUDIO
TITLE "Vengeance of Fire"
PERFORMER "Thrashfire"
INDEX 01 02:13:09
TRACK 03 AUDIO
TITLE "Thrash Assassinations Of Rotten Streets"
PERFORMER "Thrashfire"
INDEX 01 06:21:04
TRACK 04 AUDIO
TITLE "Chainsaw Metal"
PERFORMER "Thrashfire"
INDEX 01 09:08:53
TRACK 05 AUDIO
TITLE "Silent Torture (Demo)"
PERFORMER "Thrashfire"
INDEX 01 13:31:17
TRACK 06 AUDIO
TITLE "Kill The Fake God (Demo)"
PERFORMER "Thrashfire"
INDEX 01 18:36:06

"Log"
Exact Audio Copy V1.1 from 23. June 2015

Отчёт EAC об извлечении, выполненном 1. февраля 2017, 14:55

Thrashfire / Vengeance of Fire

Дисковод: HL-DT-STDVDRAM GTA0N Adapter: 1 ID: 0

Режим чтения : Достоверность
Использование точного потока : Да
Отключение кэша аудио : Да
Использование указателей C2 : Нет

Коррекция смещения при чтении : 102
Способность читать области Lead-in и Lead-out : Нет
Заполнение пропущенных сэмплов тишиной : Да
Удаление блоков с тишиной в начале и конце : Нет
При вычислениях CRC использовались нулевые сэмплы : Да
Интерфейс : Встроенный Win32-интерфейс для Win NT/2000

Выходной формат : Пользовательский кодировщик
Выбранный битрейт : 768 kBit/s
Качество : Высокий
Добавление ID3-тега : Нет
Утилита сжатия : C:\Program Files (x86)\Exact Audio Copy\FLAC\FLAC.EXE
Дополнительные параметры : -6 -V -T "ARTIST=%artist%" -T "TITLE=%title%" -T "ALBUM=%albumtitle%" -T "DATE=%year%" -T "TRACKNUMBER=%tracknr%" -T "GENRE=%genre%" -T "COMMENT=%comment%" -T "BAND=%albuminterpret%" -T "ALBUMARTIST=%albuminterpret%" -T "COMPOSER=%composer%" %haslyrics%--tag-from-file=LYRICS="%lyricsfile%"%haslyrics% -T "DISCNUMBER=%cdnumber%" -T "TOTALDISCS=%totalcds%" -T "TOTALTRACKS=%numtracks%" %hascover%--picture="%coverfile%"%hascover% %source% -o %dest%


TOC извлечённого CD

Трек | Старт | Длительность | Начальный сектор | Конечный сектор
---------------------------------------------------------------------
1 | 0:00.00 | 2:13.09 | 0 | 9983
2 | 2:13.09 | 4:07.70 | 9984 | 28578
3 | 6:21.04 | 2:47.49 | 28579 | 41152
4 | 9:08.53 | 4:22.39 | 41153 | 60841
5 | 13:31.17 | 5:04.64 | 60842 | 83705
6 | 18:36.06 | 3:56.43 | 83706 | 101448


Характеристики диапазона извлечения и сообщения об ошибках

Выбранный диапазон

Имя файла C:\Users\магазин\Music\Thrashfire - Vengeance of Fire.wav

Пиковый уровень 100.0 %
Скорость извлечения 3.4 X
Качество диапазона 100.0 %
CRC теста BCB95994
CRC копии BCB95994
Копирование... OK

Ошибок не произошло


AccurateRip: сводка

Трек 1 отсутствует в базе данных
Трек 2 отсутствует в базе данных
Трек 3 отсутствует в базе данных
Трек 4 отсутствует в базе данных
Трек 5 отсутствует в базе данных
Трек 6 отсутствует в базе данных

Ни одного трека нет в базе AccurateRip

Конец отчёта

---- CUETools DB Plugin V2.1.6

[CTDB TOCID: sacoil3dZ1hpjlPqaVtTKRu.4tk-] disk not present in database
Submit result: sacoil3dZ1hpjlPqaVtTKRu.4tk- has been uploaded


Vengeance of Fire


Top
 Profile  
 
 
PostPosted: 03 Feb 2017 
Прокъмитолист
User avatar
Joined: 12 Aug 2007
Posts: 6545
Lоcаtion: Санктъ-Петербуркъ
Age: 51
Name: Олекъ
Серёга, спасибо! :thanx:

_________________
прокъметол - это музыко, от которово есть прок (ы)


Top
 Profile  
 
 
PostPosted: 04 Feb 2017 
консэрваторъ
Joined: 11 Aug 2007
Posts: 16823
Lоcаtion: Псков
Age: 45
Name: Сергей
Хм... пока берём... :scratch:

_________________
THRASH 'EM ALL


Top
 Profile E-mail  
 
 
PostPosted: 06 Feb 2017 
Персональный статус
User avatar
Joined: 04 Mar 2012
Posts: 239
Lоcаtion: Саратов
Name: Василий
:thanx:


Top
 Profile E-mail  
 
 
PostPosted: 21 Mar 2017 
консэрваторъ
Joined: 11 Aug 2007
Posts: 16823
Lоcаtion: Псков
Age: 45
Name: Сергей
На демке 7-ого года ещё первый вокалист Şeref Umut - хорош!.. яишенка... :pardon:
World Domination Promo 2010 (EP) - что-то нигде не видать, да и хрен бы с ней, слушаю дебютник (флак на тракторе)... Запевала здесь уже другой Burak Tavus, подпорчивает слегка альбом, пытаясь подрыкивать, выходит плохо, но жарят турки в целом зашибательско!.. :true: Dead Collector знатный такой боевичёк получился с хоральным выкриком названия песни под пулемётный риф!.. :meloman:
Интро на ипихе 15-ого года впечатляет, направление взято очень правильное!.. Вокал надо менять всёж...

_________________
THRASH 'EM ALL


Top
 Profile E-mail  
 
 
PostPosted: 21 Mar 2017 
Хиппей (support team)
User avatar
Joined: 30 Jul 2007
Posts: 111760
Lоcаtion: Киев (Kyiv, UA)
Age: 45
Name: Andrey
thorbeorn wrote:
Vengeance of Fire

:thanx:

mirror: Depos l Narod l M-Cloud

_________________


Top
 Profile E-mail  
 
 
PostPosted: 21 Mar 2017 
Хиппей (support team)
User avatar
Joined: 30 Jul 2007
Posts: 111760
Lоcаtion: Киев (Kyiv, UA)
Age: 45
Name: Andrey
Очередной качественный клон Креатора и не более :pardon:

6/10

_________________


Top
 Profile E-mail  
 
 
PostPosted: 21 Mar 2017 
Хиппей (support team)
User avatar
Joined: 30 Jul 2007
Posts: 111760
Lоcаtion: Киев (Kyiv, UA)
Age: 45
Name: Andrey
Thrashfire - 2011 - Thrash Burned The Hell [flac]

Image Image

mirror: Depos l Narod l M-Cloud

source: https://rutracker.org/forum/viewtopic.php?t=3764016 :thanx:

6/10

Скоростно и задорно :meloman:

Image Image
Image Image Image
Image Image Image

log
Exact Audio Copy V0.99 prebeta 5 from 4. May 2009

EAC extraction logfile from 3. October 2011, 17:51

Thrashfire / Thrash Burned The Hell

Used drive : hp CDDVDW TS-L633J Adapter: 2 ID: 0

Read mode : Secure
Utilize accurate stream : Yes
Defeat audio cache : Yes
Make use of C2 pointers : No

Read offset correction : 6
Overread into Lead-In and Lead-Out : No
Fill up missing offset samples with silence : Yes
Delete leading and trailing silent blocks : No
Null samples used in CRC calculations : Yes
Used interface : Native Win32 interface for Win NT & 2000

Used output format : Internal WAV Routines
Sample format : 44.100 Hz; 16 Bit; Stereo


TOC of the extracted CD

Track | Start | Length | Start sector | End sector
---------------------------------------------------------
1 | 0:00.00 | 3:34.69 | 0 | 16118
2 | 3:34.69 | 3:38.56 | 16119 | 32524
3 | 7:13.50 | 3:27.00 | 32525 | 48049
4 | 10:40.50 | 4:55.34 | 48050 | 70208
5 | 15:36.09 | 3:57.02 | 70209 | 87985
6 | 19:33.11 | 4:57.61 | 87986 | 110321
7 | 24:30.72 | 5:03.02 | 110322 | 133048
8 | 29:33.74 | 4:14.22 | 133049 | 152120
9 | 33:48.21 | 3:32.57 | 152121 | 168077
10 | 37:21.03 | 3:18.46 | 168078 | 182973
11 | 40:39.49 | 5:07.19 | 182974 | 206017
12 | 45:46.68 | 3:23.09 | 206018 | 221251


Range status and errors

Selected range

Filename C:\Музыка\МОЁ\Thrashfire - Thrash Burned The Hell.wav

Peak level 100.0 %
Range quality 100.0 %
Copy CRC 12B158B6
Copy OK

No errors occurred

End of status report

cue
REM GENRE "Thrash Metal"
REM DATE 2011
REM SOURCE УKMAФ
REM DISCID 970B860C
REM COMMENT "ExactAudioCopy v0.99pb5"
PERFORMER "Thrashfire "
TITLE "Thrash Burned The Hell"
FILE "Thrashfire - Thrash Burned The Hell.flac" WAVE
TRACK 01 AUDIO
TITLE "Thrash, Beer And Violence"
PERFORMER "Thrashfire "
INDEX 01 00:00:00
TRACK 02 AUDIO
TITLE "World Domination"
PERFORMER "Thrashfire "
INDEX 01 03:34:69
TRACK 03 AUDIO
TITLE "Thrash Burned The Hell"
PERFORMER "Thrashfire "
INDEX 01 07:13:50
TRACK 04 AUDIO
TITLE "Backstreet Junkies"
PERFORMER "Thrashfire "
INDEX 01 10:40:50
TRACK 05 AUDIO
TITLE "Hell Performance Hall"
PERFORMER "Thrashfire "
INDEX 01 15:36:09
TRACK 06 AUDIO
TITLE " Dead Collector"
PERFORMER "Thrashfire "
INDEX 01 19:33:11
TRACK 07 AUDIO
TITLE "Angels And Drunk Witches"
PERFORMER "Thrashfire "
INDEX 01 24:30:72
TRACK 08 AUDIO
TITLE "Kill The Fake God"
PERFORMER "Thrashfire "
INDEX 01 29:33:74
TRACK 09 AUDIO
TITLE "No Mercy No Pain"
PERFORMER "Thrashfire "
INDEX 01 33:48:21
TRACK 10 AUDIO
TITLE "Death Is Near"
PERFORMER "Thrashfire "
INDEX 01 37:21:03
TRACK 11 AUDIO
TITLE "Silent Torture"
PERFORMER "Thrashfire "
INDEX 01 40:39:49
TRACK 12 AUDIO
TITLE "Revolt (Bonus Track)"
PERFORMER "Thrashfire "
INDEX 01 45:46:68

_________________


Top
 Profile E-mail  
 
Display posts from previous:  Sort by  
Post new topic Reply to topic  [ 8 posts ] 

All times are UTC + 3 hours


Who is online

Users browsing this forum: No registered users and 1 guest


You cannot post new topics in this forum
You cannot reply to topics in this forum
You cannot edit your posts in this forum
You cannot delete your posts in this forum
You cannot post attachments in this forum

Search for:
Яндекс.Метрика
Powered by phpBB © 2000, 2002, 2005, 2007 phpBB Group