\m/ 80's metal \m/

Информационно-аналитический форум "80 см пыли" (In Search We Trust) "У нас никто никуда не спешит"
Me For You - http://me-4u.com
It is currently 17 Jun 2019

All times are UTC + 3 hours

Spoiler
Chat - temporary registration for foreign users (please leave your application here)





Forum rules


Уважаемые пользователи ресурса, друзья, коллеги и гости нашего форума. Данный раздел конференции создан с целью рафинации, и посвящён такому стилевому направлению в музыке, как Thrash Metal во всех его проявлениях и ипостасях, а иногда и переходящему на пограничные стили Speed, Power, Groove, Crossover, MDM и т.п.
Главное правило здесь одно: Одна группа – одна тема! Всё остальное созвучно основным нормам поведения на конференции.
Шаблон оформления тем в этом подфоруме должен быть основан на данных сайта www.metal-archives.com и выглядеть следующим образом:

Группа (Страна) - Стилевые рамки - дискография
Slayer (USA) - Thrash Metal - дискография


В теме допустимо размещение всей информации касающейся данного коллектива: анонсы любых альбомов в любых форматах, запросы любых релизов коллектива (кроме релизов текущего и прошлого годов), обсуждения, обзоры, а в остальном всё как обычно. Уважаем друг друга, не грубим, соблюдаем нормы поведения на конференции, оформляем анонсы и запросы красиво и информативно, что бы модераторы не посчитали их троллингом, и не отправили куда положено, выписав Вам предупреждение или ещё что похуже… Прежде чем что-то запросить или запостить, пользуемся поиском! Пользуемся поиском! ПОЛЬЗУЕМСЯ ПОИСКОМ!!! Так слышно меня?.. :pardon:
Интересного, конструктивного и креативного общения! ;)

Image



Post new topic Reply to topic  [ 6 posts ] 
Author Message
 
PostPosted: 30 Jan 2017 
Генеральный thrasher
User avatar
Joined: 03 Oct 2008
Posts: 3710
Lоcаtion: Ханты-Мансийский АО
Age: 44
Name: Сергей
Неплохой трэшак родом из Сербии.Если вам понравится данный бэнд,их епишку 2012 года можно забрать на бэндкампе.

Image

Year:2014
Style:Thrash Metal
Country:Serbia
Archive:Flac+Cue+Log+Scans
Source:my CD
Size:332Mb
Label:Witches Brew

Tracklist:
01. Realm Of Grief 04:02
02. Eternal Depression 05:09
03. Horror 05:14
04. Contorted Existence 05:17
05. Embittered 05:30
06. The Artist Of Deception 05:30
07. Nothing Lasts Forever 05:07
08. Drained 05:52

"Cue"
REM GENRE "Thrash Metal"
REM DATE 2014
REM DISCID 6009C508
REM COMMENT "ExactAudioCopy v1.1"
PERFORMER "Alitor"
TITLE "Eternal Depression"
FILE "Alitor - Eternal Depression.flac" WAVE
TRACK 01 AUDIO
TITLE "Realm Of Grief"
PERFORMER "Alitor"
INDEX 01 00:00:00
TRACK 02 AUDIO
TITLE "Eternal Depression"
PERFORMER "Alitor"
INDEX 01 04:02:30
TRACK 03 AUDIO
TITLE "Horror"
PERFORMER "Alitor"
INDEX 01 09:11:23
TRACK 04 AUDIO
TITLE "Contorted Existence"
PERFORMER "Alitor"
INDEX 01 14:24:67
TRACK 05 AUDIO
TITLE "Embittered"
PERFORMER "Alitor"
INDEX 01 19:42:26
TRACK 06 AUDIO
TITLE "The Artist Of Deception"
PERFORMER "Alitor"
INDEX 01 25:12:43
TRACK 07 AUDIO
TITLE "Nothing Lasts Forever"
PERFORMER "Alitor"
INDEX 01 30:42:49
TRACK 08 AUDIO
TITLE "Drained"
PERFORMER "Alitor"
INDEX 01 35:49:55

"Log"
Exact Audio Copy V1.1 from 23. June 2015

Отчёт EAC об извлечении, выполненном 30. января 2017, 9:40

Alitor / Eternal Depression

Дисковод: HL-DT-STDVDRAM GTA0N Adapter: 1 ID: 0

Режим чтения : Достоверность
Использование точного потока : Да
Отключение кэша аудио : Да
Использование указателей C2 : Нет

Коррекция смещения при чтении : 102
Способность читать области Lead-in и Lead-out : Нет
Заполнение пропущенных сэмплов тишиной : Да
Удаление блоков с тишиной в начале и конце : Нет
При вычислениях CRC использовались нулевые сэмплы : Да
Интерфейс : Встроенный Win32-интерфейс для Win NT/2000

Выходной формат : Пользовательский кодировщик
Выбранный битрейт : 768 kBit/s
Качество : Высокий
Добавление ID3-тега : Нет
Утилита сжатия : C:\Program Files (x86)\Exact Audio Copy\FLAC\FLAC.EXE
Дополнительные параметры : -6 -V -T "ARTIST=%artist%" -T "TITLE=%title%" -T "ALBUM=%albumtitle%" -T "DATE=%year%" -T "TRACKNUMBER=%tracknr%" -T "GENRE=%genre%" -T "COMMENT=%comment%" -T "BAND=%albuminterpret%" -T "ALBUMARTIST=%albuminterpret%" -T "COMPOSER=%composer%" %haslyrics%--tag-from-file=LYRICS="%lyricsfile%"%haslyrics% -T "DISCNUMBER=%cdnumber%" -T "TOTALDISCS=%totalcds%" -T "TOTALTRACKS=%numtracks%" %hascover%--picture="%coverfile%"%hascover% %source% -o %dest%


TOC извлечённого CD

Трек | Старт | Длительность | Начальный сектор | Конечный сектор
---------------------------------------------------------------------
1 | 0:00.00 | 4:02.30 | 0 | 18179
2 | 4:02.30 | 5:08.68 | 18180 | 41347
3 | 9:11.23 | 5:13.44 | 41348 | 64866
4 | 14:24.67 | 5:17.34 | 64867 | 88675
5 | 19:42.26 | 5:30.17 | 88676 | 113442
6 | 25:12.43 | 5:30.06 | 113443 | 138198
7 | 30:42.49 | 5:07.06 | 138199 | 161229
8 | 35:49.55 | 5:51.63 | 161230 | 187617


Характеристики диапазона извлечения и сообщения об ошибках

Выбранный диапазон

Имя файла C:\Users\магазин\Music\Alitor - Eternal Depression.wav

Пиковый уровень 96.4 %
Скорость извлечения 3.8 X
Качество диапазона 100.0 %
CRC теста DB599EFD
CRC копии DB599EFD
Копирование... OK

Ошибок не произошло


AccurateRip: сводка

Трек 1 : извлечено точно (доверие 2) [832345D3] (AR v2)
Трек 2 : извлечено точно (доверие 2) [14BFAA98] (AR v2)
Трек 3 : извлечено точно (доверие 2) [2AA8996F] (AR v2)
Трек 4 : извлечено точно (доверие 2) [5372CBDA] (AR v2)
Трек 5 : извлечено точно (доверие 2) [FA675179] (AR v2)
Трек 6 : извлечено точно (доверие 2) [98AA2400] (AR v2)
Трек 7 : извлечено точно (доверие 2) [2EA68294] (AR v2)
Трек 8 : извлечено точно (доверие 2) [9E92D544] (AR v2)

Все треки извлечены точно

Конец отчёта

---- CUETools DB Plugin V2.1.6

[CTDB TOCID: qAxdhVrCye3TxMjNk_JLw1Gn9m8-] found
Submit result: already submitted
Track | CTDB Status
1 | (3/3) Accurately ripped
2 | (3/3) Accurately ripped
3 | (3/3) Accurately ripped
4 | (3/3) Accurately ripped
5 | (3/3) Accurately ripped
6 | (3/3) Accurately ripped
7 | (3/3) Accurately ripped
8 | (3/3) Accurately ripped


Eternal Depression


Top
 Profile  
 
 
PostPosted: 31 Jan 2017 
консэрваторъ
User avatar
Joined: 11 Aug 2007
Posts: 16972
Lоcаtion: Псков
Age: 45
Name: Сергей
В копилочку, потом послушаем... :thanx:

_________________
THRASH 'EM ALL


Top
 Profile E-mail  
 
 
PostPosted: 31 Jan 2017 
Прокъмитолист
User avatar
Joined: 12 Aug 2007
Posts: 6557
Lоcаtion: Санктъ-Петербуркъ
Age: 51
Name: Олекъ
:thanx:

_________________
прокъметол - это музыко, от которово есть прок (ы)


Top
 Profile  
 
 
PostPosted: 31 Jan 2017 
консэрваторъ
User avatar
Joined: 11 Aug 2007
Posts: 16972
Lоcаtion: Псков
Age: 45
Name: Сергей
Всё, Серёга, подсадил меня явно на славянских трасхеров... Не ну, если на аглицком, пусть и с акцентом, то почему бы и нет... Начал с ипихи... Какойжешь здесь сочнейший выпяченный бас!.. Уровень исполнения для начинающих металлистов на высоте, задорно и мощно, послушал с удовольствием!.. Перехожу к альбому... Парням от 21-ого до 25-ти...

Image

Даже не верится, что это дебютник... Никто из них нигде раньше не играл, все собрались, и это их первая группа с 11-ого года... Но как почётно лупцуют-то и не скучно ни сколько!.. :lob:

Alitor - Eternal Depression | +

_________________
THRASH 'EM ALL


Top
 Profile E-mail  
 
 
PostPosted: 31 Jan 2017 
Я набрал 1000 сообщений!
Joined: 09 Jul 2008
Posts: 2825
Age: 45
Name: Сергей
честно гря, после 2014го года, когда услышал, и не вспоминал о них )
нравится вокал, а вот то, что нравится обоим Серегам, для меня минус - постоянные ломки ритма (


Top
 Profile  
 
 
PostPosted: 01 Feb 2017 
консэрваторъ
User avatar
Joined: 11 Aug 2007
Posts: 16972
Lоcаtion: Псков
Age: 45
Name: Сергей
Три Серёги трасхера положительно в целом альбом оценили - это много стоит здесь!.. :true:

_________________
THRASH 'EM ALL


Top
 Profile E-mail  
 
Display posts from previous:  Sort by  
Post new topic Reply to topic  [ 6 posts ] 

All times are UTC + 3 hours


Who is online

Users browsing this forum: No registered users and 2 guests


You cannot post new topics in this forum
You cannot reply to topics in this forum
You cannot edit your posts in this forum
You cannot delete your posts in this forum
You cannot post attachments in this forum

Search for:
Яндекс.Метрика
Powered by phpBB © 2000, 2002, 2005, 2007 phpBB Group