\m/ 80's metal \m/

Информационно-аналитический форум "80 см пыли" (In Search We Trust) "У нас никто никуда не спешит"
Me For You - http://me-4u.com
It is currently 19 Jun 2019

All times are UTC + 3 hours

Spoiler
Chat - temporary registration for foreign users (please leave your application here)





Forum rules


Уважаемые пользователи ресурса, друзья, коллеги и гости нашего форума. Данный раздел конференции создан с целью рафинации, и посвящён такому стилевому направлению в музыке, как Thrash Metal во всех его проявлениях и ипостасях, а иногда и переходящему на пограничные стили Speed, Power, Groove, Crossover, MDM и т.п.
Главное правило здесь одно: Одна группа – одна тема! Всё остальное созвучно основным нормам поведения на конференции.
Шаблон оформления тем в этом подфоруме должен быть основан на данных сайта www.metal-archives.com и выглядеть следующим образом:

Группа (Страна) - Стилевые рамки - дискография
Slayer (USA) - Thrash Metal - дискография


В теме допустимо размещение всей информации касающейся данного коллектива: анонсы любых альбомов в любых форматах, запросы любых релизов коллектива (кроме релизов текущего и прошлого годов), обсуждения, обзоры, а в остальном всё как обычно. Уважаем друг друга, не грубим, соблюдаем нормы поведения на конференции, оформляем анонсы и запросы красиво и информативно, что бы модераторы не посчитали их троллингом, и не отправили куда положено, выписав Вам предупреждение или ещё что похуже… Прежде чем что-то запросить или запостить, пользуемся поиском! Пользуемся поиском! ПОЛЬЗУЕМСЯ ПОИСКОМ!!! Так слышно меня?.. :pardon:
Интересного, конструктивного и креативного общения! ;)

Image



Post new topic Reply to topic  [ 9 posts ] 
Author Message
 
PostPosted: 24 Jan 2017 
Генеральный thrasher
User avatar
Joined: 03 Oct 2008
Posts: 3710
Lоcаtion: Ханты-Мансийский АО
Age: 44
Name: Сергей
Трэшак родом из Болгарии.Единственная,пока,работа,выпущенная на CD.

Image

Year:2014
Style:Speed/Thrash Metal
Country:Bulgaria
Archive:Flac+Cue+Log+Scans
Source:my CD
Size:157Mb
Label:Stormspell Records

Tracklist:
01. Guillotine (Intro) 02:36
02. Tormentor 04:38
03. Trace Of Torment 03:52
04. Circle Of Destruction 03:40
05. Cryptic Death 02:46
06. Black Rock'N'Roll (Midnight cover) 03:04

"Cue"
REM GENRE "Speed/Thrash Metal"
REM DATE 2014
REM DISCID 5204D406
REM COMMENT "ExactAudioCopy v1.1"
PERFORMER "Axecutor"
TITLE "Aggressive Extermination"
FILE "Axecutor - Aggressive Extermination.flac" WAVE
TRACK 01 AUDIO
TITLE "Guillotine (Intro)"
PERFORMER "Axecutor"
FLAGS DCP
INDEX 01 00:00:00
TRACK 02 AUDIO
TITLE "Tormentor"
PERFORMER "Axecutor"
FLAGS DCP
INDEX 00 02:34:00
INDEX 01 02:36:00
TRACK 03 AUDIO
TITLE "Trace Of Torment"
PERFORMER "Axecutor"
FLAGS DCP
INDEX 00 07:12:24
INDEX 01 07:14:24
TRACK 04 AUDIO
TITLE "Circle Of Destruction"
PERFORMER "Axecutor"
FLAGS DCP
INDEX 00 11:04:04
INDEX 01 11:06:04
TRACK 05 AUDIO
TITLE "Cryptic Death"
PERFORMER "Axecutor"
FLAGS DCP
INDEX 00 14:44:27
INDEX 01 14:46:27
TRACK 06 AUDIO
TITLE "Black Rock'N'Roll (Midnight cover)"
PERFORMER "Axecutor"
FLAGS DCP
INDEX 00 17:29:69
INDEX 01 17:31:69

"Log"
Exact Audio Copy V1.1 from 23. June 2015

Отчёт EAC об извлечении, выполненном 24. января 2017, 13:00

Axecutor / Aggressive Extermination

Дисковод: HL-DT-STDVDRAM GTA0N Adapter: 1 ID: 0

Режим чтения : Достоверность
Использование точного потока : Да
Отключение кэша аудио : Да
Использование указателей C2 : Нет

Коррекция смещения при чтении : 102
Способность читать области Lead-in и Lead-out : Нет
Заполнение пропущенных сэмплов тишиной : Да
Удаление блоков с тишиной в начале и конце : Нет
При вычислениях CRC использовались нулевые сэмплы : Да
Интерфейс : Встроенный Win32-интерфейс для Win NT/2000

Выходной формат : Пользовательский кодировщик
Выбранный битрейт : 768 kBit/s
Качество : Высокий
Добавление ID3-тега : Нет
Утилита сжатия : C:\Program Files (x86)\Exact Audio Copy\FLAC\FLAC.EXE
Дополнительные параметры : -6 -V -T "ARTIST=%artist%" -T "TITLE=%title%" -T "ALBUM=%albumtitle%" -T "DATE=%year%" -T "TRACKNUMBER=%tracknr%" -T "GENRE=%genre%" -T "COMMENT=%comment%" -T "BAND=%albuminterpret%" -T "ALBUMARTIST=%albuminterpret%" -T "COMPOSER=%composer%" %haslyrics%--tag-from-file=LYRICS="%lyricsfile%"%haslyrics% -T "DISCNUMBER=%cdnumber%" -T "TOTALDISCS=%totalcds%" -T "TOTALTRACKS=%numtracks%" %hascover%--picture="%coverfile%"%hascover% %source% -o %dest%


TOC извлечённого CD

Трек | Старт | Длительность | Начальный сектор | Конечный сектор
---------------------------------------------------------------------
1 | 0:00.00 | 2:36.00 | 0 | 11699
2 | 2:36.00 | 4:38.24 | 11700 | 32573
3 | 7:14.24 | 3:51.55 | 32574 | 49953
4 | 11:06.04 | 3:40.23 | 49954 | 66476
5 | 14:46.27 | 2:45.42 | 66477 | 78893
6 | 17:31.69 | 3:04.21 | 78894 | 92714


Характеристики диапазона извлечения и сообщения об ошибках

Выбранный диапазон

Имя файла C:\Users\магазин\Music\Axecutor - Aggressive Extermination.wav

Пиковый уровень 92.2 %
Скорость извлечения 3.3 X
Качество диапазона 100.0 %
CRC копии AA0A5468
Копирование... OK

Ошибок не произошло


AccurateRip: сводка

Трек 1 отсутствует в базе данных
Трек 2 отсутствует в базе данных
Трек 3 отсутствует в базе данных
Трек 4 отсутствует в базе данных
Трек 5 отсутствует в базе данных
Трек 6 отсутствует в базе данных

Ни одного трека нет в базе AccurateRip

Конец отчёта

---- CUETools DB Plugin V2.1.6

[CTDB TOCID: Pj8jjq1RB1FzHzt0Vo4VYGXJWzg-] found
Submit result: Pj8jjq1RB1FzHzt0Vo4VYGXJWzg- has been confirmed
Track | CTDB Status
1 | (2/2) Accurately ripped
2 | (2/2) Accurately ripped
3 | (2/2) Accurately ripped
4 | (2/2) Accurately ripped
5 | (2/2) Accurately ripped
6 | (2/2) Accurately ripped


Aggressive Extermination

http://www.metal-archives.com/bands/Axecutor/3540346032


Top
 Profile  
 
 
PostPosted: 24 Jan 2017 
Прокъмитолист
User avatar
Joined: 12 Aug 2007
Posts: 6557
Lоcаtion: Санктъ-Петербуркъ
Age: 51
Name: Олекъ
спасибо, Серёг :thanx:

_________________
прокъметол - это музыко, от которово есть прок (ы)


Top
 Profile  
 
 
PostPosted: 24 Jan 2017 
консэрваторъ
User avatar
Joined: 11 Aug 2007
Posts: 16979
Lоcаtion: Псков
Age: 45
Name: Сергей
На булгхарском?.. :oops:

_________________
THRASH 'EM ALL


Top
 Profile E-mail  
 
 
PostPosted: 24 Jan 2017 
Я набрал 1000 сообщений!
Joined: 09 Jul 2008
Posts: 2834
Age: 45
Name: Сергей
Судя по названиям песен - да!

По сабжу - после первой песни понадеялся на большее. Но слушать в любом случае можно ) Спасибо


Top
 Profile  
 
 
PostPosted: 25 Jan 2017 
Хиппей (support team)
User avatar
Joined: 30 Jul 2007
Posts: 113091
Lоcаtion: Киев (Kyiv, UA)
Age: 46
Name: Andrey
:thanx:

mirror: iFolder l Narod l M-Cloud

_________________


Top
 Profile E-mail  
 
 
PostPosted: 25 Jan 2017 
консэрваторъ
User avatar
Joined: 11 Aug 2007
Posts: 16979
Lоcаtion: Псков
Age: 45
Name: Сергей
Надо брать наверное... :scratch:

_________________
THRASH 'EM ALL


Top
 Profile E-mail  
 
 
PostPosted: 27 Jan 2017 
Хиппей (support team)
User avatar
Joined: 30 Jul 2007
Posts: 113091
Lоcаtion: Киев (Kyiv, UA)
Age: 46
Name: Andrey
Ай, ништяк :lob: :lob: :lob:
Грубый, сыроватый, трушный и мрачноватый трэшак без изысков, но не совсем прямолинейный и никак не тупое долбилово.

6+/10

_________________


Top
 Profile E-mail  
 
 
PostPosted: 28 Jan 2017 
консэрваторъ
User avatar
Joined: 11 Aug 2007
Posts: 16979
Lоcаtion: Псков
Age: 45
Name: Сергей
Axecutor - Speed Metal Assault 2012 (Demo) [256] :arrov: https://myzuka.fm/Album/586980/Axecutor ... sault-2012

Напомнило ранний Креатор... :scratch:

Kreator - Tormentor | +

Тока более заблэкованно конечно... А ещё напомнило мне одно из наших первых демо Master Of Elephants... :benya:
Не, ну иногда хочется такого тупняка рубящего, чесслово... :benya: :meloman:

_________________
THRASH 'EM ALL


Top
 Profile E-mail  
 
 
PostPosted: 29 Jan 2017 
консэрваторъ
User avatar
Joined: 11 Aug 2007
Posts: 16979
Lоcаtion: Псков
Age: 45
Name: Сергей
Честно два раза послушал ипиху... уныль унылая приблэкованная, записанная в болгарском спортзале со старыми матами...

Image

_________________
THRASH 'EM ALL


Top
 Profile E-mail  
 
Display posts from previous:  Sort by  
Post new topic Reply to topic  [ 9 posts ] 

All times are UTC + 3 hours


Who is online

Users browsing this forum: No registered users and 6 guests


You cannot post new topics in this forum
You cannot reply to topics in this forum
You cannot edit your posts in this forum
You cannot delete your posts in this forum
You cannot post attachments in this forum

Search for:
Яндекс.Метрика
Powered by phpBB © 2000, 2002, 2005, 2007 phpBB Group