\m/ 80's metal \m/

Информационно-аналитический форум "80 см пыли" (In Search We Trust) "У нас никто никуда не спешит"
Me For You - http://me-4u.com
It is currently 22 Apr 2019

All times are UTC + 3 hours

Spoiler
Chat - temporary registration for foreign users (please leave your application here)





Forum rules


Уважаемые пользователи ресурса, друзья, коллеги и гости нашего форума. Данный раздел конференции создан с целью рафинации, и посвящён такому стилевому направлению в музыке, как Thrash Metal во всех его проявлениях и ипостасях, а иногда и переходящему на пограничные стили Speed, Power, Groove, Crossover, MDM и т.п.
Главное правило здесь одно: Одна группа – одна тема! Всё остальное созвучно основным нормам поведения на конференции.
Шаблон оформления тем в этом подфоруме должен быть основан на данных сайта www.metal-archives.com и выглядеть следующим образом:

Группа (Страна) - Стилевые рамки - дискография
Slayer (USA) - Thrash Metal - дискография


В теме допустимо размещение всей информации касающейся данного коллектива: анонсы любых альбомов в любых форматах, запросы любых релизов коллектива (кроме релизов текущего и прошлого годов), обсуждения, обзоры, а в остальном всё как обычно. Уважаем друг друга, не грубим, соблюдаем нормы поведения на конференции, оформляем анонсы и запросы красиво и информативно, что бы модераторы не посчитали их троллингом, и не отправили куда положено, выписав Вам предупреждение или ещё что похуже… Прежде чем что-то запросить или запостить, пользуемся поиском! Пользуемся поиском! ПОЛЬЗУЕМСЯ ПОИСКОМ!!! Так слышно меня?.. :pardon:
Интересного, конструктивного и креативного общения! ;)

Image



Post new topic Reply to topic  [ 25 posts ]  Go to page 1, 2  Next
Author Message
 
PostPosted: 19 Nov 2016 
Генеральный thrasher
User avatar
Joined: 03 Oct 2008
Posts: 3695
Lоcаtion: Ханты-Мансийский АО
Age: 44
Name: Сергей
Image

Year:1992
Style:Thrash Metal
Country:U.S.A.
Archive:Flac+Cue+Log+Scans
Size:196Mb
Source:my CD
Label:Chase The Dragon Records

Line-Up:
Jason Mirza - bass
Kragen Lum - guitars
Vince Levalois - vocals, guitars
Mike Johnsen - drums

Tracklist:
01. Twist Of Faith 05:38
02. Lifeforce 03:50
03. Cold Is This God 04:35
04. Thoughts Of Winter 03:49
05. Remain Blind 03:16
06. Cycled Souls 04:03

"Cue"
REM GENRE "Thrash Metal"
REM DATE 1992
REM DISCID 3E05E706
REM COMMENT "ExactAudioCopy v1.1"
PERFORMER "Psychosis"
TITLE "Lifeforce"
FILE "Psychosis - Lifeforce.flac" WAVE
TRACK 01 AUDIO
TITLE "Twist of Faith"
PERFORMER "Psychosis"
INDEX 00 00:00:00
INDEX 01 00:00:37
TRACK 02 AUDIO
TITLE "Lifeforce"
PERFORMER "Psychosis"
INDEX 01 05:38:72
TRACK 03 AUDIO
TITLE "Cold Is This God"
PERFORMER "Psychosis"
INDEX 00 09:28:42
INDEX 01 09:29:07
TRACK 04 AUDIO
TITLE "Thoughts of Winter"
PERFORMER "Psychosis"
INDEX 01 14:04:10
TRACK 05 AUDIO
TITLE "Remain Blind"
PERFORMER "Psychosis"
INDEX 00 17:52:50
INDEX 01 17:52:60
TRACK 06 AUDIO
TITLE "Cycled Souls"
PERFORMER "Psychosis"
INDEX 01 21:08:47

"Log"
Exact Audio Copy V1.1 from 23. June 2015

Отчёт EAC об извлечении, выполненном 19. ноября 2016, 11:23

Psychosis / Lifeforce

Дисковод: HL-DT-STDVDRAM GTA0N Adapter: 1 ID: 0

Режим чтения : Достоверность
Использование точного потока : Да
Отключение кэша аудио : Да
Использование указателей C2 : Нет

Коррекция смещения при чтении : 102
Способность читать области Lead-in и Lead-out : Нет
Заполнение пропущенных сэмплов тишиной : Да
Удаление блоков с тишиной в начале и конце : Нет
При вычислениях CRC использовались нулевые сэмплы : Да
Интерфейс : Встроенный Win32-интерфейс для Win NT/2000

Выходной формат : Пользовательский кодировщик
Выбранный битрейт : 768 kBit/s
Качество : Высокий
Добавление ID3-тега : Нет
Утилита сжатия : C:\Program Files (x86)\Exact Audio Copy\FLAC\FLAC.EXE
Дополнительные параметры : -6 -V -T "ARTIST=%artist%" -T "TITLE=%title%" -T "ALBUM=%albumtitle%" -T "DATE=%year%" -T "TRACKNUMBER=%tracknr%" -T "GENRE=%genre%" -T "COMMENT=%comment%" -T "BAND=%albuminterpret%" -T "ALBUMARTIST=%albuminterpret%" -T "COMPOSER=%composer%" %haslyrics%--tag-from-file=LYRICS="%lyricsfile%"%haslyrics% -T "DISCNUMBER=%cdnumber%" -T "TOTALDISCS=%totalcds%" -T "TOTALTRACKS=%numtracks%" %hascover%--picture="%coverfile%"%hascover% %source% -o %dest%


TOC извлечённого CD

Трек | Старт | Длительность | Начальный сектор | Конечный сектор
---------------------------------------------------------------------
1 | 0:00.37 | 5:38.35 | 37 | 25421
2 | 5:38.72 | 3:50.10 | 25422 | 42681
3 | 9:29.07 | 4:35.03 | 42682 | 63309
4 | 14:04.10 | 3:48.50 | 63310 | 80459
5 | 17:52.60 | 3:15.62 | 80460 | 95146
6 | 21:08.47 | 4:02.58 | 95147 | 113354


Характеристики диапазона извлечения и сообщения об ошибках

Выбранный диапазон

Имя файла C:\Users\магазин\Music\Psychosis - Lifeforce.wav

Пиковый уровень 98.8 %
Скорость извлечения 3.4 X
Качество диапазона 100.0 %
CRC копии B76402D2
Копирование... OK

Ошибок не произошло


AccurateRip: сводка

Трек 1 : извлечено точно (доверие 1) [E2169DD0] (AR v1)
Трек 2 : извлечено точно (доверие 1) [9A92BC54] (AR v1)
Трек 3 : извлечено точно (доверие 1) [84144392] (AR v1)
Трек 4 : извлечено точно (доверие 1) [7C473DE7] (AR v1)
Трек 5 : извлечено точно (доверие 1) [170CA537] (AR v1)
Трек 6 : извлечено точно (доверие 1) [C66068BA] (AR v1)

Все треки извлечены точно

Конец отчёта

---- CUETools DB Plugin V2.1.6

[CTDB TOCID: rZBDkwpEjUKZyukrZ7ZAulDDX8o-] disk not present in database
Submit result: rZBDkwpEjUKZyukrZ7ZAulDDX8o- has been uploaded


Lifeforce


Image

Year:2010
Style:Thrash Metal
Country:U.S.A.
Archive:Flac+Cue+Log+Scans
Size:128Mb
Source:my CD
Label:Self-Release

Line-Up:
Bruce Hall - vocals
Vince Levalois - guitars
Kragen Lum - guitars
Jason Mirza - bass
Jimmy Schultz - drums

Tracklist:
01. Face Of War 04:35
02. Building Empires 05:40
03. Broken Man 05:13

"Cue"
REM GENRE "Thrash Metal"
REM DATE 2010
REM DISCID 2003A003
REM COMMENT "ExactAudioCopy v1.1"
PERFORMER "Psychosis"
TITLE "Psychosis"
FILE "Psychosis - Psychosis.flac" WAVE
TRACK 01 AUDIO
TITLE "Face Of War"
PERFORMER "Psychosis"
INDEX 01 00:00:00
TRACK 02 AUDIO
TITLE "Building Empires"
PERFORMER "Psychosis"
INDEX 01 04:35:17
TRACK 03 AUDIO
TITLE "Broken Man"
PERFORMER "Psychosis"
INDEX 01 10:15:23

"Log"
Exact Audio Copy V1.1 from 23. June 2015

Отчёт EAC об извлечении, выполненном 19. ноября 2016, 10:50

Psychosis / Psychosis

Дисковод: HL-DT-STDVDRAM GTA0N Adapter: 1 ID: 0

Режим чтения : Достоверность
Использование точного потока : Да
Отключение кэша аудио : Да
Использование указателей C2 : Нет

Коррекция смещения при чтении : 102
Способность читать области Lead-in и Lead-out : Нет
Заполнение пропущенных сэмплов тишиной : Да
Удаление блоков с тишиной в начале и конце : Нет
При вычислениях CRC использовались нулевые сэмплы : Да
Интерфейс : Встроенный Win32-интерфейс для Win NT/2000

Выходной формат : Пользовательский кодировщик
Выбранный битрейт : 768 kBit/s
Качество : Высокий
Добавление ID3-тега : Нет
Утилита сжатия : C:\Program Files (x86)\Exact Audio Copy\FLAC\FLAC.EXE
Дополнительные параметры : -6 -V -T "ARTIST=%artist%" -T "TITLE=%title%" -T "ALBUM=%albumtitle%" -T "DATE=%year%" -T "TRACKNUMBER=%tracknr%" -T "GENRE=%genre%" -T "COMMENT=%comment%" -T "BAND=%albuminterpret%" -T "ALBUMARTIST=%albuminterpret%" -T "COMPOSER=%composer%" %haslyrics%--tag-from-file=LYRICS="%lyricsfile%"%haslyrics% -T "DISCNUMBER=%cdnumber%" -T "TOTALDISCS=%totalcds%" -T "TOTALTRACKS=%numtracks%" %hascover%--picture="%coverfile%"%hascover% %source% -o %dest%


TOC извлечённого CD

Трек | Старт | Длительность | Начальный сектор | Конечный сектор
---------------------------------------------------------------------
1 | 0:00.00 | 4:35.17 | 0 | 20641
2 | 4:35.17 | 5:40.06 | 20642 | 46147
3 | 10:15.23 | 5:13.33 | 46148 | 69655


Характеристики диапазона извлечения и сообщения об ошибках

Выбранный диапазон

Имя файла C:\Users\магазин\Music\Psychosis - Psychosis.wav

Пиковый уровень 99.7 %
Скорость извлечения 3.0 X
Качество диапазона 100.0 %
CRC копии B26C02D9
Копирование... OK

Ошибок не произошло


AccurateRip: сводка

Трек 1 : извлечено точно (доверие 1) [520BDD0E] (AR v2)
Трек 2 : извлечено точно (доверие 1) [92902946] (AR v2)
Трек 3 : извлечено точно (доверие 1) [019F2324] (AR v2)

Все треки извлечены точно

Конец отчёта

---- CUETools DB Plugin V2.1.6

[CTDB TOCID: 74.ljGfxqWdgM9krgcAHE1qVuw8-] found
Submit result: 74.ljGfxqWdgM9krgcAHE1qVuw8- has been confirmed
Track | CTDB Status
1 | (2/2) Accurately ripped
2 | (2/2) Accurately ripped
3 | (1/2) Accurately ripped, or (1/2) differs in 6 samples @05:13:16


Psychosis

Image

Year:2012
Style:Thrash Metal
Country:U.S.A.
Archive:Flac+Cue+Log+Scans
Size:191Mb
Source:my CD
Label:Self-Release

Line-Up:
Bruce Hall - vocals
Vince Levalois - guitars
Kragen Lum - guitars
Jason Mirza - bass
Jimmy Schultz - drums

Tracklist:
01. By Our Hand 03:42
02. The Soon Dead 05:40
03. Last Breath 04:01
04. No Right From Wrong 04:51
05. Cannibalize 04:25

"Cue"
REM GENRE "Thrash Metal"
REM DATE 2012
REM DISCID 33054E05
REM COMMENT "ExactAudioCopy v1.1"
PERFORMER "Psychosis"
TITLE "By Our Hand"
FILE "Psychosis - By Our Hand.flac" WAVE
TRACK 01 AUDIO
TITLE "By Our Hand"
PERFORMER "Psychosis"
INDEX 01 00:00:00
TRACK 02 AUDIO
TITLE "The Soon Dead"
PERFORMER "Psychosis"
INDEX 01 03:41:60
TRACK 03 AUDIO
TITLE "Last Breath"
PERFORMER "Psychosis"
INDEX 01 09:21:60
TRACK 04 AUDIO
TITLE "No Right From Wrong"
PERFORMER "Psychosis"
INDEX 01 13:22:59
TRACK 05 AUDIO
TITLE "Cannibalize"
PERFORMER "Psychosis"
INDEX 01 18:14:13

"Log"
Exact Audio Copy V1.1 from 23. June 2015

Отчёт EAC об извлечении, выполненном 19. ноября 2016, 10:43

Psychosis / By Our Hand

Дисковод: HL-DT-STDVDRAM GTA0N Adapter: 1 ID: 0

Режим чтения : Достоверность
Использование точного потока : Да
Отключение кэша аудио : Да
Использование указателей C2 : Нет

Коррекция смещения при чтении : 102
Способность читать области Lead-in и Lead-out : Нет
Заполнение пропущенных сэмплов тишиной : Да
Удаление блоков с тишиной в начале и конце : Нет
При вычислениях CRC использовались нулевые сэмплы : Да
Интерфейс : Встроенный Win32-интерфейс для Win NT/2000

Выходной формат : Пользовательский кодировщик
Выбранный битрейт : 768 kBit/s
Качество : Высокий
Добавление ID3-тега : Нет
Утилита сжатия : C:\Program Files (x86)\Exact Audio Copy\FLAC\FLAC.EXE
Дополнительные параметры : -6 -V -T "ARTIST=%artist%" -T "TITLE=%title%" -T "ALBUM=%albumtitle%" -T "DATE=%year%" -T "TRACKNUMBER=%tracknr%" -T "GENRE=%genre%" -T "COMMENT=%comment%" -T "BAND=%albuminterpret%" -T "ALBUMARTIST=%albuminterpret%" -T "COMPOSER=%composer%" %haslyrics%--tag-from-file=LYRICS="%lyricsfile%"%haslyrics% -T "DISCNUMBER=%cdnumber%" -T "TOTALDISCS=%totalcds%" -T "TOTALTRACKS=%numtracks%" %hascover%--picture="%coverfile%"%hascover% %source% -o %dest%


TOC извлечённого CD

Трек | Старт | Длительность | Начальный сектор | Конечный сектор
---------------------------------------------------------------------
1 | 0:00.00 | 3:41.60 | 0 | 16634
2 | 3:41.60 | 5:40.00 | 16635 | 42134
3 | 9:21.60 | 4:00.74 | 42135 | 60208
4 | 13:22.59 | 4:51.29 | 60209 | 82062
5 | 18:14.13 | 4:24.58 | 82063 | 101920


Характеристики диапазона извлечения и сообщения об ошибках

Выбранный диапазон

Имя файла C:\Users\магазин\Music\Psychosis - By Our Hand.wav

Пиковый уровень 99.9 %
Скорость извлечения 3.3 X
Качество диапазона 100.0 %
CRC копии 430FAAF6
Копирование... OK

Ошибок не произошло


AccurateRip: сводка

Трек 1 отсутствует в базе данных
Трек 2 отсутствует в базе данных
Трек 3 отсутствует в базе данных
Трек 4 отсутствует в базе данных
Трек 5 отсутствует в базе данных

Ни одного трека нет в базе AccurateRip

Конец отчёта

---- CUETools DB Plugin V2.1.6

[CTDB TOCID: _.49qIEdzQs.cyAcLPb8xB0DCd0-] disk not present in database
Submit result: _.49qIEdzQs.cyAcLPb8xB0DCd0- has been uploaded


By Our Hand


Top
 Profile  
 
 
PostPosted: 19 Nov 2016 
Доктор энтомологии
User avatar
Joined: 22 Jan 2009
Posts: 9694
Lоcаtion: Даугавпилс
Age: 44
Name: Алексей
:thanx:


Top
 Profile  
 
 
PostPosted: 19 Nov 2016 
Генеральный thrasher
User avatar
Joined: 03 Oct 2008
Posts: 3695
Lоcаtion: Ханты-Мансийский АО
Age: 44
Name: Сергей
Первый альбом сделан с явной оглядкой на Testament...Затем , в 1993 , банда развалилась и воссоединилась лишь в 2006.Трое оригинальных членов группы по прежнему в деле.Правда Vince Levalois,певший на дебюте,нынче отвечает только за гитару.А на вокале Bruce Hall,немало поработавший в Agent Steel (c 1998 по 2007 год).


Top
 Profile  
 
 
PostPosted: 19 Nov 2016 
Прокъмитолист
User avatar
Joined: 12 Aug 2007
Posts: 6545
Lоcаtion: Санктъ-Петербуркъ
Age: 51
Name: Олекъ
спасибо, Серёг :thanx:

я бы еще добавил, что после распада товарищи Lum и Levalois организовали еще одну неплохую команду - Prototype (логотипы, кстати, практически одинаковые)). а теперь стало быть обе команды активны.

_________________
прокъметол - это музыко, от которово есть прок (ы)


Top
 Profile  
 
 
PostPosted: 19 Nov 2016 
консэрваторъ
Joined: 11 Aug 2007
Posts: 16823
Lоcаtion: Псков
Age: 45
Name: Сергей
Забираю не глядя... :thanx:
Восемь... :arrov: http://www.metal-archives.com/search/ad ... ame=#bands

_________________
THRASH 'EM ALL


Top
 Profile E-mail  
 
 
PostPosted: 19 Nov 2016 
Генеральный thrasher
User avatar
Joined: 03 Oct 2008
Posts: 3695
Lоcаtion: Ханты-Мансийский АО
Age: 44
Name: Сергей
Да-да,Серёг!Отвлекись маленько от Assassin!


Top
 Profile  
 
 
PostPosted: 19 Nov 2016 
консэрваторъ
Joined: 11 Aug 2007
Posts: 16823
Lоcаtion: Псков
Age: 45
Name: Сергей
:benya: но я всё-равно послухаю их явно не сегодня... у меня там ещё Даркнесс недособиран...

_________________
THRASH 'EM ALL


Top
 Profile E-mail  
 
 
PostPosted: 19 Nov 2016 
А может смените мне статус?..
User avatar
Joined: 28 Jul 2008
Posts: 920
Lоcаtion: Украина---Днепропетровск
Age: 44
Name: Александр
:thanx:

_________________
Музыка в которой я растворяюсь многих угнетает......


Top
 Profile  
 
 
PostPosted: 20 Nov 2016 
Хиппей (support team)
User avatar
Joined: 30 Jul 2007
Posts: 111755
Lоcаtion: Киев (Kyiv, UA)
Age: 45
Name: Andrey
:thanx:

mirror:

2010 - iFolder l Narod l M-Cloud
2012 - iFolder l Narod l M-Cloud

_________________


Top
 Profile E-mail  
 
 
PostPosted: 20 Nov 2016 
Хиппей (support team)
User avatar
Joined: 30 Jul 2007
Posts: 111755
Lоcаtion: Киев (Kyiv, UA)
Age: 45
Name: Andrey
spiralarch wrote:
организовали еще одну неплохую команду - Prototype (логотипы, кстати, практически одинаковые))

Эх, только я хотел тоже отметить =)
Обе группы слушал ранее, но Эта, вроде, более толковая.
Ещё занятно, что все три лося весят по 191 мэтру :umnik:

_________________


Top
 Profile E-mail  
 
 
PostPosted: 20 Nov 2016 
Хиппей (support team)
User avatar
Joined: 30 Jul 2007
Posts: 111755
Lоcаtion: Киев (Kyiv, UA)
Age: 45
Name: Andrey
Забираю не глядя... :thanx:
Восемь... :arrov: http://www.metal-archives.com/search/ad ... ame=#bands

Их явно больше. Не вижу чилиской и украинской, как минимум.
И ещё попробовал так поискать http://www.metal-archives.com/search?se ... =band_name тоже хорошо. Но не то... :tro:

_________________


Top
 Profile E-mail  
 
 
PostPosted: 04 Dec 2016 
консэрваторъ
Joined: 11 Aug 2007
Posts: 16823
Lоcаtion: Псков
Age: 45
Name: Сергей
Лосик концертника 2014 года... :arrov: http://www.forum.darksage.ru/forum/165-11769-1#61417
Demo 90-ого года 5$... :arrov: http://psychosisthrash.bandcamp.com/alb ... ment-bound надо... :oops:
В принципе видимо пройдет и этот вариант... :arrov: https://zachowajto.pl/!SoJHJ5bYX/psycho ... -metal-rar
Сча всё будем наслухивать!.. :true:
Хотя демка там в 128... :( явно с BC вытянут поток... А может скинемся, наберём $5?.. :oops:
Здесь... :arrov: http://metalarea.org/forum/index.php?showtopic=124732 vbr228, но звучит очень хреновенько, может первая оцифровка с той самой кассеты...
Да кароче, хрен сним, сча... :esel:

_________________
THRASH 'EM ALL


Top
 Profile E-mail  
 
 
PostPosted: 04 Dec 2016 
консэрваторъ
Joined: 11 Aug 2007
Posts: 16823
Lоcаtion: Псков
Age: 45
Name: Сергей
Psychosis - Pavement Bound 1990

Image

1. Violent Capacity 04:50
2. Neon Cross 03:07
3. Hell On Earth 03:50
4. Sea Of Anguish 06:18
5. Pavement Bound 03:33

BC wav

_________________
THRASH 'EM ALL


Top
 Profile E-mail  
 
 
PostPosted: 04 Dec 2016 
Генеральный thrasher
User avatar
Joined: 03 Oct 2008
Posts: 3695
Lоcаtion: Ханты-Мансийский АО
Age: 44
Name: Сергей
Купил что-ли,Серёг?


Top
 Profile  
 
 
PostPosted: 04 Dec 2016 
консэрваторъ
Joined: 11 Aug 2007
Posts: 16823
Lоcаtion: Псков
Age: 45
Name: Сергей
Нискажу... :blum:

_________________
THRASH 'EM ALL


Top
 Profile E-mail  
 
 
PostPosted: 04 Dec 2016 
Прокъмитолист
User avatar
Joined: 12 Aug 2007
Posts: 6545
Lоcаtion: Санктъ-Петербуркъ
Age: 51
Name: Олекъ
и этого утянем. спасибо, Серёга :thanx:

_________________
прокъметол - это музыко, от которово есть прок (ы)


Top
 Profile  
 
 
PostPosted: 04 Dec 2016 
консэрваторъ
Joined: 11 Aug 2007
Posts: 16823
Lоcаtion: Псков
Age: 45
Name: Сергей
Хороша ипиха 10-ого года!.. Слушал в наушниках, на вступление в первом треке думал, что мне ухо левое высверлят-таки... :lob:
Тутжешь, кста, уже Bruce Hall спевает после своего ухода из Agent Steel...

_________________
THRASH 'EM ALL


Top
 Profile E-mail  
 
 
PostPosted: 04 Dec 2016 
Хиппей (support team)
User avatar
Joined: 30 Jul 2007
Posts: 111755
Lоcаtion: Киев (Kyiv, UA)
Age: 45
Name: Andrey
splatty wrote:
Psychosis - Pavement Bound 1990

:thanx:

mirror: iFolder l Narod l M-Cloud

_________________


Top
 Profile E-mail  
 
 
PostPosted: 04 Dec 2016 
Доктор энтомологии
User avatar
Joined: 22 Jan 2009
Posts: 9694
Lоcаtion: Даугавпилс
Age: 44
Name: Алексей
:lob: :thanx:


Top
 Profile  
 
 
PostPosted: 06 Dec 2016 
Хиппей (support team)
User avatar
Joined: 30 Jul 2007
Posts: 111755
Lоcаtion: Киев (Kyiv, UA)
Age: 45
Name: Andrey
splatty wrote:
Psychosis - Pavement Bound 1990

Примивненький забойный трэшак в духе эээ.. допустим, "Коррозии Металла". Чего-то не могу найти подобного дальнезарубежного аналога :vic: Первые демо Креатора или Содома?.. :vic:
Быстро, шумно, почти на трёх нотах. Песня от песни отличает лишь лирика, в общем, и вступления.
Рип с кассеты юзаной.

3/10

_________________


Top
 Profile E-mail  
 
Display posts from previous:  Sort by  
Post new topic Reply to topic  [ 25 posts ]  Go to page 1, 2  Next

All times are UTC + 3 hours


Who is online

Users browsing this forum: No registered users and 2 guests


You cannot post new topics in this forum
You cannot reply to topics in this forum
You cannot edit your posts in this forum
You cannot delete your posts in this forum
You cannot post attachments in this forum

Search for:
Яндекс.Метрика
Powered by phpBB © 2000, 2002, 2005, 2007 phpBB Group