\m/ 80's metal \m/

Информационно-аналитический форум "80 см пыли" (In Search We Trust) "У нас никто никуда не спешит"
Me For You - http://me-4u.com
It is currently 23 Apr 2019

All times are UTC + 3 hours

Spoiler
Chat - temporary registration for foreign users (please leave your application here)





Forum rules


Уважаемые пользователи ресурса, друзья, коллеги и гости нашего форума. Данный раздел конференции создан с целью рафинации, и посвящён такому стилевому направлению в музыке, как Thrash Metal во всех его проявлениях и ипостасях, а иногда и переходящему на пограничные стили Speed, Power, Groove, Crossover, MDM и т.п.
Главное правило здесь одно: Одна группа – одна тема! Всё остальное созвучно основным нормам поведения на конференции.
Шаблон оформления тем в этом подфоруме должен быть основан на данных сайта www.metal-archives.com и выглядеть следующим образом:

Группа (Страна) - Стилевые рамки - дискография
Slayer (USA) - Thrash Metal - дискография


В теме допустимо размещение всей информации касающейся данного коллектива: анонсы любых альбомов в любых форматах, запросы любых релизов коллектива (кроме релизов текущего и прошлого годов), обсуждения, обзоры, а в остальном всё как обычно. Уважаем друг друга, не грубим, соблюдаем нормы поведения на конференции, оформляем анонсы и запросы красиво и информативно, что бы модераторы не посчитали их троллингом, и не отправили куда положено, выписав Вам предупреждение или ещё что похуже… Прежде чем что-то запросить или запостить, пользуемся поиском! Пользуемся поиском! ПОЛЬЗУЕМСЯ ПОИСКОМ!!! Так слышно меня?.. :pardon:
Интересного, конструктивного и креативного общения! ;)

Image



Post new topic Reply to topic  [ 73 posts ]  Go to page Previous  1, 2, 3, 4  Next
Author Message
 
PostPosted: 23 Mar 2017 
Хиппей (support team)
User avatar
Joined: 30 Jul 2007
Posts: 111788
Lоcаtion: Киев (Kyiv, UA)
Age: 45
Name: Andrey
Кхм, оказывается, второй раз перезалил и в который раз слушапл альбом.. -)
Но как мнение то поменялось за короткий срок :crazy:



Слеплю оба топика.

_________________


Top
 Profile E-mail  
 
 
PostPosted: 23 Mar 2017 
консэрваторъ
Joined: 11 Aug 2007
Posts: 16827
Lоcаtion: Псков
Age: 45
Name: Сергей
Фотки починил, тока всё посдыхвши по ссылям... :oops:

_________________
THRASH 'EM ALL


Top
 Profile E-mail  
 
 
PostPosted: 23 Mar 2017 
Хиппей (support team)
User avatar
Joined: 30 Jul 2007
Posts: 111788
Lоcаtion: Киев (Kyiv, UA)
Age: 45
Name: Andrey
Ай, фотки то фигня. Щас бы лося первого альбома починить :lloo:

_________________


Top
 Profile E-mail  
 
 
PostPosted: 23 Mar 2017 
консэрваторъ
Joined: 11 Aug 2007
Posts: 16827
Lоcаtion: Псков
Age: 45
Name: Сергей
Хорошо легло, кучно... акурат между нами (© почти)...

_________________
THRASH 'EM ALL


Top
 Profile E-mail  
 
 
PostPosted: 23 Mar 2017 
Хиппей (support team)
User avatar
Joined: 30 Jul 2007
Posts: 111788
Lоcаtion: Киев (Kyiv, UA)
Age: 45
Name: Andrey
Запрос в середину влез. Ну да хрен с ним, главное первый альбом в лосе залить :kro:

_________________


Top
 Profile E-mail  
 
 
PostPosted: 24 Mar 2017 
Генеральный thrasher
User avatar
Joined: 03 Oct 2008
Posts: 3695
Lоcаtion: Ханты-Мансийский АО
Age: 44
Name: Сергей
Ну да хрен с ним, главное первый альбом в лосе залить :kro:


Scarlet Slaughterer что ли?


Top
 Profile  
 
 
PostPosted: 24 Mar 2017 
консэрваторъ
Joined: 11 Aug 2007
Posts: 16827
Lоcаtion: Псков
Age: 45
Name: Сергей
Ога...

_________________
THRASH 'EM ALL


Top
 Profile E-mail  
 
 
PostPosted: 24 Mar 2017 
Генеральный thrasher
User avatar
Joined: 03 Oct 2008
Posts: 3695
Lоcаtion: Ханты-Мансийский АО
Age: 44
Name: Сергей
Поищу..


Top
 Profile  
 
 
PostPosted: 24 Mar 2017 
Генеральный thrasher
User avatar
Joined: 03 Oct 2008
Posts: 3695
Lоcаtion: Ханты-Мансийский АО
Age: 44
Name: Сергей
Image

"Cue"
REM DISCID 050F0A13
REM COMMENT "ExactAudioCopy v0.95b4"
PERFORMER "Magnus"
TITLE "Scarlet Slaughterer"
FILE "Magnus - Scarlet Slaughterer.wav" WAVE
TRACK 01 AUDIO
TITLE "Trash Attack"
PERFORMER "Magnus"
INDEX 01 00:00:00
TRACK 02 AUDIO
TITLE "Tomb"
PERFORMER "Magnus"
INDEX 00 02:39:72
INDEX 01 02:41:72
TRACK 03 AUDIO
TITLE "Pharisee"
PERFORMER "Magnus"
INDEX 00 07:01:14
INDEX 01 07:03:14
TRACK 04 AUDIO
TITLE "Confession"
PERFORMER "Magnus"
INDEX 00 11:08:08
INDEX 01 11:10:08
TRACK 05 AUDIO
TITLE "Crosses Of War"
PERFORMER "Magnus"
INDEX 00 15:05:35
INDEX 01 15:07:35
TRACK 06 AUDIO
TITLE "Messenger Of Hell"
PERFORMER "Magnus"
INDEX 00 20:12:31
INDEX 01 20:14:31
TRACK 07 AUDIO
TITLE "Scarlet Slaughterer"
PERFORMER "Magnus"
INDEX 00 24:55:57
INDEX 01 24:57:57
TRACK 08 AUDIO
TITLE "Man Condemned"
PERFORMER "Magnus"
INDEX 00 28:15:12
INDEX 01 28:17:12
TRACK 09 AUDIO
TITLE "Destruction"
PERFORMER "Magnus"
INDEX 00 30:01:32
INDEX 01 30:03:32
TRACK 10 AUDIO
TITLE "Leprosy"
PERFORMER "Magnus"
INDEX 00 33:16:56
INDEX 01 33:18:56
TRACK 11 AUDIO
TITLE "Rabies"
PERFORMER "Magnus"
INDEX 00 36:26:32
INDEX 01 36:28:32
TRACK 12 AUDIO
TITLE "Achtung Magnus!!!"
PERFORMER "Magnus"
INDEX 00 37:57:49
INDEX 01 37:59:49
TRACK 13 AUDIO
TITLE "Pharisee"
PERFORMER "Magnus"
INDEX 00 38:20:33
INDEX 01 38:22:33
TRACK 14 AUDIO
TITLE "Crosses of War (intro) / Rabies"
PERFORMER "Magnus"
INDEX 00 41:57:41
INDEX 01 41:59:41
TRACK 15 AUDIO
TITLE "Pielgryzm czarnych szat"
PERFORMER "Magnus"
INDEX 00 43:50:06
INDEX 01 43:52:06
TRACK 16 AUDIO
TITLE "Faryzeusz"
PERFORMER "Magnus"
INDEX 00 48:42:18
INDEX 01 48:44:18
TRACK 17 AUDIO
TITLE "Krzyze wojny"
PERFORMER "Magnus"
INDEX 00 52:40:44
INDEX 01 52:42:44
TRACK 18 AUDIO
TITLE "Szkarlatny rzeznik"
PERFORMER "Magnus"
INDEX 00 57:48:61
INDEX 01 57:50:61
TRACK 19 AUDIO
TITLE "Trad"
PERFORMER "Magnus"
INDEX 00 61:03:15
INDEX 01 61:05:15

"Log"
EAC extraction logfile from 4. December 2010, 15:42 for CD
Magnus / Scarlet Slaughterer

Used drive : Optiarc DVD RW AD-5240S Adapter: 2 ID: 1
Read mode : Secure with NO C2, accurate stream, disable cache
Read offset correction : 48
Overread into Lead-In and Lead-Out : No

Used output format : Internal WAV Routines
44.100 Hz; 16 Bit; Stereo

Other options :
Fill up missing offset samples with silence : Yes
Delete leading and trailing silent blocks : No
Installed external ASPI interface


Range status and errors
Selected range
Filename C:\EAC\Magnus - Scarlet Slaughterer.wav

Peak level 89.5 %
Range quality 100.0 %
CRC A2CCD3EA
Copy OK

No errors occured

End of status report



Scarlet Slaughterer


Top
 Profile  
 
 
PostPosted: 24 Mar 2017 
Хиппей (support team)
User avatar
Joined: 30 Jul 2007
Posts: 111788
Lоcаtion: Киев (Kyiv, UA)
Age: 45
Name: Andrey
Серёг, спасибо :thanx: :lob:

_________________


Top
 Profile E-mail  
 
 
PostPosted: 24 Mar 2017 
Хиппей (support team)
User avatar
Joined: 30 Jul 2007
Posts: 111788
Lоcаtion: Киев (Kyiv, UA)
Age: 45
Name: Andrey
Ой, Серёг, а может у тебя и все остальные три есть?

_________________


Top
 Profile E-mail  
 
 
PostPosted: 24 Mar 2017 
Генеральный thrasher
User avatar
Joined: 03 Oct 2008
Posts: 3695
Lоcаtion: Ханты-Мансийский АО
Age: 44
Name: Сергей
Acceptance Of Death у Оксаны на старом форуме есть.Ссылка живая.А I Was Watching My Death + The Gods of the Crime есть вот это издание - http://www.metal-archives.com/albums/Ma ... ath/466040

Но лось никакой.Потрэковый без картинков.


Top
 Profile  
 
 
PostPosted: 24 Mar 2017 
Хиппей (support team)
User avatar
Joined: 30 Jul 2007
Posts: 111788
Lоcаtion: Киев (Kyiv, UA)
Age: 45
Name: Andrey
thorbeorn wrote:
Acceptance Of Death у Оксаны на старом форуме есть.Ссылка живая.

:thanx:

Magnus - 1989 - Scarlet Slaughterer (reissued 2012) [flac]

Image Image Image Image

mirror: Depos l Narod l M-Cloud

Остальное явно где-то тоже да есть.

log
EAC extraction logfile from 4. December 2010, 15:42 for CD
Magnus / Scarlet Slaughterer

Used drive : Optiarc DVD RW AD-5240S Adapter: 2 ID: 1
Read mode : Secure with NO C2, accurate stream, disable cache
Read offset correction : 48
Overread into Lead-In and Lead-Out : No

Used output format : Internal WAV Routines
44.100 Hz; 16 Bit; Stereo

Other options :
Fill up missing offset samples with silence : Yes
Delete leading and trailing silent blocks : No
Installed external ASPI interface


Range status and errors
Selected range
Filename C:\EAC\Magnus - Scarlet Slaughterer.wav

Peak level 89.5 %
Range quality 100.0 %
CRC A2CCD3EA
Copy OK

No errors occured

End of status report

cue
REM DISCID 050F0A13
REM COMMENT "ExactAudioCopy v0.95b4"
PERFORMER "Magnus"
TITLE "Scarlet Slaughterer"
FILE "Magnus - Scarlet Slaughterer.wav" WAVE
TRACK 01 AUDIO
TITLE "Trash Attack"
PERFORMER "Magnus"
INDEX 01 00:00:00
TRACK 02 AUDIO
TITLE "Tomb"
PERFORMER "Magnus"
INDEX 00 02:39:72
INDEX 01 02:41:72
TRACK 03 AUDIO
TITLE "Pharisee"
PERFORMER "Magnus"
INDEX 00 07:01:14
INDEX 01 07:03:14
TRACK 04 AUDIO
TITLE "Confession"
PERFORMER "Magnus"
INDEX 00 11:08:08
INDEX 01 11:10:08
TRACK 05 AUDIO
TITLE "Crosses Of War"
PERFORMER "Magnus"
INDEX 00 15:05:35
INDEX 01 15:07:35
TRACK 06 AUDIO
TITLE "Messenger Of Hell"
PERFORMER "Magnus"
INDEX 00 20:12:31
INDEX 01 20:14:31
TRACK 07 AUDIO
TITLE "Scarlet Slaughterer"
PERFORMER "Magnus"
INDEX 00 24:55:57
INDEX 01 24:57:57
TRACK 08 AUDIO
TITLE "Man Condemned"
PERFORMER "Magnus"
INDEX 00 28:15:12
INDEX 01 28:17:12
TRACK 09 AUDIO
TITLE "Destruction"
PERFORMER "Magnus"
INDEX 00 30:01:32
INDEX 01 30:03:32
TRACK 10 AUDIO
TITLE "Leprosy"
PERFORMER "Magnus"
INDEX 00 33:16:56
INDEX 01 33:18:56
TRACK 11 AUDIO
TITLE "Rabies"
PERFORMER "Magnus"
INDEX 00 36:26:32
INDEX 01 36:28:32
TRACK 12 AUDIO
TITLE "Achtung Magnus!!!"
PERFORMER "Magnus"
INDEX 00 37:57:49
INDEX 01 37:59:49
TRACK 13 AUDIO
TITLE "Pharisee"
PERFORMER "Magnus"
INDEX 00 38:20:33
INDEX 01 38:22:33
TRACK 14 AUDIO
TITLE "Crosses of War (intro) / Rabies"
PERFORMER "Magnus"
INDEX 00 41:57:41
INDEX 01 41:59:41
TRACK 15 AUDIO
TITLE "Pielgryzm czarnych szat"
PERFORMER "Magnus"
INDEX 00 43:50:06
INDEX 01 43:52:06
TRACK 16 AUDIO
TITLE "Faryzeusz"
PERFORMER "Magnus"
INDEX 00 48:42:18
INDEX 01 48:44:18
TRACK 17 AUDIO
TITLE "Krzyze wojny"
PERFORMER "Magnus"
INDEX 00 52:40:44
INDEX 01 52:42:44
TRACK 18 AUDIO
TITLE "Szkarlatny rzeznik"
PERFORMER "Magnus"
INDEX 00 57:48:61
INDEX 01 57:50:61
TRACK 19 AUDIO
TITLE "Trad"
PERFORMER "Magnus"
INDEX 00 61:03:15
INDEX 01 61:05:15

_________________


Top
 Profile E-mail  
 
 
PostPosted: 24 Mar 2017 
Генеральный thrasher
User avatar
Joined: 03 Oct 2008
Posts: 3695
Lоcаtion: Ханты-Мансийский АО
Age: 44
Name: Сергей
Да что-то я поостыл к данному коллективу.А потому больше ничего не искал.


Top
 Profile  
 
 
PostPosted: 24 Mar 2017 
Хиппей (support team)
User avatar
Joined: 30 Jul 2007
Posts: 111788
Lоcаtion: Киев (Kyiv, UA)
Age: 45
Name: Andrey
Ага, понял.
А меня наоборот, со второго раза зацепило :kro:

_________________


Top
 Profile E-mail  
 
 
PostPosted: 24 Mar 2017 
Доктор энтомологии
User avatar
Joined: 22 Jan 2009
Posts: 9694
Lоcаtion: Даугавпилс
Age: 44
Name: Алексей
Помню, что музыканты очень трушные, в гвоздях все :blak: . Надо освежить музыку в памяти Image


Top
 Profile  
 
 
PostPosted: 24 Mar 2017 
А может смените мне статус?..
User avatar
Joined: 17 Jan 2008
Posts: 879
Lоcаtion: Пенза
Age: 41
Name: Денис
Image

Альбом: I Was Watching My Death + The Gods of the Crime
Издатель: Meth Head Records 2012

| +
https://cloud.mail.ru/public/7xR6/EVw49PSpY


Top
 Profile  
 
 
PostPosted: 24 Mar 2017 
Хиппей (support team)
User avatar
Joined: 30 Jul 2007
Posts: 111788
Lоcаtion: Киев (Kyiv, UA)
Age: 45
Name: Andrey
Scatterbrain wrote:
Magnus - 1989 - Scarlet Slaughterer

Сыровато-злобно-дуболомный и довольно прямолинейный Speed Thrash, который хочется слушать и при этом, как минимум что-то запихивать и выпихивать. Например, грибы из банки. Туда и обратно, обратно и снова в банку и так до тех пор, пока они не пустят корни :nuu:

7/10

_________________


Top
 Profile E-mail  
 
 
PostPosted: 24 Mar 2017 
Хиппей (support team)
User avatar
Joined: 30 Jul 2007
Posts: 111788
Lоcаtion: Киев (Kyiv, UA)
Age: 45
Name: Andrey
klod77 wrote:
Magnus - 1991 - I Was Watching My Death + 1992 - The Gods of the Crime (remaster 2012)

Денис, спасибо! :thanx: :lob: :lob: :lob:

Image

mirror: Depos l Narod l M-Cloud


Image Image
Image Image
Image Image Image

log
Exact Audio Copy V1.0 beta 4 from 7. December 2014

EAC extraction logfile from 19. November 2016, 10:27

Magnus / I Was Watching My Death

Used drive : HL-DT-STDVDRAM GH20NS10 Adapter: 1 ID: 0

Read mode : Secure
Utilize accurate stream : Yes
Defeat audio cache : Yes
Make use of C2 pointers : No

Read offset correction : 667
Overread into Lead-In and Lead-Out : No
Fill up missing offset samples with silence : Yes
Delete leading and trailing silent blocks : No
Null samples used in CRC calculations : Yes
Used interface : Native Win32 interface for Win NT & 2000

Used output format : User Defined Encoder
Selected bitrate : 768 kBit/s
Quality : High
Add ID3 tag : No
Command line compressor : C:\Program Files\Exact Audio Copy\FLAC\FLAC.EXE
Additional command line options : -6 -V -T "ARTIST=%artist%" -T "TITLE=%title%" -T "ALBUM=%albumtitle%" -T "DATE=%year%" -T "TRACKNUMBER=%tracknr%" -T "GENRE=%genre%" -T "COMMENT=%comment%" -T "BAND=%albuminterpret%" -T "ALBUMARTIST=%albuminterpret%" -T "COMPOSER=%composer%" %haslyrics%--tag-from-file=LYRICS="%lyricsfile%"%haslyrics% -T "DISCNUMBER=%cdnumber%" -T "TOTALDISCS=%totalcds%" -T "TOTALTRACKS=%numtracks%" %hascover%--picture="%coverfile%"%hascover% %source% -o %dest%


TOC of the extracted CD

Track | Start | Length | Start sector | End sector
---------------------------------------------------------
1 | 0:00.00 | 3:47.62 | 0 | 17086
2 | 3:47.62 | 4:04.12 | 17087 | 35398
3 | 7:51.74 | 3:57.25 | 35399 | 53198
4 | 11:49.24 | 3:22.53 | 53199 | 68401
5 | 15:12.02 | 4:04.05 | 68402 | 86706
6 | 19:16.07 | 4:02.60 | 86707 | 104916
7 | 23:18.67 | 4:40.57 | 104917 | 125973
8 | 27:59.49 | 3:27.28 | 125974 | 141526
9 | 31:27.02 | 3:08.50 | 141527 | 155676
10 | 34:35.52 | 3:09.02 | 155677 | 169853
11 | 37:44.54 | 2:46.43 | 169854 | 182346
12 | 40:31.22 | 3:10.00 | 182347 | 196596
13 | 43:41.22 | 3:13.25 | 196597 | 211096
14 | 46:54.47 | 2:52.32 | 211097 | 224028
15 | 49:47.04 | 3:34.71 | 224029 | 240149
16 | 53:22.00 | 3:03.53 | 240150 | 253927
17 | 56:25.53 | 4:00.73 | 253928 | 272000
18 | 60:26.51 | 4:26.53 | 272001 | 292003
19 | 64:53.29 | 4:18.07 | 292004 | 311360
20 | 69:11.36 | 3:58.74 | 311361 | 329284
21 | 73:10.35 | 4:00.59 | 329285 | 347343


Range status and errors

Selected range

Filename G:\Новая папка\Magnus - I Was Watching My Death.wav

Peak level 29.4 %
Extraction speed 6.2 X
Range quality 100.0 %
Copy CRC 805DD22E
Copy OK

No errors occurred


AccurateRip summary

Track 1 not present in database
Track 2 not present in database
Track 3 not present in database
Track 4 not present in database
Track 5 not present in database
Track 6 not present in database
Track 7 not present in database
Track 8 not present in database
Track 9 not present in database
Track 10 not present in database
Track 11 not present in database
Track 12 not present in database
Track 13 not present in database
Track 14 not present in database
Track 15 not present in database
Track 16 not present in database
Track 17 not present in database
Track 18 not present in database
Track 19 not present in database
Track 20 not present in database
Track 21 not present in database

None of the tracks are present in the AccurateRip database

End of status report

---- CUETools DB Plugin V2.1.4

[CTDB TOCID: YSE49NLLhypPAO6TbyqTTKDsxJA-] found
Submit result: already submitted
Track | CTDB Status
1 | (1/1) Accurately ripped
2 | (1/1) Accurately ripped
3 | (1/1) Accurately ripped
4 | (1/1) Accurately ripped
5 | (1/1) Accurately ripped
6 | (1/1) Accurately ripped
7 | (1/1) Accurately ripped
8 | (1/1) Accurately ripped
9 | (1/1) Accurately ripped
10 | (1/1) Accurately ripped
11 | (1/1) Accurately ripped
12 | (1/1) Accurately ripped
13 | (1/1) Accurately ripped
14 | (1/1) Accurately ripped
15 | (1/1) Accurately ripped
16 | (1/1) Accurately ripped
17 | (1/1) Accurately ripped
18 | (1/1) Accurately ripped
19 | (1/1) Accurately ripped
20 | (1/1) Accurately ripped
21 | (1/1) Accurately ripped


==== Log checksum FB32A6BEE6FE80437A08370FC76C5528D45FD0EB75491E75A27E4C9E049B0EBF ====

cue
REM DATE 2012
REM DISCID 42121715
REM COMMENT "ExactAudioCopy v1.0b4"
PERFORMER "Magnus"
TITLE "I Was Watching My Death"
FILE "Magnus - I Was Watching My Death.flac" WAVE
TRACK 01 AUDIO
TITLE "Psychoses"
PERFORMER "Magnus"
INDEX 01 00:00:00
TRACK 02 AUDIO
TITLE "Opresor"
PERFORMER "Magnus"
INDEX 00 03:45:62
INDEX 01 03:47:62
TRACK 03 AUDIO
TITLE "The Dictator"
PERFORMER "Magnus"
INDEX 00 07:49:74
INDEX 01 07:51:74
TRACK 04 AUDIO
TITLE "Gods of the Crime"
PERFORMER "Magnus"
INDEX 00 11:47:24
INDEX 01 11:49:24
TRACK 05 AUDIO
TITLE "Hackenkreuz"
PERFORMER "Magnus"
INDEX 00 15:10:02
INDEX 01 15:12:02
TRACK 06 AUDIO
TITLE "Terminator"
PERFORMER "Magnus"
INDEX 00 19:14:07
INDEX 01 19:16:07
TRACK 07 AUDIO
TITLE "Sneering Whisper"
PERFORMER "Magnus"
INDEX 00 23:16:67
INDEX 01 23:18:67
TRACK 08 AUDIO
TITLE "I Was Watching My Death"
PERFORMER "Magnus"
INDEX 00 27:57:49
INDEX 01 27:59:49
TRACK 09 AUDIO
TITLE "That Is the Reason I'd Like You to Die..."
PERFORMER "Magnus"
INDEX 00 31:25:02
INDEX 01 31:27:02
TRACK 10 AUDIO
TITLE "A Way to the Cross"
PERFORMER "Magnus"
INDEX 00 34:33:52
INDEX 01 34:35:52
TRACK 11 AUDIO
TITLE "Ragnarok"
PERFORMER "Magnus"
INDEX 00 37:42:54
INDEX 01 37:44:54
TRACK 12 AUDIO
TITLE "I Was Watching My Death (demo)"
PERFORMER "Magnus"
INDEX 00 40:29:22
INDEX 01 40:31:22
TRACK 13 AUDIO
TITLE "Gods of the Crime (demo)"
PERFORMER "Magnus"
INDEX 00 43:39:22
INDEX 01 43:41:22
TRACK 14 AUDIO
TITLE "A Way to the Cross (demo)"
PERFORMER "Magnus"
INDEX 00 46:52:47
INDEX 01 46:54:47
TRACK 15 AUDIO
TITLE "The Dictator (demo)"
PERFORMER "Magnus"
INDEX 00 49:45:04
INDEX 01 49:47:04
TRACK 16 AUDIO
TITLE "That Is the Reason I'd Like You to Die... (demo)"
PERFORMER "Magnus"
INDEX 00 53:20:00
INDEX 01 53:22:00
TRACK 17 AUDIO
TITLE "Psychoses (demo)"
PERFORMER "Magnus"
INDEX 00 56:23:53
INDEX 01 56:25:53
TRACK 18 AUDIO
TITLE "Sneering Whisper (demo)"
PERFORMER "Magnus"
INDEX 00 60:24:51
INDEX 01 60:26:51
TRACK 19 AUDIO
TITLE "Hackenkreuz (demo)"
PERFORMER "Magnus"
INDEX 00 64:51:29
INDEX 01 64:53:29
TRACK 20 AUDIO
TITLE "Terminator (demo)"
PERFORMER "Magnus"
INDEX 00 69:09:36
INDEX 01 69:11:36
TRACK 21 AUDIO
TITLE "South of Heaven (demo)"
PERFORMER "Magnus"
INDEX 00 73:08:35
INDEX 01 73:10:35

_________________


Top
 Profile E-mail  
 
 
PostPosted: 24 Mar 2017 
Хиппей (support team)
User avatar
Joined: 30 Jul 2007
Posts: 111788
Lоcаtion: Киев (Kyiv, UA)
Age: 45
Name: Andrey
Magnus - 2010 - Acceptance Of Death [ape]

Image Image Image

mirror: Depos l Narod l M-Cloud

Ух-ты, настоящий Death Metal :shok:
Можно даже смело лепить приставку - Brutal :kro:

7/10

Image Image Image

log
Exact Audio Copy V0.99 prebeta 5 from 4. May 2009

EAC extraction logfile from 27. November 2010, 22:46

MAGNUS / Acceptance Of Death

Used drive : Optiarc DVD RW AD-7203A Adapter: 0 ID: 1

Read mode : Secure
Utilize accurate stream : Yes
Defeat audio cache : Yes
Make use of C2 pointers : No

Read offset correction : 48
Overread into Lead-In and Lead-Out : No
Fill up missing offset samples with silence : Yes
Delete leading and trailing silent blocks : No
Null samples used in CRC calculations : Yes
Used interface : Native Win32 interface for Win NT & 2000

Used output format : Monkey's Audio Lossless Encoder
Selected bitrate : Normal Lossless Compression
Quality : High
Add ID3 tag : No
Command line compressor : C:\Program Files (x86)\Monkey's Audio\MAC.exe
Additional command line options : -6 -V -T "ARTIST=%a" -T "TITLE=%t" -T "ALBUM=%g" -T %s -o %d


TOC of the extracted CD

Track | Start | Length | Start sector | End sector
---------------------------------------------------------
1 | 0:00.00 | 2:55.01 | 0 | 13125
2 | 2:55.01 | 2:53.05 | 13126 | 26105
3 | 5:48.06 | 3:34.20 | 26106 | 42175
4 | 9:22.26 | 3:45.68 | 42176 | 59118
5 | 13:08.19 | 2:17.19 | 59119 | 69412
6 | 15:25.38 | 2:28.13 | 69413 | 80525
7 | 17:53.51 | 2:40.40 | 80526 | 92565
8 | 20:34.16 | 3:02.45 | 92566 | 106260
9 | 23:36.61 | 3:22.44 | 106261 | 121454
10 | 26:59.30 | 2:03.68 | 121455 | 130747
11 | 29:03.23 | 2:34.10 | 130748 | 142307
12 | 31:37.33 | 2:50.36 | 142308 | 155093
13 | 34:27.69 | 3:48.30 | 155094 | 172223


Range status and errors

Selected range

Filename H:\DEN@K\MeTaLMaDNeSS\MAGNUS - Acceptance Of Death 2010\MAGNUS - Acceptance Of Death.wav

Peak level 100.0 %
Range quality 100.0 %
Test CRC 5F9AF8A6
Copy CRC 5F9AF8A6
Copy OK

No errors occurred


AccurateRip summary

Track 1 not present in database
Track 2 not present in database
Track 3 not present in database
Track 4 not present in database
Track 5 not present in database
Track 6 not present in database
Track 7 not present in database
Track 8 not present in database
Track 9 not present in database
Track 10 not present in database
Track 11 not present in database
Track 12 not present in database
Track 13 not present in database

None of the tracks are present in the AccurateRip database

End of status report

cue
REM GENRE "Death/Thrash Metal"
REM DATE 2010
REM DISCID B808F80D
REM COMMENT "ExactAudioCopy v0.99pb5"
PERFORMER "MAGNUS"
TITLE "Acceptance Of Death"
FILE "MAGNUS - Acceptance Of Death.ape" WAVE
TRACK 01 AUDIO
TITLE "False God"
PERFORMER "MAGNUS"
ISRC PLD701000001
INDEX 01 00:00:00
TRACK 02 AUDIO
TITLE "Appear"
PERFORMER "MAGNUS"
ISRC PLD701000002
INDEX 00 02:53:65
INDEX 01 02:55:01
TRACK 03 AUDIO
TITLE "Spirits"
PERFORMER "MAGNUS"
ISRC PLD701000003
INDEX 00 05:47:01
INDEX 01 05:48:06
TRACK 04 AUDIO
TITLE "Essence"
PERFORMER "MAGNUS"
ISRC PLD701000004
INDEX 00 09:21:67
INDEX 01 09:22:26
TRACK 05 AUDIO
TITLE "Worm"
PERFORMER "MAGNUS"
ISRC PLD701000005
INDEX 00 13:07:28
INDEX 01 13:08:19
TRACK 06 AUDIO
TITLE "To Understand Death"
PERFORMER "MAGNUS"
ISRC PLD701000006
INDEX 00 15:24:70
INDEX 01 15:25:38
TRACK 07 AUDIO
TITLE "Nothing More"
PERFORMER "MAGNUS"
ISRC PLD701000007
INDEX 00 17:52:62
INDEX 01 17:53:51
TRACK 08 AUDIO
TITLE "Private Religions"
PERFORMER "MAGNUS"
ISRC PLD701000008
INDEX 00 20:32:01
INDEX 01 20:34:16
TRACK 09 AUDIO
TITLE "When You Rest 6 Feet Under"
PERFORMER "MAGNUS"
ISRC PLD701000009
INDEX 00 23:26:53
INDEX 01 23:36:61
TRACK 10 AUDIO
TITLE "They'll Bury"
PERFORMER "MAGNUS"
ISRC PLD701000010
INDEX 00 26:57:30
INDEX 01 26:59:30
TRACK 11 AUDIO
TITLE "Mournful Song"
PERFORMER "MAGNUS"
ISRC PLD701000011
INDEX 00 29:03:21
INDEX 01 29:03:23
TRACK 12 AUDIO
TITLE "Just Like Life"
PERFORMER "MAGNUS"
ISRC PLD701000012
INDEX 00 31:37:10
INDEX 01 31:37:33
TRACK 13 AUDIO
TITLE "Ther's No Use Lamenting"
PERFORMER "MAGNUS"
ISRC PLD701000013
INDEX 00 34:27:34
INDEX 01 34:27:69

_________________


Top
 Profile E-mail  
 
Display posts from previous:  Sort by  
Post new topic Reply to topic  [ 73 posts ]  Go to page Previous  1, 2, 3, 4  Next

All times are UTC + 3 hours


Who is online

Users browsing this forum: No registered users and 4 guests


You cannot post new topics in this forum
You cannot reply to topics in this forum
You cannot edit your posts in this forum
You cannot delete your posts in this forum
You cannot post attachments in this forum

Search for:
Яндекс.Метрика
Powered by phpBB © 2000, 2002, 2005, 2007 phpBB Group