\m/ 80's metal \m/

Информационно-аналитический форум "80 см пыли" (In Search We Trust) "У нас никто никуда не спешит"
Me For You - http://me-4u.com
It is currently 25 Jun 2019

All times are UTC + 3 hours

Spoiler
Chat - temporary registration for foreign users (please leave your application here)





Forum rules


Уважаемые пользователи ресурса, друзья, коллеги и гости нашего форума. Данный раздел конференции создан с целью рафинации, и посвящён такому стилевому направлению в музыке, как Thrash Metal во всех его проявлениях и ипостасях, а иногда и переходящему на пограничные стили Speed, Power, Groove, Crossover, MDM и т.п.
Главное правило здесь одно: Одна группа – одна тема! Всё остальное созвучно основным нормам поведения на конференции.
Шаблон оформления тем в этом подфоруме должен быть основан на данных сайта www.metal-archives.com и выглядеть следующим образом:

Группа (Страна) - Стилевые рамки - дискография
Slayer (USA) - Thrash Metal - дискография


В теме допустимо размещение всей информации касающейся данного коллектива: анонсы любых альбомов в любых форматах, запросы любых релизов коллектива (кроме релизов текущего и прошлого годов), обсуждения, обзоры, а в остальном всё как обычно. Уважаем друг друга, не грубим, соблюдаем нормы поведения на конференции, оформляем анонсы и запросы красиво и информативно, что бы модераторы не посчитали их троллингом, и не отправили куда положено, выписав Вам предупреждение или ещё что похуже… Прежде чем что-то запросить или запостить, пользуемся поиском! Пользуемся поиском! ПОЛЬЗУЕМСЯ ПОИСКОМ!!! Так слышно меня?.. :pardon:
Интересного, конструктивного и креативного общения! ;)

Image



Post new topic Reply to topic  [ 51 posts ]  Go to page Previous  1, 2, 3
Author Message
 
PostPosted: 01 Feb 2018 
Я набрал 1000 сообщений!
Joined: 09 Jul 2008
Posts: 2843
Age: 45
Name: Сергей
даже не знаю, почему у меня все от сказанного наоборот.. )


Top
 Profile  
 
 
PostPosted: 01 Feb 2018 
Я набрал 1000 сообщений!
Joined: 09 Jul 2008
Posts: 2843
Age: 45
Name: Сергей
хотя... наверное, я понял
они тупо потеряли лицо и стали, как это.. а, да! рафинированными


Top
 Profile  
 
 
PostPosted: 01 Feb 2018 
консэрваторъ
User avatar
Joined: 11 Aug 2007
Posts: 16999
Lоcаtion: Псков
Age: 45
Name: Сергей
boojum wrote:
почему у меня все от сказанного наоборот

Серёг, дак наверное у нас с тобой вкусы разные... :vic: вкусовщина... :pardon:

_________________
THRASH 'EM ALL


Top
 Profile E-mail  
 
 
PostPosted: 01 Feb 2018 
Я набрал 1000 сообщений!
Joined: 09 Jul 2008
Posts: 2843
Age: 45
Name: Сергей
вкусы разные - это легко
но, вроде бы, прогресс он и в африке прогресс )


Top
 Profile  
 
 
PostPosted: 01 Feb 2018 
консэрваторъ
User avatar
Joined: 11 Aug 2007
Posts: 16999
Lоcаtion: Псков
Age: 45
Name: Сергей
И, что характерно, он у них есть...

_________________
THRASH 'EM ALL


Top
 Profile E-mail  
 
 
PostPosted: 01 Feb 2018 
Я набрал 1000 сообщений!
Joined: 09 Jul 2008
Posts: 2843
Age: 45
Name: Сергей
та ок, главное, чтобы нравилось.. )


Top
 Profile  
 
 
PostPosted: 11 Apr 2018 
Генеральный thrasher
User avatar
Joined: 03 Oct 2008
Posts: 3711
Lоcаtion: Ханты-Мансийский АО
Age: 44
Name: Сергей
Image

Year:2017
Style:Thrash Metal
Country:Bulgary
Archive:Flac+Cue+Log+Scans
Source:my CD
Size:325Mb
Label:Stormspell Records

Tracklist:
01. Outlive the Death 04:51
02. Master of the Flies 03:59
03. Thrashin' Maniacs 04:50
04. Coma 04:41
05. Greater Than God 03:51
06. Back to Yesterday 04:37
07. Apocalypto 04:52
08. Bringer of Hell 04:45
09. The Final Day 05:54

"Log"
Exact Audio Copy V1.1 from 23. June 2015

Отчёт EAC об извлечении, выполненном 1. февраля 2018, 10:34

The Outer Limits / Apocalypto

Дисковод: HL-DT-STDVDRAM GTA0N Adapter: 1 ID: 0

Режим чтения : Достоверность
Использование точного потока : Да
Отключение кэша аудио : Да
Использование указателей C2 : Нет

Коррекция смещения при чтении : 102
Способность читать области Lead-in и Lead-out : Нет
Заполнение пропущенных сэмплов тишиной : Да
Удаление блоков с тишиной в начале и конце : Нет
При вычислениях CRC использовались нулевые сэмплы : Да
Интерфейс : Встроенный Win32-интерфейс для Win NT/2000

Выходной формат : Пользовательский кодировщик
Выбранный битрейт : 768 kBit/s
Качество : Высокий
Добавление ID3-тега : Нет
Утилита сжатия : C:\Program Files (x86)\Exact Audio Copy\FLAC\FLAC.EXE
Дополнительные параметры : -V -8 -T "Date=%year%" -T "Genre=%genre%" %source%


TOC извлечённого CD

Трек | Старт | Длительность | Начальный сектор | Конечный сектор
---------------------------------------------------------------------
1 | 0:00.00 | 4:50.43 | 0 | 21792
2 | 4:50.43 | 3:58.63 | 21793 | 39705
3 | 8:49.31 | 4:49.51 | 39706 | 61431
4 | 13:39.07 | 4:40.56 | 61432 | 82487
5 | 18:19.63 | 3:51.27 | 82488 | 99839
6 | 22:11.15 | 4:36.43 | 99840 | 120582
7 | 26:47.58 | 4:51.42 | 120583 | 142449
8 | 31:39.25 | 4:44.64 | 142450 | 163813
9 | 36:24.14 | 5:53.39 | 163814 | 190327


Характеристики диапазона извлечения и сообщения об ошибках

Выбранный диапазон

Имя файла C:\Users\магазин\Music\The Outer Limits - Apocalypto.wav

Пиковый уровень 99.9 %
Скорость извлечения 3.9 X
Качество диапазона 100.0 %
CRC теста 01D82378
CRC копии 01D82378
Копирование... OK

Ошибок не произошло


AccurateRip: сводка

Трек 1 отсутствует в базе данных
Трек 2 отсутствует в базе данных
Трек 3 отсутствует в базе данных
Трек 4 отсутствует в базе данных
Трек 5 отсутствует в базе данных
Трек 6 отсутствует в базе данных
Трек 7 отсутствует в базе данных
Трек 8 отсутствует в базе данных
Трек 9 отсутствует в базе данных

Ни одного трека нет в базе AccurateRip

Конец отчёта

---- CUETools DB Plugin V2.1.6

[CTDB TOCID: PpgXHB.RWE_x56bL1v3UAcPUoCU-] disk not present in database
Submit result: PpgXHB.RWE_x56bL1v3UAcPUoCU- has been uploaded


Apocalypto


Top
 Profile  
 
 
PostPosted: 11 Apr 2018 
Хиппей (support team)
User avatar
Joined: 30 Jul 2007
Posts: 113127
Lоcаtion: Киев (Kyiv, UA)
Age: 46
Name: Andrey
thorbeorn wrote:
Apocalypto

:thanx:

mirror: Ur-Files l Uloz l Drop l M-Cloud

_________________


Top
 Profile E-mail  
 
 
PostPosted: 11 Apr 2018 
Прокъмитолист
User avatar
Joined: 12 Aug 2007
Posts: 6565
Lоcаtion: Санктъ-Петербуркъ
Age: 51
Name: Олекъ
:thanx:

_________________
прокъметол - это музыко, от которово есть прок (ы)


Top
 Profile  
 
 
PostPosted: 22 Mar 2019 
Хиппей (support team)
User avatar
Joined: 30 Jul 2007
Posts: 113127
Lоcаtion: Киев (Kyiv, UA)
Age: 46
Name: Andrey
thorbeorn wrote:
Apocalypto

Почти две недели трэшак не слушал.
С первой прослушки альбом показался ну очень хорошим.
Ща понял - не, фигня полная, копируют уже всё давно многими ранее сыгранное и ни капельки своего не добавили :fingal:
Развитие у группы набирает обратные обороты? :cry:

5/10

_________________


Top
 Profile E-mail  
 
 
PostPosted: 22 Mar 2019 
Хиппей (support team)
User avatar
Joined: 30 Jul 2007
Posts: 113127
Lоcаtion: Киев (Kyiv, UA)
Age: 46
Name: Andrey
хотя... наверное, я понял
они тупо потеряли лицо и стали, как это.. а, да! рафинированными

Во - точняк :kro:

_________________


Top
 Profile E-mail  
 
Display posts from previous:  Sort by  
Post new topic Reply to topic  [ 51 posts ]  Go to page Previous  1, 2, 3

All times are UTC + 3 hours


Who is online

Users browsing this forum: No registered users and 3 guests


You cannot post new topics in this forum
You cannot reply to topics in this forum
You cannot edit your posts in this forum
You cannot delete your posts in this forum
You cannot post attachments in this forum

Search for:
Яндекс.Метрика
Powered by phpBB © 2000, 2002, 2005, 2007 phpBB Group