\m/ 80's metal \m/

Информационно-аналитический форум "80 см пыли" (In Search We Trust) "У нас никто никуда не спешит"
Me For You - http://me-4u.com
It is currently 26 Apr 2019

All times are UTC + 3 hours

Spoiler
Chat - temporary registration for foreign users (please leave your application here)





Forum rules


Уважаемые пользователи ресурса, друзья, коллеги и гости нашего форума. Данный раздел конференции создан с целью рафинации, и посвящён такому стилевому направлению в музыке, как Thrash Metal во всех его проявлениях и ипостасях, а иногда и переходящему на пограничные стили Speed, Power, Groove, Crossover, MDM и т.п.
Главное правило здесь одно: Одна группа – одна тема! Всё остальное созвучно основным нормам поведения на конференции.
Шаблон оформления тем в этом подфоруме должен быть основан на данных сайта www.metal-archives.com и выглядеть следующим образом:

Группа (Страна) - Стилевые рамки - дискография
Slayer (USA) - Thrash Metal - дискография


В теме допустимо размещение всей информации касающейся данного коллектива: анонсы любых альбомов в любых форматах, запросы любых релизов коллектива (кроме релизов текущего и прошлого годов), обсуждения, обзоры, а в остальном всё как обычно. Уважаем друг друга, не грубим, соблюдаем нормы поведения на конференции, оформляем анонсы и запросы красиво и информативно, что бы модераторы не посчитали их троллингом, и не отправили куда положено, выписав Вам предупреждение или ещё что похуже… Прежде чем что-то запросить или запостить, пользуемся поиском! Пользуемся поиском! ПОЛЬЗУЕМСЯ ПОИСКОМ!!! Так слышно меня?.. :pardon:
Интересного, конструктивного и креативного общения! ;)

Image



Post new topic Reply to topic  [ 11 posts ] 
Author Message
 
PostPosted: 14 Oct 2016 
Генеральный thrasher
User avatar
Joined: 03 Oct 2008
Posts: 3696
Lоcаtion: Ханты-Мансийский АО
Age: 44
Name: Сергей
Очередные итальянцы со своим дебютником.Поначалу мне не очень покатил альбом.Теперь всё больше нравится.

Image

Year:2015
Style:Thrash Metal
Country:Italy
Archive:Flac+Cue+Log+Scans
Size:251Mb
Source:my CD
Label:Iron Shield Records

Tracklist:
01. Down to Hell 04:07
02. Slow Decay 04:44
03. People of the Lie 04:03
04. A.T.A, (Another Thrash Attack) 03:09
05. Living Dead 07:47
06. Hang the Poser 01:41
07. Mental Prison 05:32
08. Nuclear Detonation 03:34

"Cue"
REM GENRE "Thrash Metal"
REM DATE 2015
REM DISCID 68081C08
REM COMMENT "ExactAudioCopy v1.1"
PERFORMER "Nuclear Detonation"
TITLE "Living Dead, Sons Of The Lobotomy"
FILE "Nuclear Detonation - Living Dead, Sons Of The Lobotomy.flac" WAVE
TRACK 01 AUDIO
TITLE "Down to Hell"
PERFORMER "Nuclear Detonation"
FLAGS DCP
INDEX 01 00:00:00
TRACK 02 AUDIO
TITLE "Slow Decay"
PERFORMER "Nuclear Detonation"
FLAGS DCP
INDEX 01 04:07:00
TRACK 03 AUDIO
TITLE "People of the Lie"
PERFORMER "Nuclear Detonation"
FLAGS DCP
INDEX 01 08:50:59
TRACK 04 AUDIO
TITLE "A.T.A. (Another Thrash Attack)"
PERFORMER "Nuclear Detonation"
FLAGS DCP
INDEX 01 12:53:54
TRACK 05 AUDIO
TITLE "Living Dead"
PERFORMER "Nuclear Detonation"
FLAGS DCP
INDEX 01 16:02:44
TRACK 06 AUDIO
TITLE "Hang the Poser"
PERFORMER "Nuclear Detonation"
FLAGS DCP
INDEX 01 23:49:61
TRACK 07 AUDIO
TITLE "Mental Prison"
PERFORMER "Nuclear Detonation"
FLAGS DCP
INDEX 01 25:30:73
TRACK 08 AUDIO
TITLE "Nuclear Detonation"
PERFORMER "Nuclear Detonation"
FLAGS DCP
INDEX 01 31:02:71

"Log"
Exact Audio Copy V1.1 from 23. June 2015

Отчёт EAC об извлечении, выполненном 6. августа 2016, 12:02

Nuclear Detonation / Living Dead, Sons Of The Lobotomy

Дисковод: HL-DT-STDVDRAM GTA0N Adapter: 1 ID: 0

Режим чтения : Достоверность
Использование точного потока : Да
Отключение кэша аудио : Да
Использование указателей C2 : Нет

Коррекция смещения при чтении : 102
Способность читать области Lead-in и Lead-out : Нет
Заполнение пропущенных сэмплов тишиной : Да
Удаление блоков с тишиной в начале и конце : Нет
При вычислениях CRC использовались нулевые сэмплы : Да
Интерфейс : Встроенный Win32-интерфейс для Win NT/2000

Выходной формат : Пользовательский кодировщик
Выбранный битрейт : 768 kBit/s
Качество : Высокий
Добавление ID3-тега : Нет
Утилита сжатия : C:\Program Files (x86)\Exact Audio Copy\FLAC\FLAC.EXE
Дополнительные параметры : -6 -V -T "ARTIST=%artist%" -T "TITLE=%title%" -T "ALBUM=%albumtitle%" -T "DATE=%year%" -T "TRACKNUMBER=%tracknr%" -T "GENRE=%genre%" -T "COMMENT=%comment%" -T "BAND=%albuminterpret%" -T "ALBUMARTIST=%albuminterpret%" -T "COMPOSER=%composer%" %haslyrics%--tag-from-file=LYRICS="%lyricsfile%"%haslyrics% -T "DISCNUMBER=%cdnumber%" -T "TOTALDISCS=%totalcds%" -T "TOTALTRACKS=%numtracks%" %hascover%--picture="%coverfile%"%hascover% %source% -o %dest%


TOC извлечённого CD

Трек | Старт | Длительность | Начальный сектор | Конечный сектор
---------------------------------------------------------------------
1 | 0:00.00 | 4:07.00 | 0 | 18524
2 | 4:07.00 | 4:43.59 | 18525 | 39808
3 | 8:50.59 | 4:02.70 | 39809 | 58028
4 | 12:53.54 | 3:08.65 | 58029 | 72193
5 | 16:02.44 | 7:47.17 | 72194 | 107235
6 | 23:49.61 | 1:41.12 | 107236 | 114822
7 | 25:30.73 | 5:31.73 | 114823 | 139720
8 | 31:02.71 | 3:33.52 | 139721 | 155747


Характеристики диапазона извлечения и сообщения об ошибках

Выбранный диапазон

Имя файла C:\Users\магазин\Music\Nuclear Detonation - Living Dead, Sons Of The Lobotomy.wav

Пиковый уровень 96.6 %
Скорость извлечения 3.6 X
Качество диапазона 99.9 %
CRC копии 0437B7D8
Копирование... OK

Ошибок не произошло


AccurateRip: сводка

Трек 1 отсутствует в базе данных
Трек 2 отсутствует в базе данных
Трек 3 отсутствует в базе данных
Трек 4 отсутствует в базе данных
Трек 5 отсутствует в базе данных
Трек 6 отсутствует в базе данных
Трек 7 отсутствует в базе данных
Трек 8 отсутствует в базе данных

Ни одного трека нет в базе AccurateRip

Конец отчёта

---- CUETools DB Plugin V2.1.6

[CTDB TOCID: 2TFhYknjrqC9xIxg0RRFC7ePgtE-] found
Submit result: 2TFhYknjrqC9xIxg0RRFC7ePgtE- has been confirmed
Track | CTDB Status
1 | (2/2) Accurately ripped
2 | (2/2) Accurately ripped
3 | (2/2) Accurately ripped
4 | (2/2) Accurately ripped
5 | (2/2) Accurately ripped
6 | (2/2) Accurately ripped
7 | (2/2) Accurately ripped
8 | (2/2) Accurately ripped


Living Dead, Sons Of The Lobotomy


Top
 Profile  
 
 
PostPosted: 14 Oct 2016 
Alive Again
User avatar
Joined: 17 Dec 2008
Posts: 4747
Lоcаtion: Курск Воронеж Оскол
Age: 44
Name: Дмитрий
:thanx: , Серёг!


Top
 Profile E-mail  
 
 
PostPosted: 14 Oct 2016 
Прокъмитолист
User avatar
Joined: 12 Aug 2007
Posts: 6545
Lоcаtion: Санктъ-Петербуркъ
Age: 51
Name: Олекъ
:thanx:

_________________
прокъметол - это музыко, от которово есть прок (ы)


Top
 Profile  
 
 
PostPosted: 15 Oct 2016 
консэрваторъ
User avatar
Joined: 11 Aug 2007
Posts: 16843
Lоcаtion: Псков
Age: 45
Name: Сергей
Забрато, ознакомимся... :thanx: :thanx:

_________________
THRASH 'EM ALL


Top
 Profile E-mail  
 
 
PostPosted: 15 Oct 2016 
консэрваторъ
User avatar
Joined: 11 Aug 2007
Posts: 16843
Lоcаtion: Псков
Age: 45
Name: Сергей
Очень хорошо пошёл винтажный трэш!.. Почему-то вспомнились политеховские годы с трэш-угаром и наша группа Aspera, ностальгическое звучание гитар, сухенькое, плосковатое, но это как раз в тему!.. :meloman:
Серёг, мне тоже группа пошла на ура, при чём с первого раза, странное совпадение, именно сегодня, когда хотелось именно такого, подобного Железному Потоку 91-ого... с более может вылизанным звуком, но попало именно в настроение!.. :lob: :lob: :thanx: :thanx: :thanx:

_________________
THRASH 'EM ALL


Top
 Profile E-mail  
 
 
PostPosted: 16 Oct 2016 
Генеральный thrasher
User avatar
Joined: 03 Oct 2008
Posts: 3696
Lоcаtion: Ханты-Мансийский АО
Age: 44
Name: Сергей
Не успеваю дублировать все свои новые раздачи с трэкера сюда...Так что заглядывайте туда иногда...


Top
 Profile  
 
 
PostPosted: 16 Oct 2016 
консэрваторъ
User avatar
Joined: 11 Aug 2007
Posts: 16843
Lоcаtion: Псков
Age: 45
Name: Сергей
Если б там можно было на тебя подписаться как-то... :oops: А так я ж забуду...

_________________
THRASH 'EM ALL


Top
 Profile E-mail  
 
 
PostPosted: 17 Oct 2016 
Хиппей (support team)
User avatar
Joined: 30 Jul 2007
Posts: 111863
Lоcаtion: Киев (Kyiv, UA)
Age: 45
Name: Andrey
:thanx:

mirror: iFolder l Narod l M-Cloud

_________________


Top
 Profile E-mail  
 
 
PostPosted: 20 Oct 2016 
Хиппей (support team)
User avatar
Joined: 30 Jul 2007
Posts: 111863
Lоcаtion: Киев (Kyiv, UA)
Age: 45
Name: Andrey
thorbeorn wrote:
Поначалу мне не очень покатил альбом.Теперь всё больше нравится.

Аналогично. Сначала некий сумбур был. Затем понимать начал, что это всё же техно-трэш и слушать нужно его не раз и не три, а штук 5-7, чтобы понять и окунуться окончательно по ухи в музыку группы :meloman:

Пока 6+/10...

_________________


Top
 Profile E-mail  
 
 
PostPosted: 20 Oct 2016 
Хиппей (support team)
User avatar
Joined: 30 Jul 2007
Posts: 111863
Lоcаtion: Киев (Kyiv, UA)
Age: 45
Name: Andrey
Scatterbrain wrote:
Пока 6+/10...

Окончательное решение.
Ибо альбом хорош, но реально боевых песен как раз на такую вот оценку :pardon:

Бужу ждать продолжения от группы :kro:
Любопытно ж, в каком направлении и задвигаются дальше.

_________________


Top
 Profile E-mail  
 
 
PostPosted: 27 Oct 2016 
Персональный статус
Joined: 19 Jul 2010
Posts: 282
Lоcаtion: Москва
Name: Вадим
Альбом понравился. Не по каким-то там объективным критериям, а по музыке. Напомнил времена Треш Ранчерс (не помню названия группы) и первый Десперадос. Самое главное, он не продолжительный - надоесть не успевает.


Top
 Profile E-mail  
 
Display posts from previous:  Sort by  
Post new topic Reply to topic  [ 11 posts ] 

All times are UTC + 3 hours


Who is online

Users browsing this forum: Yandex [Bot] and 2 guests


You cannot post new topics in this forum
You cannot reply to topics in this forum
You cannot edit your posts in this forum
You cannot delete your posts in this forum
You cannot post attachments in this forum

Search for:
Яндекс.Метрика
Powered by phpBB © 2000, 2002, 2005, 2007 phpBB Group