\m/ 80's metal \m/

Информационно-аналитический форум "80 см пыли" (In Search We Trust) "У нас никто никуда не спешит"
Me For You - http://me-4u.com
It is currently 23 Apr 2019

All times are UTC + 3 hours

Spoiler
Chat - temporary registration for foreign users (please leave your application here)





Forum rules


Уважаемые пользователи ресурса, друзья, коллеги и гости нашего форума. Данный раздел конференции создан с целью рафинации, и посвящён такому стилевому направлению в музыке, как Thrash Metal во всех его проявлениях и ипостасях, а иногда и переходящему на пограничные стили Speed, Power, Groove, Crossover, MDM и т.п.
Главное правило здесь одно: Одна группа – одна тема! Всё остальное созвучно основным нормам поведения на конференции.
Шаблон оформления тем в этом подфоруме должен быть основан на данных сайта www.metal-archives.com и выглядеть следующим образом:

Группа (Страна) - Стилевые рамки - дискография
Slayer (USA) - Thrash Metal - дискография


В теме допустимо размещение всей информации касающейся данного коллектива: анонсы любых альбомов в любых форматах, запросы любых релизов коллектива (кроме релизов текущего и прошлого годов), обсуждения, обзоры, а в остальном всё как обычно. Уважаем друг друга, не грубим, соблюдаем нормы поведения на конференции, оформляем анонсы и запросы красиво и информативно, что бы модераторы не посчитали их троллингом, и не отправили куда положено, выписав Вам предупреждение или ещё что похуже… Прежде чем что-то запросить или запостить, пользуемся поиском! Пользуемся поиском! ПОЛЬЗУЕМСЯ ПОИСКОМ!!! Так слышно меня?.. :pardon:
Интересного, конструктивного и креативного общения! ;)

Image



Post new topic Reply to topic  [ 30 posts ]  Go to page 1, 2  Next
Author Message
 
PostPosted: 11 Apr 2015 
Генеральный thrasher
User avatar
Joined: 03 Oct 2008
Posts: 3695
Lоcаtion: Ханты-Мансийский АО
Age: 44
Name: Сергей
Image

Year:2014
Style:Thrash Metal
Country:Brazil
Audio:Flac+Cue+Log+Scans
Size:281Mb
Source:my CD
Label:Kill Again Records

Line-Up:
Juca - vocals
Elias - guitars
Paulo - bass
Béba - drums

Tracklist:
01. Helliday 04:32
02. 4:00 A.M. (Insomnia) 04:12
03. No Sense 04:28
04. Damn Speech 04:11
05. Brain Washing Machine 04:28
06. Hangover 03:31
07. Deadly Virus 03:54
08. The Big Pocket Of The Shark 04:09

"Cue"
REM GENRE "Thrash Metal"
REM DATE 2014
REM DISCID 6607D908
REM COMMENT "ExactAudioCopy v0.99pb5"
PERFORMER "Executer"
TITLE "Helliday"
FILE "Executer - Helliday.flac" WAVE
TRACK 01 AUDIO
TITLE "Helliday"
PERFORMER "Executer"
FLAGS DCP
INDEX 01 00:00:00
TRACK 02 AUDIO
TITLE "4:00 A.M. (Insomnia) "
PERFORMER "Executer"
FLAGS DCP
INDEX 01 04:32:41
TRACK 03 AUDIO
TITLE "No Sense"
PERFORMER "Executer"
FLAGS DCP
INDEX 01 08:44:53
TRACK 04 AUDIO
TITLE "Damn Speech"
PERFORMER "Executer"
FLAGS DCP
INDEX 01 13:13:45
TRACK 05 AUDIO
TITLE "Brain Washing Machine"
PERFORMER "Executer"
FLAGS DCP
INDEX 01 17:25:18
TRACK 06 AUDIO
TITLE "Hangover"
PERFORMER "Executer"
FLAGS DCP
INDEX 01 21:53:68
TRACK 07 AUDIO
TITLE "Deadly Virus"
PERFORMER "Executer"
FLAGS DCP
INDEX 01 25:25:29
TRACK 08 AUDIO
TITLE "The Big Pocket Of The Shark"
PERFORMER "Executer"
FLAGS DCP
INDEX 01 29:20:14

"Log"
Exact Audio Copy V0.99 prebeta 5 from 4. May 2009

Отчёт EAC об извлечении, выполненном 10. апреля 2015, 13:19

Executer / Helliday

Дисковод: MATSHITADVD-RAM UJ8A0AS Adapter: 0 ID: 1

Режим чтения : Достоверность
Использование точного потока : Да
Отключение кэша аудио : Да
Использование указателей C2 : Нет

Коррекция смещения при чтении : 102
Способность читать области Lead-in и Lead-out : Нет
Заполнение пропущенных сэмплов тишиной : Да
Удаление блоков с тишиной в начале и конце : Нет
При вычислениях CRC использовались нулевые сэмплы : Да
Интерфейс : Встроенный Win32-интерфейс для Win NT/2000

Выходной формат : Пользовательский кодировщик
Выбранный битрейт : 1024 kBit/s
Качество : Высокий
Добавление ID3-тэга : Нет
Утилита сжатия : C:\Program Files\Exact Audio Copy\FLAC\FLAC.EXE
Дополнительные параметры : -6 -V -T "ARTIST=%a" -T "TITLE=%t" -T "ALBUM=%g" -T "DATE=%y" -T "TRACKNUMBER=%n" -T "GENRE=%m" -T "COMMENT=%e" %s -o %d


TOC извлечённого CD

Трек | Старт | Длительность | Начальный сектор | Конечный сектор
---------------------------------------------------------------------
1 | 0:00.00 | 4:32.41 | 0 | 20440
2 | 4:32.41 | 4:12.12 | 20441 | 39352
3 | 8:44.53 | 4:28.67 | 39353 | 59519
4 | 13:13.45 | 4:11.48 | 59520 | 78392
5 | 17:25.18 | 4:28.50 | 78393 | 98542
6 | 21:53.68 | 3:31.36 | 98543 | 114403
7 | 25:25.29 | 3:54.60 | 114404 | 132013
8 | 29:20.14 | 4:09.28 | 132014 | 150716


Характеристики диапазона извлечения и сообщения об ошибках

Выбранный диапазон

Имя файла C:\Users\эксперт\Music\Executer - Helliday.wav

Пиковый уровень 98.8 %
Качество диапазона 100.0 %
CRC копии 8E4176DD
Копирование... OK

Ошибок не произошло


AccurateRip: сводка

Трек 1 нет в базе данных
Трек 2 нет в базе данных
Трек 3 нет в базе данных
Трек 4 нет в базе данных
Трек 5 нет в базе данных
Трек 6 нет в базе данных
Трек 7 нет в базе данных
Трек 8 нет в базе данных

Ни одного трека нет в базе AccurateRip

Конец отчёта


Helliday


Top
 Profile  
 
 
PostPosted: 11 Apr 2015 
Генеральный thrasher
User avatar
Joined: 03 Oct 2008
Posts: 3695
Lоcаtion: Ханты-Мансийский АО
Age: 44
Name: Сергей
Последний на данный момент альбом одной из старейших бразильских бригад.Банда рубит с 1987 года и имеет четыре альбома в багаже.Продолжаю увеличивать свою коллекцию бразильского трэша.


Top
 Profile  
 
 
PostPosted: 11 Apr 2015 
Alive Again
User avatar
Joined: 17 Dec 2008
Posts: 4747
Lоcаtion: Курск Воронеж Оскол
Age: 44
Name: Дмитрий
:thanx:, с разгона Криэйтор напомнили, надо качать и слушать.


Top
 Profile E-mail  
 
 
PostPosted: 14 Apr 2015 
Прокъмитолист
User avatar
Joined: 12 Aug 2007
Posts: 6545
Lоcаtion: Санктъ-Петербуркъ
Age: 51
Name: Олекъ
:thanx:

_________________
прокъметол - это музыко, от которово есть прок (ы)


Top
 Profile  
 
 
PostPosted: 08 May 2015 
ТрэшЭрос
User avatar
Joined: 18 Jul 2011
Posts: 2303
Lоcаtion: Гулькевичи
Age: 44
Name: Александр
:thanx: :true:

_________________
Thrash no trash!!!


Top
 Profile E-mail  
 
 
PostPosted: 09 May 2015 
Хиппей (support team)
User avatar
Joined: 30 Jul 2007
Posts: 111802
Lоcаtion: Киев (Kyiv, UA)
Age: 45
Name: Andrey
:thanx:

mirror: iFolder l Narod l M-Cloud

_________________


Top
 Profile E-mail  
 
 
PostPosted: 12 May 2015 
Хиппей (support team)
User avatar
Joined: 30 Jul 2007
Posts: 111802
Lоcаtion: Киев (Kyiv, UA)
Age: 45
Name: Andrey
Какой шикарный скоростной и утяжелённый... Креатор :crazy: :lob: :lob: :lob:

6+/10

_________________


Top
 Profile E-mail  
 
 
PostPosted: 12 May 2015 
Генеральный thrasher
User avatar
Joined: 03 Oct 2008
Posts: 3695
Lоcаtion: Ханты-Мансийский АО
Age: 44
Name: Сергей
На Руси каждый волен сходить с ума,как ему нравится.Прёт меня от бразилов!Продолжаю их покупать и ничего не могу с собой поделать... :oops:


Top
 Profile  
 
 
PostPosted: 12 May 2015 
Хиппей (support team)
User avatar
Joined: 30 Jul 2007
Posts: 111802
Lоcаtion: Киев (Kyiv, UA)
Age: 45
Name: Andrey
Но альбом то хорош, хоррроошш :lob: :lob: :lob:

_________________


Top
 Profile E-mail  
 
 
PostPosted: 12 May 2015 
Генеральный thrasher
User avatar
Joined: 03 Oct 2008
Posts: 3695
Lоcаtion: Ханты-Мансийский АО
Age: 44
Name: Сергей
Но альбом то хорош, хоррроошш :lob: :lob: :lob:


Это да!


Top
 Profile  
 
 
PostPosted: 14 Aug 2016 
консэрваторъ
Joined: 11 Aug 2007
Posts: 16829
Lоcаtion: Псков
Age: 45
Name: Сергей
Добрался... :oops: Серёг, ты случаем не прикупил ещё их дебютник в переизданном варианте от Marquee Rotten Authorities 1991 (Reissue 2004) ?..

_________________
THRASH 'EM ALL


Top
 Profile E-mail  
 
 
PostPosted: 14 Aug 2016 
Генеральный thrasher
User avatar
Joined: 03 Oct 2008
Posts: 3695
Lоcаtion: Ханты-Мансийский АО
Age: 44
Name: Сергей
Брал.Он царапанный пришёл.Обратно отправил.Он на MMT есть,Серёг.


Top
 Profile  
 
 
PostPosted: 14 Aug 2016 
консэрваторъ
Joined: 11 Aug 2007
Posts: 16829
Lоcаtion: Псков
Age: 45
Name: Сергей
Да я с осликом не дружен... :oops: А в принципе ладно, на дарке мп3 с этого лося норм...

_________________
THRASH 'EM ALL


Top
 Profile E-mail  
 
 
PostPosted: 14 Aug 2016 
Генеральный thrasher
User avatar
Joined: 03 Oct 2008
Posts: 3695
Lоcаtion: Ханты-Мансийский АО
Age: 44
Name: Сергей
У Оксаны же есть лось


Top
 Profile  
 
 
PostPosted: 14 Aug 2016 
консэрваторъ
Joined: 11 Aug 2007
Posts: 16829
Lоcаtion: Псков
Age: 45
Name: Сергей
Ага уже скачал, а это ты там его и релизил... с коцанаго диска чтолль?.. Серёг, включи на минутку раздачу плизес... :arrov: https://rutracker.org/forum/viewtopic.php?t=5029291

_________________
THRASH 'EM ALL


Top
 Profile E-mail  
 
 
PostPosted: 14 Aug 2016 
Генеральный thrasher
User avatar
Joined: 03 Oct 2008
Posts: 3695
Lоcаtion: Ханты-Мансийский АО
Age: 44
Name: Сергей
Нет,MMT-шный заливал.Раздачу не могу включить,Серёг.Она с прежним буком померла.Давай новый рип сделаю.Дела на 20 минут.


Top
 Profile  
 
 
PostPosted: 14 Aug 2016 
консэрваторъ
Joined: 11 Aug 2007
Posts: 16829
Lоcаtion: Псков
Age: 45
Name: Сергей
Если не сложно, почему бы и нет... А я пока музкантам напишу по поводу демы первой... видимо рарный рар нонче...

Executer - Prisioner of Darkness 1988 (Demo)

Image

_________________
THRASH 'EM ALL


Top
 Profile E-mail  
 
 
PostPosted: 14 Aug 2016 
Генеральный thrasher
User avatar
Joined: 03 Oct 2008
Posts: 3695
Lоcаtion: Ханты-Мансийский АО
Age: 44
Name: Сергей
Image

Year:2003 (2012 Re-Issue)
Style:Thrash Metal
Country:Brazil
Archive:Flac+Cue+Log+Scans
Size:258Mb
Source:my CD
Label:Kill Again Records

Tracklist:
01. Intro 00:26
02. Los Angels 03:223
03. Suffering And Pain 05:05
04. No More Racism 04:27
05. Message To The Weak Ones 04:24
06. Involuntary Suicide 04:00
07. Chaos Memories 04:135
08. Psychotic Mind 03:26
09. Black September + Piranha (Exodus cover) 07:56

"Cue"
REM GENRE "Thrash Metal"
REM DATE 2003
REM DISCID 6708C609
REM COMMENT "ExactAudioCopy v1.1"
PERFORMER "Executer"
TITLE "Psychotic Mind"
FILE "Executer - Psychotic Mind.flac" WAVE
TRACK 01 AUDIO
TITLE "Intro"
PERFORMER "Executer"
FLAGS DCP
INDEX 01 00:00:00
TRACK 02 AUDIO
TITLE "Los Angels"
PERFORMER "Executer"
FLAGS DCP
INDEX 01 00:26:32
TRACK 03 AUDIO
TITLE "Suffering And Pain"
PERFORMER "Executer"
FLAGS DCP
INDEX 01 03:50:25
TRACK 04 AUDIO
TITLE "No More Racism"
PERFORMER "Executer"
FLAGS DCP
INDEX 01 08:56:07
TRACK 05 AUDIO
TITLE "Message To The Weak Ones"
PERFORMER "Executer"
FLAGS DCP
INDEX 01 13:23:58
TRACK 06 AUDIO
TITLE "Involuntary Suicide"
PERFORMER "Executer"
FLAGS DCP
INDEX 01 17:47:69
TRACK 07 AUDIO
TITLE "Chaos Memories"
PERFORMER "Executer"
FLAGS DCP
INDEX 01 21:48:36
TRACK 08 AUDIO
TITLE "Psychotic Mind"
PERFORMER "Executer"
FLAGS DCP
INDEX 01 26:03:68
TRACK 09 AUDIO
TITLE "Black September + Piranha"
PERFORMER "Executer"
FLAGS DCP
INDEX 01 29:30:50

"Log"
Exact Audio Copy V1.1 from 23. June 2015

Отчёт EAC об извлечении, выполненном 14. августа 2016, 9:38

Executer / Psychotic Mind

Дисковод: HL-DT-STDVDRAM GTA0N Adapter: 1 ID: 0

Режим чтения : Достоверность
Использование точного потока : Да
Отключение кэша аудио : Да
Использование указателей C2 : Нет

Коррекция смещения при чтении : 102
Способность читать области Lead-in и Lead-out : Нет
Заполнение пропущенных сэмплов тишиной : Да
Удаление блоков с тишиной в начале и конце : Нет
При вычислениях CRC использовались нулевые сэмплы : Да
Интерфейс : Встроенный Win32-интерфейс для Win NT/2000

Выходной формат : Пользовательский кодировщик
Выбранный битрейт : 768 kBit/s
Качество : Высокий
Добавление ID3-тега : Нет
Утилита сжатия : C:\Program Files (x86)\Exact Audio Copy\FLAC\FLAC.EXE
Дополнительные параметры : -6 -V -T "ARTIST=%artist%" -T "TITLE=%title%" -T "ALBUM=%albumtitle%" -T "DATE=%year%" -T "TRACKNUMBER=%tracknr%" -T "GENRE=%genre%" -T "COMMENT=%comment%" -T "BAND=%albuminterpret%" -T "ALBUMARTIST=%albuminterpret%" -T "COMPOSER=%composer%" %haslyrics%--tag-from-file=LYRICS="%lyricsfile%"%haslyrics% -T "DISCNUMBER=%cdnumber%" -T "TOTALDISCS=%totalcds%" -T "TOTALTRACKS=%numtracks%" %hascover%--picture="%coverfile%"%hascover% %source% -o %dest%


TOC извлечённого CD

Трек | Старт | Длительность | Начальный сектор | Конечный сектор
---------------------------------------------------------------------
1 | 0:00.00 | 0:26.32 | 0 | 1981
2 | 0:26.32 | 3:23.68 | 1982 | 17274
3 | 3:50.25 | 5:05.57 | 17275 | 40206
4 | 8:56.07 | 4:27.51 | 40207 | 60282
5 | 13:23.58 | 4:24.11 | 60283 | 80093
6 | 17:47.69 | 4:00.42 | 80094 | 98135
7 | 21:48.36 | 4:15.32 | 98136 | 117292
8 | 26:03.68 | 3:26.57 | 117293 | 132799
9 | 29:30.50 | 7:56.14 | 132800 | 168513


Характеристики диапазона извлечения и сообщения об ошибках

Выбранный диапазон

Имя файла C:\Users\магазин\Music\Executer - Psychotic Mind.wav

Пиковый уровень 86.6 %
Скорость извлечения 3.7 X
Качество диапазона 100.0 %
CRC копии 53870F0B
Копирование... OK

Ошибок не произошло


AccurateRip: сводка

Трек 1 отсутствует в базе данных
Трек 2 отсутствует в базе данных
Трек 3 отсутствует в базе данных
Трек 4 отсутствует в базе данных
Трек 5 отсутствует в базе данных
Трек 6 отсутствует в базе данных
Трек 7 отсутствует в базе данных
Трек 8 отсутствует в базе данных
Трек 9 отсутствует в базе данных

Ни одного трека нет в базе AccurateRip

Конец отчёта

---- CUETools DB Plugin V2.1.6

[CTDB TOCID: SbUXkffEUogsoA0_gR1qrWWeyiI-] found
Submit result: SbUXkffEUogsoA0_gR1qrWWeyiI- has been confirmed
Track | CTDB Status
1 | (3/3) Accurately ripped
2 | (3/3) Accurately ripped
3 | (3/3) Accurately ripped
4 | (3/3) Accurately ripped
5 | (3/3) Accurately ripped
6 | (3/3) Accurately ripped
7 | (3/3) Accurately ripped
8 | (3/3) Accurately ripped
9 | (3/3) Accurately ripped


Psychotic Mind


Top
 Profile  
 
 
PostPosted: 14 Aug 2016 
консэрваторъ
Joined: 11 Aug 2007
Posts: 16829
Lоcаtion: Псков
Age: 45
Name: Сергей
МерсиБоку!.. :thanx: :thanx:

_________________
THRASH 'EM ALL


Top
 Profile E-mail  
 
 
PostPosted: 14 Aug 2016 
консэрваторъ
Joined: 11 Aug 2007
Posts: 16829
Lоcаtion: Псков
Age: 45
Name: Сергей
Перекрёстная ссылочка навсякпож... :arrov: Executer - Psychotic Mind 2003 (2012 Re-Issue)

_________________
THRASH 'EM ALL


Top
 Profile E-mail  
 
Display posts from previous:  Sort by  
Post new topic Reply to topic  [ 30 posts ]  Go to page 1, 2  Next

All times are UTC + 3 hours


Who is online

Users browsing this forum: No registered users and 3 guests


You cannot post new topics in this forum
You cannot reply to topics in this forum
You cannot edit your posts in this forum
You cannot delete your posts in this forum
You cannot post attachments in this forum

Search for:
Яндекс.Метрика
cron
Powered by phpBB © 2000, 2002, 2005, 2007 phpBB Group