\m/ 80's metal \m/

Информационно-аналитический форум "80 см пыли" (In Search We Trust) "У нас никто никуда не спешит"
Me For You - http://me-4u.com
It is currently 26 Jun 2019

All times are UTC + 3 hours

Spoiler
Chat - temporary registration for foreign users (please leave your application here)





Forum rules


Уважаемые пользователи ресурса, друзья, коллеги и гости нашего форума. Данный раздел конференции создан с целью рафинации, и посвящён такому стилевому направлению в музыке, как Thrash Metal во всех его проявлениях и ипостасях, а иногда и переходящему на пограничные стили Speed, Power, Groove, Crossover, MDM и т.п.
Главное правило здесь одно: Одна группа – одна тема! Всё остальное созвучно основным нормам поведения на конференции.
Шаблон оформления тем в этом подфоруме должен быть основан на данных сайта www.metal-archives.com и выглядеть следующим образом:

Группа (Страна) - Стилевые рамки - дискография
Slayer (USA) - Thrash Metal - дискография


В теме допустимо размещение всей информации касающейся данного коллектива: анонсы любых альбомов в любых форматах, запросы любых релизов коллектива (кроме релизов текущего и прошлого годов), обсуждения, обзоры, а в остальном всё как обычно. Уважаем друг друга, не грубим, соблюдаем нормы поведения на конференции, оформляем анонсы и запросы красиво и информативно, что бы модераторы не посчитали их троллингом, и не отправили куда положено, выписав Вам предупреждение или ещё что похуже… Прежде чем что-то запросить или запостить, пользуемся поиском! Пользуемся поиском! ПОЛЬЗУЕМСЯ ПОИСКОМ!!! Так слышно меня?.. :pardon:
Интересного, конструктивного и креативного общения! ;)

Image



Post new topic Reply to topic  [ 57 posts ]  Go to page 1, 2, 3  Next
Author Message
 
PostPosted: 04 Jul 2016 
Генеральный thrasher
User avatar
Joined: 03 Oct 2008
Posts: 3711
Lоcаtion: Ханты-Мансийский АО
Age: 44
Name: Сергей
Holosade - Hell House 1988 (2015 Re-Issue Deluxe Edition)

Image

Year: 1988 (2015 Re-Issue)
Style: Thrash Metal
Country: U.K.
Archive: Flac+Cue+Log+Scans
Size: 493Mb
Source: my CD
Label: Divebomb Records

Line-Up:
Simon Jones - guitars
Michael Lee - drums
Philip de Sade - vocals
Mac - bass
Gary Thomas - guitars

Tracklist:
01. Look Into The Mirror 04:27
02. Welcome To The Hell House 03:53
03. Love It To Death 03:08
04. Madame Guillotine 05:02
05. Psycho 06:03
06. Bitter Sweet 03:16
07. Eternal Life 04:25
08. Nightmare Reality 05:23
Neat Records Demo (1987):
09. Psycho 05:40
10. Eternal Life 04:16
BBC Radio 1 Rock Show Session (1988):
11. Welcome To The Hellhouse 03:53
12. Psycho 05:24
13. Computer World 06:58
14. Look Into the Mirror 04:24

"Cue"
REM GENRE "Thrash Metal"
REM DATE 2015
REM DISCID C70F7D0E
REM COMMENT "ExactAudioCopy v1.1"
PERFORMER "Holosade"
TITLE "Hell House (Deluxe Edition)"
FILE "Holosade - Hell House (Deluxe Edition).flac" WAVE
TRACK 01 AUDIO
TITLE "Look Into The Mirror"
PERFORMER "Holosade"
INDEX 01 00:00:00
TRACK 02 AUDIO
TITLE "Welcome To The Hellhouse"
PERFORMER "Holosade"
INDEX 01 04:27:00
TRACK 03 AUDIO
TITLE "Love It To Death"
PERFORMER "Holosade"
INDEX 01 08:19:24
TRACK 04 AUDIO
TITLE "Madame Guillotine"
PERFORMER "Holosade"
INDEX 01 11:26:31
TRACK 05 AUDIO
TITLE "Psycho"
PERFORMER "Holosade"
INDEX 01 16:28:24
TRACK 06 AUDIO
TITLE "Bitter Sweet"
PERFORMER "Holosade"
INDEX 01 22:30:36
TRACK 07 AUDIO
TITLE "Eternal Life"
PERFORMER "Holosade"
INDEX 01 25:46:18
TRACK 08 AUDIO
TITLE "Nightmare Reality"
PERFORMER "Holosade"
INDEX 01 30:10:60
TRACK 09 AUDIO
TITLE "Psycho (Neat Records demo 1987)"
PERFORMER "Holosade"
INDEX 00 35:31:51
INDEX 01 35:33:49
TRACK 10 AUDIO
TITLE "Eternal Life (Neat Records demo 1987)"
PERFORMER "Holosade"
INDEX 01 41:12:66
TRACK 11 AUDIO
TITLE "Welcome To The Hellhouse (BBC Radio 1 Rock Show Session)"
PERFORMER "Holosade"
INDEX 01 45:28:56
TRACK 12 AUDIO
TITLE "Psycho (BBC Radio 1 Rock Show Session)"
PERFORMER "Holosade"
INDEX 01 49:21:49
TRACK 13 AUDIO
TITLE "Computer World (BBC Radio 1 Rock Show Session)"
PERFORMER "Holosade"
INDEX 00 54:43:64
INDEX 01 54:44:61
TRACK 14 AUDIO
TITLE "Look Into The Mirror (BBC Radio 1 Rock Show Session)"
PERFORMER "Holosade"
INDEX 00 61:40:58
INDEX 01 61:42:56

"Log"
Exact Audio Copy V1.1 from 23. June 2015

Отчёт EAC об извлечении, выполненном 25. ноября 2015, 18:39

Holosade / Hell House (Deluxe Edition)

Дисковод: HL-DT-STDVDRAM GTA0N Adapter: 1 ID: 0

Режим чтения : Достоверность
Использование точного потока : Да
Отключение кэша аудио : Да
Использование указателей C2 : Нет

Коррекция смещения при чтении : 102
Способность читать области Lead-in и Lead-out : Нет
Заполнение пропущенных сэмплов тишиной : Да
Удаление блоков с тишиной в начале и конце : Нет
При вычислениях CRC использовались нулевые сэмплы : Да
Интерфейс : Встроенный Win32-интерфейс для Win NT/2000

Выходной формат : Пользовательский кодировщик
Выбранный битрейт : 768 kBit/s
Качество : Высокий
Добавление ID3-тега : Нет
Утилита сжатия : C:\Program Files (x86)\Exact Audio Copy\FLAC\FLAC.EXE
Дополнительные параметры : -6 -V -T "ARTIST=%artist%" -T "TITLE=%title%" -T "ALBUM=%albumtitle%" -T "DATE=%year%" -T "TRACKNUMBER=%tracknr%" -T "GENRE=%genre%" -T "COMMENT=%comment%" -T "BAND=%albuminterpret%" -T "ALBUMARTIST=%albuminterpret%" -T "COMPOSER=%composer%" %haslyrics%--tag-from-file=LYRICS="%lyricsfile%"%haslyrics% -T "DISCNUMBER=%cdnumber%" -T "TOTALDISCS=%totalcds%" -T "TOTALTRACKS=%numtracks%" %hascover%--picture="%coverfile%"%hascover% %source% -o %dest%


TOC извлечённого CD

Трек | Старт | Длительность | Начальный сектор | Конечный сектор
---------------------------------------------------------------------
1 | 0:00.00 | 4:27.00 | 0 | 20024
2 | 4:27.00 | 3:52.24 | 20025 | 37448
3 | 8:19.24 | 3:07.07 | 37449 | 51480
4 | 11:26.31 | 5:01.68 | 51481 | 74123
5 | 16:28.24 | 6:02.12 | 74124 | 101285
6 | 22:30.36 | 3:15.57 | 101286 | 115967
7 | 25:46.18 | 4:24.42 | 115968 | 135809
8 | 30:10.60 | 5:22.64 | 135810 | 160023
9 | 35:33.49 | 5:39.17 | 160024 | 185465
10 | 41:12.66 | 4:15.65 | 185466 | 204655
11 | 45:28.56 | 3:52.68 | 204656 | 222123
12 | 49:21.49 | 5:23.12 | 222124 | 246360
13 | 54:44.61 | 6:57.70 | 246361 | 277705
14 | 61:42.56 | 4:23.10 | 277706 | 297440


Характеристики диапазона извлечения и сообщения об ошибках

Выбранный диапазон

Имя файла C:\Users\магазин\Music\Holosade - Hell House (Deluxe Edition).wav

Пиковый уровень 96.7 %
Скорость извлечения 4.3 X
Качество диапазона 100.0 %
CRC копии 81C3A330
Копирование... OK

Ошибок не произошло


AccurateRip: сводка

Трек 1 отсутствует в базе данных
Трек 2 отсутствует в базе данных
Трек 3 отсутствует в базе данных
Трек 4 отсутствует в базе данных
Трек 5 отсутствует в базе данных
Трек 6 отсутствует в базе данных
Трек 7 отсутствует в базе данных
Трек 8 отсутствует в базе данных
Трек 9 отсутствует в базе данных
Трек 10 отсутствует в базе данных
Трек 11 отсутствует в базе данных
Трек 12 отсутствует в базе данных
Трек 13 отсутствует в базе данных
Трек 14 отсутствует в базе данных

Ни одного трека нет в базе AccurateRip

Конец отчёта

---- CUETools DB Plugin V2.1.6

[CTDB TOCID: xuBKB.OAVIfYLmc0QO94cTieFTQ-] disk not present in database
Submit result: xuBKB.OAVIfYLmc0QO94cTieFTQ- has been uploaded


Hell House


Last edited by thorbeorn on 06 Jul 2016, edited 1 time in total.

Top
 Profile  
 
 
PostPosted: 04 Jul 2016 
Я набрал 1000 сообщений!
Joined: 09 Jul 2008
Posts: 2843
Age: 45
Name: Сергей
фигассе че переиздают )


Top
 Profile  
 
 
PostPosted: 04 Jul 2016 
Прокъмитолист
User avatar
Joined: 12 Aug 2007
Posts: 6565
Lоcаtion: Санктъ-Петербуркъ
Age: 51
Name: Олекъ
:thanx:

_________________
прокъметол - это музыко, от которово есть прок (ы)


Top
 Profile  
 
 
PostPosted: 04 Jul 2016 
Old Time Rock`n`Roll
User avatar
Joined: 23 Jun 2008
Posts: 3446
Lоcаtion: г.Ульяновск
Age: 40
Name: Константин
:thanx: :true:


Top
 Profile  
 
 
PostPosted: 04 Jul 2016 
консэрваторъ
User avatar
Joined: 11 Aug 2007
Posts: 17003
Lоcаtion: Псков
Age: 45
Name: Сергей
http://www.metal-archives.com/bands/Holosade/12725
metal-archives wrote:
Thrash/Heavy Metal

Круть, не?..

_________________
THRASH 'EM ALL


Top
 Profile E-mail  
 
 
PostPosted: 04 Jul 2016 
Генеральный thrasher
User avatar
Joined: 03 Oct 2008
Posts: 3711
Lоcаtion: Ханты-Мансийский АО
Age: 44
Name: Сергей
А ты послушай... :benya:


Top
 Profile  
 
 
PostPosted: 04 Jul 2016 
Хиппей (support team)
User avatar
Joined: 30 Jul 2007
Posts: 113129
Lоcаtion: Киев (Kyiv, UA)
Age: 46
Name: Andrey
:thanx:

mirror: iFolder l Narod l M-Cloud

_________________


Top
 Profile E-mail  
 
 
PostPosted: 04 Jul 2016 
Хиппей (support team)
User avatar
Joined: 30 Jul 2007
Posts: 113129
Lоcаtion: Киев (Kyiv, UA)
Age: 46
Name: Andrey
splatty wrote:
Круть, не?..

Ну написано ж - Холосаде :kro:

_________________


Top
 Profile E-mail  
 
 
PostPosted: 04 Jul 2016 
Анатолий
User avatar
Joined: 18 Oct 2008
Posts: 3482
Lоcаtion: Армавир
Age: 42
Name: Анатолий
О-го!!! Вот это ДААААА!!! Совершенно неожиданно! Потерял всякую надежду получить этот альбом в нормальном качестве!

СПАСИБО!!! :thanx: :true:


Top
 Profile E-mail  
 
 
PostPosted: 04 Jul 2016 
Хиппей (support team)
User avatar
Joined: 30 Jul 2007
Posts: 113129
Lоcаtion: Киев (Kyiv, UA)
Age: 46
Name: Andrey
Ой, а запрос по нему был? :scratch:

_________________


Top
 Profile E-mail  
 
 
PostPosted: 04 Jul 2016 
Power Metal Maniac
User avatar
Joined: 09 Aug 2008
Posts: 6750
Lоcаtion: Москва
Age: 41
Name: Егор
ХолыйЗада :shok:

_________________
Long Live Metal!


Top
 Profile  
 
 
PostPosted: 04 Jul 2016 
Труъ
User avatar
Joined: 27 Feb 2009
Posts: 186
Lоcаtion: Питер
Age: 52
Name: Олег
:thanx: :thanx:


Top
 Profile  
 
 
PostPosted: 04 Jul 2016 
Рарник и трушник
User avatar
Joined: 25 Dec 2009
Posts: 8650
Lоcаtion: Москва
Age: 53
Name: Виталий
EG Power wrote:
ХолыйЗада

:benya: :benya: :benya:

Серёг, спасибо!!! :lob:


Top
 Profile  
 
 
PostPosted: 05 Jul 2016 
Генеральный thrasher
User avatar
Joined: 03 Oct 2008
Posts: 3711
Lоcаtion: Ханты-Мансийский АО
Age: 44
Name: Сергей
Ой, а запрос по нему был? :scratch:


Вроде не было.Не помню,чтобы кто-то просил. :vic:


Top
 Profile  
 
 
PostPosted: 05 Jul 2016 
консэрваторъ
User avatar
Joined: 11 Aug 2007
Posts: 17003
Lоcаtion: Псков
Age: 45
Name: Сергей
У нас запроса не было... было упоминание, что ЛП-рип появился на тракторе и микро рецензия от Толи тут...
Кста, вот ещё тут Эмиль выкладывал сборники, там есть (была) одна песня с самой первой их демки... :oops:

_________________
THRASH 'EM ALL


Top
 Profile E-mail  
 
 
PostPosted: 05 Jul 2016 
Генеральный thrasher
User avatar
Joined: 03 Oct 2008
Posts: 3711
Lоcаtion: Ханты-Мансийский АО
Age: 44
Name: Сергей
На тракторе два ЛП-рипа,Серёг.Один тяжелый от Макса и один на 260 метров от istar2metal.


Top
 Profile  
 
 
PostPosted: 05 Jul 2016 
Хиппей (support team)
User avatar
Joined: 30 Jul 2007
Posts: 113129
Lоcаtion: Киев (Kyiv, UA)
Age: 46
Name: Andrey
Ага, запроса точно не было.
Первая песенка напомнила... Anthrax :lob:

Слушаю дальше..

_________________


Top
 Profile E-mail  
 
 
PostPosted: 05 Jul 2016 
Хиппей (support team)
User avatar
Joined: 30 Jul 2007
Posts: 113129
Lоcаtion: Киев (Kyiv, UA)
Age: 46
Name: Andrey
В общем, альбом затираю до дыр в ушных пробках :meloman:
Это оказался не "похоже на Атракс", а похоже на Nuclear Assault :dance:
Отличный альбом, вот только минусик для меня небольшой - маловато скоростных вещей. А так обожаю подобный Hardcore/Thrash :lob: :lob: :lob:

6++/10

_________________


Top
 Profile E-mail  
 
 
PostPosted: 05 Jul 2016 
Хиппей (support team)
User avatar
Joined: 30 Jul 2007
Posts: 113129
Lоcаtion: Киев (Kyiv, UA)
Age: 46
Name: Andrey
ХолыйЗада :shok:

Да, Холозадов. Брат Козодоева :kro:

_________________


Top
 Profile E-mail  
 
 
PostPosted: 06 Jul 2016 
консэрваторъ
User avatar
Joined: 11 Aug 2007
Posts: 17003
Lоcаtion: Псков
Age: 45
Name: Сергей
Scatterbrain wrote:
похоже на Nuclear Assault

:lob: Ну ваще заинтриговали... сегодня приступаю к знакомству...
Серёга, а зачем ты в название альбома добавил эти слова?.. Welcome To The

Интересный расклад у них вышел со вторым альбомом A Circle of Silent Screams, который числится демкой 94-ого года, а по факту издан только в 15-ом... Прям как у Морбид Сэйнтов...

_________________
THRASH 'EM ALL


Top
 Profile E-mail  
 
Display posts from previous:  Sort by  
Post new topic Reply to topic  [ 57 posts ]  Go to page 1, 2, 3  Next

All times are UTC + 3 hours


Who is online

Users browsing this forum: No registered users and 2 guests


You cannot post new topics in this forum
You cannot reply to topics in this forum
You cannot edit your posts in this forum
You cannot delete your posts in this forum
You cannot post attachments in this forum

Search for:
Яндекс.Метрика
Powered by phpBB © 2000, 2002, 2005, 2007 phpBB Group