\m/ 80's metal \m/

Информационно-аналитический форум "80 см пыли" (In Search We Trust) "У нас никто никуда не спешит"
Me For You - http://me-4u.com
It is currently 26 Apr 2019

All times are UTC + 3 hours

Spoiler
Chat - temporary registration for foreign users (please leave your application here)





Forum rules


Уважаемые пользователи ресурса, друзья, коллеги и гости нашего форума. Данный раздел конференции создан с целью рафинации, и посвящён такому стилевому направлению в музыке, как Thrash Metal во всех его проявлениях и ипостасях, а иногда и переходящему на пограничные стили Speed, Power, Groove, Crossover, MDM и т.п.
Главное правило здесь одно: Одна группа – одна тема! Всё остальное созвучно основным нормам поведения на конференции.
Шаблон оформления тем в этом подфоруме должен быть основан на данных сайта www.metal-archives.com и выглядеть следующим образом:

Группа (Страна) - Стилевые рамки - дискография
Slayer (USA) - Thrash Metal - дискография


В теме допустимо размещение всей информации касающейся данного коллектива: анонсы любых альбомов в любых форматах, запросы любых релизов коллектива (кроме релизов текущего и прошлого годов), обсуждения, обзоры, а в остальном всё как обычно. Уважаем друг друга, не грубим, соблюдаем нормы поведения на конференции, оформляем анонсы и запросы красиво и информативно, что бы модераторы не посчитали их троллингом, и не отправили куда положено, выписав Вам предупреждение или ещё что похуже… Прежде чем что-то запросить или запостить, пользуемся поиском! Пользуемся поиском! ПОЛЬЗУЕМСЯ ПОИСКОМ!!! Так слышно меня?.. :pardon:
Интересного, конструктивного и креативного общения! ;)

Image



Post new topic Reply to topic  [ 20 posts ] 
Author Message
 
PostPosted: 08 Jun 2016 
Генеральный thrasher
User avatar
Joined: 03 Oct 2008
Posts: 3696
Lоcаtion: Ханты-Мансийский АО
Age: 44
Name: Сергей
На этот раз из глубоких закромов извлёк германцев.

Image

Year:2010 (2013 Re-Issue)
Style:Thrash Metal
Country:Germany
Archive:Flac+Cue+Log+Scans
Size:320Mb
Source:my CD
Label:Aarrgh Records

Line-Up:
Ricky Wagner - guitars,vocals
Sascha Marth - bass,vocals (backing)
Thorben Schulz - guitars
Bastian Santen - drums

Tracklist:
01. Red Alert 03:39
02. Toxic Avenger 04:18
03. Metal Rite 04:07
04. Altar Of Satan 04:08
05. Steamrolling Our Society 05:09
06. Have Gun, Will Travel 04:14
07. The Final Breath 06:39
08. Fallen Angels 04:01
Bonus Tracks:
09. Metal Night (Rezet To Zero Demo)
10. Altar Of Satan (Rezet To Zero Demo)
11. Black Convent (Rezet To Zero Demo)
12. Have Gun, Will Travel (Have Gun, Will Travel Demo)
13. Lord of the Drinks (Have Gun, Will Travel Demo)

"Cue"
REM GENRE "Thrash Metal"
REM DATE 2013
REM DISCID B30D1C0D
REM COMMENT "ExactAudioCopy v1.1"
PERFORMER "Rezet"
TITLE "Have Gun, Will Travel"
FILE "Rezet - Have Gun, Will Travel.flac" WAVE
TRACK 01 AUDIO
TITLE "Red Alert"
PERFORMER "Rezet"
INDEX 01 00:00:00
TRACK 02 AUDIO
TITLE "Toxic Avenger"
PERFORMER "Rezet"
INDEX 01 03:39:02
TRACK 03 AUDIO
TITLE "Metal Rite"
PERFORMER "Rezet"
INDEX 00 07:56:45
INDEX 01 07:57:47
TRACK 04 AUDIO
TITLE "Altar of Satan"
PERFORMER "Rezet"
INDEX 01 12:05:18
TRACK 05 AUDIO
TITLE "Steamrolling Our Society"
PERFORMER "Rezet"
INDEX 00 16:10:22
INDEX 01 16:12:21
TRACK 06 AUDIO
TITLE "Have Gun, Will Travel"
PERFORMER "Rezet"
INDEX 00 21:07:01
INDEX 01 21:09:00
TRACK 07 AUDIO
TITLE "The Final Breath"
PERFORMER "Rezet"
INDEX 00 25:22:36
INDEX 01 25:24:35
TRACK 08 AUDIO
TITLE "Fallen Angels"
PERFORMER "Rezet"
INDEX 01 31:55:11
TRACK 09 AUDIO
TITLE "Metal Night (Rezet to Zero Demo)"
PERFORMER "Rezet"
INDEX 00 35:59:19
INDEX 01 36:01:18
TRACK 10 AUDIO
TITLE "Altar of Satan (Rezet to Zero Demo)"
PERFORMER "Rezet"
INDEX 00 40:17:73
INDEX 01 40:19:72
TRACK 11 AUDIO
TITLE "Black Convent (Rezet to Zero Demo)"
PERFORMER "Rezet"
INDEX 00 44:49:25
INDEX 01 44:51:24
TRACK 12 AUDIO
TITLE "Have Gun, Will Travel (Have Gun, Will Travel Demo)"
PERFORMER "Rezet"
INDEX 00 48:19:64
INDEX 01 48:21:63
TRACK 13 AUDIO
TITLE "Lord of the Drinks (Have Gun, Will Travel Demo)"
PERFORMER "Rezet"
INDEX 00 52:35:09
INDEX 01 52:37:08

"Log"
Exact Audio Copy V1.1 from 23. June 2015

Отчёт EAC об извлечении, выполненном 7. июня 2016, 20:39

Rezet / Have Gun, Will Travel

Дисковод: HL-DT-STDVDRAM GTA0N Adapter: 1 ID: 0

Режим чтения : Достоверность
Использование точного потока : Да
Отключение кэша аудио : Да
Использование указателей C2 : Нет

Коррекция смещения при чтении : 102
Способность читать области Lead-in и Lead-out : Нет
Заполнение пропущенных сэмплов тишиной : Да
Удаление блоков с тишиной в начале и конце : Нет
При вычислениях CRC использовались нулевые сэмплы : Да
Интерфейс : Встроенный Win32-интерфейс для Win NT/2000

Выходной формат : Пользовательский кодировщик
Выбранный битрейт : 768 kBit/s
Качество : Высокий
Добавление ID3-тега : Нет
Утилита сжатия : C:\Program Files (x86)\Exact Audio Copy\FLAC\FLAC.EXE
Дополнительные параметры : -6 -V -T "ARTIST=%artist%" -T "TITLE=%title%" -T "ALBUM=%albumtitle%" -T "DATE=%year%" -T "TRACKNUMBER=%tracknr%" -T "GENRE=%genre%" -T "COMMENT=%comment%" -T "BAND=%albuminterpret%" -T "ALBUMARTIST=%albuminterpret%" -T "COMPOSER=%composer%" %haslyrics%--tag-from-file=LYRICS="%lyricsfile%"%haslyrics% -T "DISCNUMBER=%cdnumber%" -T "TOTALDISCS=%totalcds%" -T "TOTALTRACKS=%numtracks%" %hascover%--picture="%coverfile%"%hascover% %source% -o %dest%


TOC извлечённого CD

Трек | Старт | Длительность | Начальный сектор | Конечный сектор
---------------------------------------------------------------------
1 | 0:00.00 | 3:39.02 | 0 | 16426
2 | 3:39.02 | 4:18.45 | 16427 | 35821
3 | 7:57.47 | 4:07.46 | 35822 | 54392
4 | 12:05.18 | 4:07.03 | 54393 | 72920
5 | 16:12.21 | 4:56.54 | 72921 | 95174
6 | 21:09.00 | 4:15.35 | 95175 | 114334
7 | 25:24.35 | 6:30.51 | 114335 | 143635
8 | 31:55.11 | 4:06.07 | 143636 | 162092
9 | 36:01.18 | 4:18.54 | 162093 | 181496
10 | 40:19.72 | 4:31.27 | 181497 | 201848
11 | 44:51.24 | 3:30.39 | 201849 | 217637
12 | 48:21.63 | 4:15.20 | 217638 | 236782
13 | 52:37.08 | 3:19.55 | 236783 | 251762


Характеристики диапазона извлечения и сообщения об ошибках

Выбранный диапазон

Имя файла C:\Users\магазин\Music\Rezet - Have Gun, Will Travel.wav

Пиковый уровень 99.9 %
Скорость извлечения 4.1 X
Качество диапазона 99.9 %
CRC копии BF86A004
Копирование... OK

Ошибок не произошло


AccurateRip: сводка

Трек 1 отсутствует в базе данных
Трек 2 отсутствует в базе данных
Трек 3 отсутствует в базе данных
Трек 4 отсутствует в базе данных
Трек 5 отсутствует в базе данных
Трек 6 отсутствует в базе данных
Трек 7 отсутствует в базе данных
Трек 8 отсутствует в базе данных
Трек 9 отсутствует в базе данных
Трек 10 отсутствует в базе данных
Трек 11 отсутствует в базе данных
Трек 12 отсутствует в базе данных
Трек 13 отсутствует в базе данных

Ни одного трека нет в базе AccurateRip

Конец отчёта

---- CUETools DB Plugin V2.1.6

[CTDB TOCID: vzbgUgQi_M5h5KggR1muQjPbhWw-] disk not present in database
Submit result: vzbgUgQi_M5h5KggR1muQjPbhWw- has been uploaded


Have Gun, Will Travel

Image

Year:2012 (2013 Re-Issue)
Style:Thrash Metal
Country:Germany
Archive:Flac+Cue+Log+Scans
Size:505Mb
Source:my CD
Label:Aarrgh Records

Line-Up:
Ricky Wagner - guitars,vocals
Sascha Marth - bass,vocals (backing)
Thorben Schulz - guitars
Bastian Santen - drums

Tracklist:
1. The Quest 06:31
2. Combat Shock 04:09
3. Out for Blood 04:31
4. Charity (The Preacher) 05:42
5. Full Throttle 03:30
6. Visions from Beyond 02:00
7. Gargantua 06:32
8. Rezet to Zero 04:31
9. Black Convent 03:39
10. The Terror Strikes Back 07:43
Bonus Tracks:
11. Toxic Avenger 04:32 (Toxic Avenger Demo)
12. Metal Night 04:13 (Toxic Avenger Demo)
13. Altar of Satan 04:24 (Toxic Avenger Demo)
14. Liquid Valentine 05:02 (Toxic Avenger Demo)
15. Rezet to Zero 04:56 (Toxic Avenger Demo)

"Cue"
REM GENRE "Thrash Metal"
REM DATE 2013
REM DISCID E90FB60F
REM COMMENT "ExactAudioCopy v1.1"
PERFORMER "Rezet"
TITLE "Civic Nightmares"
FILE "Rezet - Civic Nightmares.flac" WAVE
TRACK 01 AUDIO
TITLE "The Quest"
PERFORMER "Rezet"
INDEX 01 00:00:00
TRACK 02 AUDIO
TITLE "Combat Shock"
PERFORMER "Rezet"
INDEX 01 06:04:45
TRACK 03 AUDIO
TITLE "Out For Blood"
PERFORMER "Rezet"
INDEX 01 09:56:08
TRACK 04 AUDIO
TITLE "Charity (The Preacher)"
PERFORMER "Rezet"
INDEX 01 14:09:61
TRACK 05 AUDIO
TITLE "Full Throttle"
PERFORMER "Rezet"
INDEX 01 19:26:31
TRACK 06 AUDIO
TITLE "Visions From Beyond"
PERFORMER "Rezet"
INDEX 01 22:45:16
TRACK 07 AUDIO
TITLE "Gargantua"
PERFORMER "Rezet"
INDEX 01 24:38:31
TRACK 08 AUDIO
TITLE "Rezet To Zero"
PERFORMER "Rezet"
INDEX 01 30:43:69
TRACK 09 AUDIO
TITLE "Black Convent"
PERFORMER "Rezet"
INDEX 01 34:56:39
TRACK 10 AUDIO
TITLE "The Terror Strikes Back"
PERFORMER "Rezet"
INDEX 01 38:22:32
TRACK 11 AUDIO
TITLE "Toxic Avenger (Toxic Avenger EP)"
PERFORMER "Rezet"
INDEX 01 45:35:17
TRACK 12 AUDIO
TITLE "Metal Night (Toxic Avenger EP)"
PERFORMER "Rezet"
INDEX 01 49:49:10
TRACK 13 AUDIO
TITLE "Altar Of Satan (Toxic Avenger EP)"
PERFORMER "Rezet"
INDEX 01 53:45:40
TRACK 14 AUDIO
TITLE "Liquid Valentine (Toxic Avenger EP)"
PERFORMER "Rezet"
INDEX 01 57:51:10
TRACK 15 AUDIO
TITLE "Rezet To Zero (Toxic Avenger EP)"
PERFORMER "Rezet"
INDEX 01 62:30:48

"Log"
Exact Audio Copy V1.1 from 23. June 2015

Отчёт EAC об извлечении, выполненном 7. июня 2016, 20:22

Rezet / Civic Nightmares

Дисковод: HL-DT-STDVDRAM GTA0N Adapter: 1 ID: 0

Режим чтения : Достоверность
Использование точного потока : Да
Отключение кэша аудио : Да
Использование указателей C2 : Нет

Коррекция смещения при чтении : 102
Способность читать области Lead-in и Lead-out : Нет
Заполнение пропущенных сэмплов тишиной : Да
Удаление блоков с тишиной в начале и конце : Нет
При вычислениях CRC использовались нулевые сэмплы : Да
Интерфейс : Встроенный Win32-интерфейс для Win NT/2000

Выходной формат : Пользовательский кодировщик
Выбранный битрейт : 768 kBit/s
Качество : Высокий
Добавление ID3-тега : Нет
Утилита сжатия : C:\Program Files (x86)\Exact Audio Copy\FLAC\FLAC.EXE
Дополнительные параметры : -6 -V -T "ARTIST=%artist%" -T "TITLE=%title%" -T "ALBUM=%albumtitle%" -T "DATE=%year%" -T "TRACKNUMBER=%tracknr%" -T "GENRE=%genre%" -T "COMMENT=%comment%" -T "BAND=%albuminterpret%" -T "ALBUMARTIST=%albuminterpret%" -T "COMPOSER=%composer%" %haslyrics%--tag-from-file=LYRICS="%lyricsfile%"%haslyrics% -T "DISCNUMBER=%cdnumber%" -T "TOTALDISCS=%totalcds%" -T "TOTALTRACKS=%numtracks%" %hascover%--picture="%coverfile%"%hascover% %source% -o %dest%


TOC извлечённого CD

Трек | Старт | Длительность | Начальный сектор | Конечный сектор
---------------------------------------------------------------------
1 | 0:00.00 | 6:04.45 | 0 | 27344
2 | 6:04.45 | 3:51.38 | 27345 | 44707
3 | 9:56.08 | 4:13.53 | 44708 | 63735
4 | 14:09.61 | 5:16.45 | 63736 | 87480
5 | 19:26.31 | 3:18.60 | 87481 | 102390
6 | 22:45.16 | 1:53.15 | 102391 | 110880
7 | 24:38.31 | 6:05.38 | 110881 | 138293
8 | 30:43.69 | 4:12.45 | 138294 | 157238
9 | 34:56.39 | 3:25.68 | 157239 | 172681
10 | 38:22.32 | 7:12.60 | 172682 | 205141
11 | 45:35.17 | 4:13.68 | 205142 | 224184
12 | 49:49.10 | 3:56.30 | 224185 | 241914
13 | 53:45.40 | 4:05.45 | 241915 | 260334
14 | 57:51.10 | 4:39.38 | 260335 | 281297
15 | 62:30.48 | 4:32.08 | 281298 | 301705


Характеристики диапазона извлечения и сообщения об ошибках

Выбранный диапазон

Имя файла C:\Users\магазин\Music\Rezet - Civic Nightmares.wav

Пиковый уровень 100.0 %
Скорость извлечения 2.2 X
Качество диапазона 99.9 %
CRC копии 92FD5F48
Копирование... OK

Ошибок не произошло


AccurateRip: сводка

Трек 1 отсутствует в базе данных
Трек 2 отсутствует в базе данных
Трек 3 отсутствует в базе данных
Трек 4 отсутствует в базе данных
Трек 5 отсутствует в базе данных
Трек 6 отсутствует в базе данных
Трек 7 отсутствует в базе данных
Трек 8 отсутствует в базе данных
Трек 9 отсутствует в базе данных
Трек 10 отсутствует в базе данных
Трек 11 отсутствует в базе данных
Трек 12 отсутствует в базе данных
Трек 13 отсутствует в базе данных
Трек 14 отсутствует в базе данных
Трек 15 отсутствует в базе данных

Ни одного трека нет в базе AccurateRip

Конец отчёта

---- CUETools DB Plugin V2.1.6

[CTDB TOCID: FviR4A8TgIXw.RCLzfamnby01UM-] disk not present in database
Submit result: FviR4A8TgIXw.RCLzfamnby01UM- has been uploaded


Civic Nightmares


Top
 Profile  
 
 
PostPosted: 08 Jun 2016 
Alive Again
User avatar
Joined: 17 Dec 2008
Posts: 4747
Lоcаtion: Курск Воронеж Оскол
Age: 44
Name: Дмитрий
В очередной раз незнаком с такими.
И снова :thanx: Серёга!


Top
 Profile E-mail  
 
 
PostPosted: 08 Jun 2016 
Генеральный thrasher
User avatar
Joined: 03 Oct 2008
Posts: 3696
Lоcаtion: Ханты-Мансийский АО
Age: 44
Name: Сергей
В очередной раз незнаком с такими.


А меж тем коллектив существует с 2004 года и записей у них куча.Свежий альбом этого года уже в сети,пока только в мр3.


Top
 Profile  
 
 
PostPosted: 08 Jun 2016 
Partisanen - nicht kapitulieren!!
User avatar
Joined: 25 Dec 2011
Posts: 6944
Lоcаtion: партизанские леса
Age: 46
Name: Владимир
:thanx:

_________________
One more beer and Heavy Metal and I'm just fine!
старовер, куле... слово "блин" - до сих пор через Ъ говорю


Top
 Profile E-mail  
 
 
PostPosted: 08 Jun 2016 
Прокъмитолист
User avatar
Joined: 12 Aug 2007
Posts: 6545
Lоcаtion: Санктъ-Петербуркъ
Age: 51
Name: Олекъ
спасибо, Серёга! :thanx:

_________________
прокъметол - это музыко, от которово есть прок (ы)


Top
 Profile  
 
 
PostPosted: 08 Jun 2016 
Хиппей (support team)
User avatar
Joined: 30 Jul 2007
Posts: 111863
Lоcаtion: Киев (Kyiv, UA)
Age: 45
Name: Andrey
:thanx:

_________________


Top
 Profile E-mail  
 
 
PostPosted: 08 Jun 2016 
консэрваторъ
User avatar
Joined: 11 Aug 2007
Posts: 16843
Lоcаtion: Псков
Age: 45
Name: Сергей
Хренасе демотейпов понаклёпан... :arrov: http://www.metal-archives.com/bands/Rezet/53283 Будем ознакамливаться, благодарю!.. :thanx:

_________________
THRASH 'EM ALL


Top
 Profile E-mail  
 
 
PostPosted: 09 Jun 2016 
консэрваторъ
User avatar
Joined: 11 Aug 2007
Posts: 16843
Lоcаtion: Псков
Age: 45
Name: Сергей
Начал знакомство с далека, благо здесь в бонусах частично есть ранний материал...
2007 Rezet to Zero (Demo) - с него есть три песни... пурга страшная...
2008 Toxic Avenger (EP) - полный вариант все 5 песен... заиграли плотнее и шустрее, но вокал это жесть конечно... Ricky Wagner видимо сильно хотел петь...
Зачем-то написал музыкантам, чтоб дали послухать самое первое демо...

_________________
THRASH 'EM ALL


Top
 Profile E-mail  
 
 
PostPosted: 09 Jun 2016 
консэрваторъ
User avatar
Joined: 11 Aug 2007
Posts: 16843
Lоcаtion: Псков
Age: 45
Name: Сергей
Слушаю 10-ый год... :meloman: норм, норм... разыгрываются парни... Вагнер распелся... Жестокие сибиляции обнаружены на треке 3. Metal Rite, для явности вкл. с 1:24... Последний трек сильно веет высокочехничным Мегадетхом, что собственно и круть!.. :true:
На альбоме 12-ого года почему-то напрочь выпилены все низы... :( звучит как пятая моно перезапись с радиолы на кассеты... Прогресс музыкантов очевиден... появились микроэлементы прога... К середине альбома к плоскости звука привыкаешь и начинает переть...
В целом группа для ознакомления и развитию кругозора хороша, весьма интересные виртуозы-самородки... Спасибо Серёга, за ознакамливание!.. :lob:
А, да, кста, 16-ый так же неимоверно техничен, виртуозен и сух... 3-ий трек сильно напоминает что-то "медленное" из Нуклеара, который Ассаулт...

_________________
THRASH 'EM ALL


Top
 Profile E-mail  
 
 
PostPosted: 11 Jun 2016 
Генеральный thrasher
User avatar
Joined: 03 Oct 2008
Posts: 3696
Lоcаtion: Ханты-Мансийский АО
Age: 44
Name: Сергей
Надо бы и новый пожалуй прикупить!Для расширения коллекции.Чем-то они мне напоминают ранний Destruction.Или мне кажется?


Top
 Profile  
 
 
PostPosted: 18 Jun 2016 
консэрваторъ
User avatar
Joined: 11 Aug 2007
Posts: 16843
Lоcаtion: Псков
Age: 45
Name: Сергей
splatty wrote:
написал музыкантам, чтоб дали послухать самое первое демо...

REZET wrote:
Hi Sergej! Thank you for the kind words. Unfortunately the very first demo is not available anymore. Greetings

_________________
THRASH 'EM ALL


Top
 Profile E-mail  
 
 
PostPosted: 01 Sep 2017 
Доктор энтомологии
User avatar
Joined: 22 Jan 2009
Posts: 9694
Lоcаtion: Даугавпилс
Age: 44
Name: Алексей
Епишечка новая вышла.

Rezet 2017 You asked for it

Image

1. Minority Erazer
2. Thrash Their Hate
3. Friendly Fire
4. Chemical Warfare (Dead Kennedys cover)

Бодрячковый трэш, нечто между поздним Destruction и ранним Креатор :pardon: Обложечка понравилась, с политическими проститутками и упырями на карусельках :lob:
Клип есть на новую песенко, для любителей собирать клипы:
REZET - Minority Erazer (Official Video)
| +


Top
 Profile  
 
 
PostPosted: 01 Sep 2017 
Хиппей (support team)
User avatar
Joined: 30 Jul 2007
Posts: 111863
Lоcаtion: Киев (Kyiv, UA)
Age: 45
Name: Andrey
Entomologist wrote:
Обложечка понравилась, с политическими проститутками и упырями на карусельках :lob:

Справа китайский флаг или совецкий? :scratch:
А по центру игиловский?

_________________


Top
 Profile E-mail  
 
 
PostPosted: 01 Sep 2017 
консэрваторъ
User avatar
Joined: 11 Aug 2007
Posts: 16843
Lоcаtion: Псков
Age: 45
Name: Сергей
Подозрительные 320... и здесь так же... :arrov: https://metalarea.org/forum/index.php?showtopic=293850

Image

_________________
THRASH 'EM ALL


Top
 Profile E-mail  
 
 
PostPosted: 12 Sep 2017 
консэрваторъ
User avatar
Joined: 11 Aug 2007
Posts: 16843
Lоcаtion: Псков
Age: 45
Name: Сергей
10 еуро... за еп... :dash:
Чуть дешевле, но всё равно... :nea: :arrov: http://www.ebay.com/itm/Rezet-You-Asked ... 2633358231

Вообщем вот...

Rezet - You Asked for It 2017 (EP)

Image

1. Minority Erazer 03:14
2. Thrash Their Hate 03:59
3. Friendly Fire 04:59
4. Chemical Warfare (Dead Kennedys cover) 02:47

DZ-rip 320...

Image

Группа явно добавила во всём!.. :true: :meloman:

_________________
THRASH 'EM ALL


Top
 Profile E-mail  
 
 
PostPosted: 12 Sep 2017 
Генеральный thrasher
User avatar
Joined: 03 Oct 2008
Posts: 3696
Lоcаtion: Ханты-Мансийский АО
Age: 44
Name: Сергей
Чо ж такая цена за 4 песни?!! :shok: А миник классный.


Top
 Profile  
 
 
PostPosted: 12 Sep 2017 
Хиппей (support team)
User avatar
Joined: 30 Jul 2007
Posts: 111863
Lоcаtion: Киев (Kyiv, UA)
Age: 45
Name: Andrey
splatty wrote:
DZ-rip 320

:thanx:

_________________


Top
 Profile E-mail  
 
 
PostPosted: 22 Feb 2019 
консэрваторъ
User avatar
Joined: 11 Aug 2007
Posts: 16843
Lоcаtion: Псков
Age: 45
Name: Сергей
Rezet - Deal with It! 2019

Image

https://www.deezer.com/ru/album/82388342 :lob:

Трэш как трэш... :vic: Изюма не обнаружено...

_________________
THRASH 'EM ALL


Top
 Profile E-mail  
 
 
PostPosted: 23 Feb 2019 
Генеральный thrasher
User avatar
Joined: 03 Oct 2008
Posts: 3696
Lоcаtion: Ханты-Мансийский АО
Age: 44
Name: Сергей
Сейчас послушаю...


Top
 Profile  
 
 
PostPosted: 23 Feb 2019 
консэрваторъ
User avatar
Joined: 11 Aug 2007
Posts: 16843
Lоcаtion: Псков
Age: 45
Name: Сергей
Зато обнаружены какие-то коварные пуки местами на протяжение всей записи... :(

_________________
THRASH 'EM ALL


Top
 Profile E-mail  
 
Display posts from previous:  Sort by  
Post new topic Reply to topic  [ 20 posts ] 

All times are UTC + 3 hours


Who is online

Users browsing this forum: No registered users and 4 guests


You cannot post new topics in this forum
You cannot reply to topics in this forum
You cannot edit your posts in this forum
You cannot delete your posts in this forum
You cannot post attachments in this forum

Search for:
Яндекс.Метрика
cron
Powered by phpBB © 2000, 2002, 2005, 2007 phpBB Group