\m/ 80's metal \m/

Информационно-аналитический форум "80 см пыли" (In Search We Trust) "У нас никто никуда не спешит"
Me For You - http://me-4u.com
It is currently 19 Jun 2019

All times are UTC + 3 hours

Spoiler
Chat - temporary registration for foreign users (please leave your application here)





Forum rules


Уважаемые пользователи ресурса, друзья, коллеги и гости нашего форума. Данный раздел конференции создан с целью рафинации, и посвящён такому стилевому направлению в музыке, как Thrash Metal во всех его проявлениях и ипостасях, а иногда и переходящему на пограничные стили Speed, Power, Groove, Crossover, MDM и т.п.
Главное правило здесь одно: Одна группа – одна тема! Всё остальное созвучно основным нормам поведения на конференции.
Шаблон оформления тем в этом подфоруме должен быть основан на данных сайта www.metal-archives.com и выглядеть следующим образом:

Группа (Страна) - Стилевые рамки - дискография
Slayer (USA) - Thrash Metal - дискография


В теме допустимо размещение всей информации касающейся данного коллектива: анонсы любых альбомов в любых форматах, запросы любых релизов коллектива (кроме релизов текущего и прошлого годов), обсуждения, обзоры, а в остальном всё как обычно. Уважаем друг друга, не грубим, соблюдаем нормы поведения на конференции, оформляем анонсы и запросы красиво и информативно, что бы модераторы не посчитали их троллингом, и не отправили куда положено, выписав Вам предупреждение или ещё что похуже… Прежде чем что-то запросить или запостить, пользуемся поиском! Пользуемся поиском! ПОЛЬЗУЕМСЯ ПОИСКОМ!!! Так слышно меня?.. :pardon:
Интересного, конструктивного и креативного общения! ;)

Image



Post new topic Reply to topic  [ 40 posts ]  Go to page 1, 2  Next
Author Message
 
PostPosted: 16 Sep 2011 
Персональный статус
Joined: 30 Aug 2008
Posts: 335
Lоcаtion: Львов
Age: 45
Name: .Алексей
В поиске 2 альбома

1998 Genuine Parts | +
Image

1. Infernal 03:20
2. Heart Winter 03:36
3. Bloodthirst Remains 03:10
4. Mania 03:37
5. Agony of Christ 03:43
6. My Own Requiem 05:43
7. Blackherder 02:59
8. Demon 04:54
9. 2nd Intergalactical Cyclone 02:49
10. Forever Shadow 02:37
11. The God 02:20
12. First Knife 04:58

2003 Torture Tactics - Mercy Killings | +
Image

1. In Hell's Kitchen 04:35
2. Savoury Human Bodyparts 03:15
3. Gang-Bang-Bitchcraft 03:06
4. Merciless Sluthunt 04:17
5. Torture Garden, Paradise of Pain 02:43
6. The Sweet Suffering 06:02
7. Axedental Pain and Pleasure 01:59
8. Deathtrapped 04:32
9. XXB 04:08
10. Fucking Bloody Wisdom 03:57
11. Break-Choke-Dance 02:31
12. Brainboilwash 09:25


Top
 Profile E-mail  
 
 
PostPosted: 16 Sep 2011 
консэрваторъ
User avatar
Joined: 11 Aug 2007
Posts: 16979
Lоcаtion: Псков
Age: 45
Name: Сергей
Алексей, вставь картинки в своё сообщение пожалуйста... и названия альбомов ещё неплохо бы жирным выделить...

_________________
THRASH 'EM ALL


Top
 Profile E-mail  
 
 
PostPosted: 16 Sep 2011 
спирт 100%
User avatar
Joined: 22 Sep 2008
Posts: 4427
Age: 47
Name: Саня
Wasteland - Torture Tactics - Mercy Killings
http://tgf-services.com/UserDownloads/5 ... hAtf3Jg==/


Top
 Profile  
 
 
PostPosted: 16 Sep 2011 
Персональный статус
Joined: 30 Aug 2008
Posts: 335
Lоcаtion: Львов
Age: 45
Name: .Алексей
spryt777-спасибо ,но ссылки левые скачать не возможно :(


Top
 Profile E-mail  
 
 
PostPosted: 16 Sep 2011 
Хиппей (support team)
User avatar
Joined: 30 Jul 2007
Posts: 113091
Lоcаtion: Киев (Kyiv, UA)
Age: 46
Name: Andrey
ulver73 wrote:
но ссылки левые скачать не возможно

У меня качается :pardon:

_________________


Top
 Profile E-mail  
 
 
PostPosted: 16 Sep 2011 
Персональный статус
Joined: 30 Aug 2008
Posts: 335
Lоcаtion: Львов
Age: 45
Name: .Алексей
Андрей Саныч-говнообменник с капчей, по песне ,и в лоубитрейте!Подождем ,может кто, хотя бы лучший вариант предложит.


Top
 Profile E-mail  
 
 
PostPosted: 16 Sep 2011 
Хиппей (support team)
User avatar
Joined: 30 Jul 2007
Posts: 113091
Lоcаtion: Киев (Kyiv, UA)
Age: 46
Name: Andrey
ulver73 wrote:
и в лоубитрейте

:shok: Там VBR~256. И это не обменник, а сайт. Дают скачать по одному трэку. Но чистка кукисов и волосатые умелые руки решают эту мелочь...
Скачал, заливаю.

Лёш, просьба красивенько оформлять запросы и картинки лепить прямо на форум.
Блин, ты замечаешь, что помимо баловства с пробелами (то два делаешь, то вообще ни одного в названии темы) скопировал с М-А и "Show lyrics"?
Срамота ведь и наплевательское отношение :fingal:

_________________


Top
 Profile E-mail  
 
 
PostPosted: 16 Sep 2011 
Хиппей (support team)
User avatar
Joined: 30 Jul 2007
Posts: 113091
Lоcаtion: Киев (Kyiv, UA)
Age: 46
Name: Andrey
И еще - сколько ж можно повторять - пользуемся поиском по форуму, предже чем размещать запрос :arrow: viewtopic.php?f=128&t=4479 :esel:

Объединяю темы :pardon:

_________________


Top
 Profile E-mail  
 
 
PostPosted: 16 Sep 2011 
Хиппей (support team)
User avatar
Joined: 30 Jul 2007
Posts: 113091
Lоcаtion: Киев (Kyiv, UA)
Age: 46
Name: Andrey
Wasteland - 2003 - Torture Tactics - Mercy Killings [VBR]


MultiUp l Narod

Бескомпромиссный скоростной трэшак, без малейших потуг сыграть что-то оригинальное, или даже своё.
По сути - клон Sodom & Kreator :pardon: Возможно, с неким сдвигом в MDM :vic:

3/10

_________________


Top
 Profile E-mail  
 
 
PostPosted: 16 Sep 2011 
Хиппей (support team)
User avatar
Joined: 30 Jul 2007
Posts: 113091
Lоcаtion: Киев (Kyiv, UA)
Age: 46
Name: Andrey
Тьху мимо урны. Оказывается, в Германии три группы с таким названием :starz:

Разделяю снова темы...

_________________


Top
 Profile E-mail  
 
 
PostPosted: 17 Sep 2011 
консэрваторъ
User avatar
Joined: 11 Aug 2007
Posts: 16979
Lоcаtion: Псков
Age: 45
Name: Сергей
Scatterbrain wrote:
наплевательское отношение

вот это (в том числе) отодвигает выполнение запроса на неопределённый срок... стопудофф...
Scatterbrain wrote:
Оказывается, в Германии три группы с таким названием

www.metal-archives.com wrote:
Not to be confused with the heavy/power metal band Wasteland from Stuttgart and thrash/death metal band Wasteland from Blomberg.

хорошо хоть что только одна из них играла трэшак... а так бы... уууу...

_________________
THRASH 'EM ALL


Top
 Profile E-mail  
 
 
PostPosted: 16 Dec 2011 
спирт 100%
User avatar
Joined: 22 Sep 2008
Posts: 4427
Age: 47
Name: Саня
Wasteland - Genuine Parts - 1998 - 320kbps

Image

01. Infernal
02. Heart Winter
03. Bloodthirst Remains
04. Mania
05. Agony of Christ
06. My Own Requiem
07. Blackherder
08. Demon
09. 2nd Intergalactical Cyclone
10. Forever Shadow
11. The God
12. First Knife

http://www.multiupload.com/GIHJBWJ5TN


Top
 Profile  
 
 
PostPosted: 17 Dec 2011 
Хиппей (support team)
User avatar
Joined: 30 Jul 2007
Posts: 113091
Lоcаtion: Киев (Kyiv, UA)
Age: 46
Name: Andrey
:thanx:

mirror: MultiUp l Narod

_________________


Top
 Profile E-mail  
 
 
PostPosted: 09 Mar 2012 
Работнечег
User avatar
Joined: 28 Aug 2007
Posts: 5846
Lоcаtion: г. Москва
Age: 30
Name: Дима
Спасибо, заценю! :true:


Top
 Profile E-mail  
 
 
PostPosted: 02 Jun 2016 
Генеральный thrasher
User avatar
Joined: 03 Oct 2008
Posts: 3710
Lоcаtion: Ханты-Мансийский АО
Age: 44
Name: Сергей
Image

Year:1995
Style:Thrash Metal
Country:Germany
Archive:Flac+Cue+Log+Scans
Size:144Mb
Source:my CD
Label:Desire Records

Line-Up:
Frank Neugebauer - bass
Tobias Schmalfeld - vocals
Frank Gottschalk - drums
Stephan Kern - guitars

Tracklist:
01. Lavatory Charwoman 04:01
02. Dead End 03:00
03. Revelation Of Fear 04:05
04. How To Get Mentally Cracked 05:09
05. Chemikills - Wasted Land 04:46

"Cue"
REM GENRE "Thrash Metal"
REM DATE 1995
REM DISCID 3B04EB05
REM COMMENT "ExactAudioCopy v1.1"
PERFORMER "Wasteland"
TITLE "Mare Tranquillitatis"
FILE "Wasteland - Mare Tranquillitatis.flac" WAVE
TRACK 01 AUDIO
TITLE "Lavatory Charwoman"
PERFORMER "Wasteland"
INDEX 01 00:00:00
TRACK 02 AUDIO
TITLE "Dead End"
PERFORMER "Wasteland"
INDEX 01 04:00:45
TRACK 03 AUDIO
TITLE "Revelation Of Fear"
PERFORMER "Wasteland"
INDEX 01 07:00:40
TRACK 04 AUDIO
TITLE "How To Get Mentally Cracked"
PERFORMER "Wasteland"
INDEX 01 11:05:30
TRACK 05 AUDIO
TITLE "Chemikills - Wasted Land"
PERFORMER "Wasteland"
INDEX 01 16:14:17

"Log"
Exact Audio Copy V1.1 from 23. June 2015

Отчёт EAC об извлечении, выполненном 31. мая 2016, 16:04

Wasteland / Mare Tranquillitatis

Дисковод: HL-DT-STDVDRAM GTA0N Adapter: 1 ID: 0

Режим чтения : Достоверность
Использование точного потока : Да
Отключение кэша аудио : Да
Использование указателей C2 : Нет

Коррекция смещения при чтении : 102
Способность читать области Lead-in и Lead-out : Нет
Заполнение пропущенных сэмплов тишиной : Да
Удаление блоков с тишиной в начале и конце : Нет
При вычислениях CRC использовались нулевые сэмплы : Да
Интерфейс : Встроенный Win32-интерфейс для Win NT/2000

Выходной формат : Пользовательский кодировщик
Выбранный битрейт : 768 kBit/s
Качество : Высокий
Добавление ID3-тега : Нет
Утилита сжатия : C:\Program Files (x86)\Exact Audio Copy\FLAC\FLAC.EXE
Дополнительные параметры : -6 -V -T "ARTIST=%artist%" -T "TITLE=%title%" -T "ALBUM=%albumtitle%" -T "DATE=%year%" -T "TRACKNUMBER=%tracknr%" -T "GENRE=%genre%" -T "COMMENT=%comment%" -T "BAND=%albuminterpret%" -T "ALBUMARTIST=%albuminterpret%" -T "COMPOSER=%composer%" %haslyrics%--tag-from-file=LYRICS="%lyricsfile%"%haslyrics% -T "DISCNUMBER=%cdnumber%" -T "TOTALDISCS=%totalcds%" -T "TOTALTRACKS=%numtracks%" %hascover%--picture="%coverfile%"%hascover% %source% -o %dest%


TOC извлечённого CD

Трек | Старт | Длительность | Начальный сектор | Конечный сектор
---------------------------------------------------------------------
1 | 0:00.00 | 4:00.45 | 0 | 18044
2 | 4:00.45 | 2:59.70 | 18045 | 31539
3 | 7:00.40 | 4:04.65 | 31540 | 49904
4 | 11:05.30 | 5:08.62 | 49905 | 73066
5 | 16:14.17 | 4:45.55 | 73067 | 94496


Характеристики диапазона извлечения и сообщения об ошибках

Выбранный диапазон

Имя файла C:\Users\магазин\Music\Wasteland - Mare Tranquillitatis.wav

Пиковый уровень 100.0 %
Скорость извлечения 3.2 X
Качество диапазона 99.9 %
CRC копии 99E372CE
Копирование... OK

Ошибок не произошло


AccurateRip: сводка

Трек 1 : извлечено точно (доверие 1) [28CA65F5] (AR v2)
Трек 2 : извлечено точно (доверие 1) [26F97B61] (AR v2)
Трек 3 : извлечено точно (доверие 1) [0B11D883] (AR v2)
Трек 4 : извлечено точно (доверие 1) [6816FA55] (AR v2)
Трек 5 : извлечено точно (доверие 1) [DB3CC67D] (AR v2)

Все треки извлечены точно

Конец отчёта

---- CUETools DB Plugin V2.1.6

[CTDB TOCID: Ex..MEpL2nybL.POWy6lob4JHTg-] disk not present in database
Submit result: Ex..MEpL2nybL.POWy6lob4JHTg- has been uploaded


Mare Tranquillitatis


Top
 Profile  
 
 
PostPosted: 02 Jun 2016 
Генеральный thrasher
User avatar
Joined: 03 Oct 2008
Posts: 3710
Lоcаtion: Ханты-Мансийский АО
Age: 44
Name: Сергей
Image

Year:1998
Style:Thrash Metal
Country:Germany
Archive:Flac+Cue+Log+Scans
Size:329Mb
Source:my CD
Label:Self-Release

Line-Up:
André Ipfling - drums
Frank Neugebauer - bass
Tobias Schmalfeld - vocals
Stephan Kern - guitars

Tracklist:
01. Infernal 03:21
02. Heart Winter 03:37
03. Bloodthirst Remains 03:11
04. Mania 03:38
05. Agony of Christ 03:44
06. My Own Requiem 05:44
07. Blackherder 03:00
08. Demon 04:55
09. 2nd Intergalactical Cyclone 02:50
10. Forever Shadow 02:38
11. The God 02:21
12. First Knife 04:59

"Cue"
REM GENRE "Thrash Metal"
REM DATE 1998
REM DISCID 910A470C
REM COMMENT "ExactAudioCopy v1.1"
PERFORMER "Wasteland"
TITLE "Genuine Parts"
FILE "Wasteland - Genuine Parts.flac" WAVE
TRACK 01 AUDIO
TITLE "Infernal"
PERFORMER "Wasteland"
INDEX 00 00:00:00
INDEX 01 00:00:30
TRACK 02 AUDIO
TITLE "Heartwinter"
PERFORMER "Wasteland"
INDEX 01 03:21:16
TRACK 03 AUDIO
TITLE "Bloodthirst Remains"
PERFORMER "Wasteland"
INDEX 01 06:57:63
TRACK 04 AUDIO
TITLE "Mania"
PERFORMER "Wasteland"
INDEX 01 10:08:08
TRACK 05 AUDIO
TITLE "Agony of Christ"
PERFORMER "Wasteland"
INDEX 01 13:45:63
TRACK 06 AUDIO
TITLE "My Own Requiem"
PERFORMER "Wasteland"
INDEX 01 17:28:67
TRACK 07 AUDIO
TITLE "Blackherder"
PERFORMER "Wasteland"
INDEX 01 23:12:06
TRACK 08 AUDIO
TITLE "Demon"
PERFORMER "Wasteland"
INDEX 01 26:11:15
TRACK 09 AUDIO
TITLE "2nd Intergalactical Cyclone"
PERFORMER "Wasteland"
INDEX 01 31:05:20
TRACK 10 AUDIO
TITLE "Forever Shadow"
PERFORMER "Wasteland"
INDEX 01 33:54:60
TRACK 11 AUDIO
TITLE "The God"
PERFORMER "Wasteland"
INDEX 01 36:32:46
TRACK 12 AUDIO
TITLE "First Knife"
PERFORMER "Wasteland"
INDEX 01 38:52:66

"Log"
Exact Audio Copy V1.1 from 23. June 2015

Отчёт EAC об извлечении, выполненном 31. мая 2016, 15:56

Wasteland / Genuine Parts

Дисковод: HL-DT-STDVDRAM GTA0N Adapter: 1 ID: 0

Режим чтения : Достоверность
Использование точного потока : Да
Отключение кэша аудио : Да
Использование указателей C2 : Нет

Коррекция смещения при чтении : 102
Способность читать области Lead-in и Lead-out : Нет
Заполнение пропущенных сэмплов тишиной : Да
Удаление блоков с тишиной в начале и конце : Нет
При вычислениях CRC использовались нулевые сэмплы : Да
Интерфейс : Встроенный Win32-интерфейс для Win NT/2000

Выходной формат : Пользовательский кодировщик
Выбранный битрейт : 768 kBit/s
Качество : Высокий
Добавление ID3-тега : Нет
Утилита сжатия : C:\Program Files (x86)\Exact Audio Copy\FLAC\FLAC.EXE
Дополнительные параметры : -6 -V -T "ARTIST=%artist%" -T "TITLE=%title%" -T "ALBUM=%albumtitle%" -T "DATE=%year%" -T "TRACKNUMBER=%tracknr%" -T "GENRE=%genre%" -T "COMMENT=%comment%" -T "BAND=%albuminterpret%" -T "ALBUMARTIST=%albuminterpret%" -T "COMPOSER=%composer%" %haslyrics%--tag-from-file=LYRICS="%lyricsfile%"%haslyrics% -T "DISCNUMBER=%cdnumber%" -T "TOTALDISCS=%totalcds%" -T "TOTALTRACKS=%numtracks%" %hascover%--picture="%coverfile%"%hascover% %source% -o %dest%


TOC извлечённого CD

Трек | Старт | Длительность | Начальный сектор | Конечный сектор
---------------------------------------------------------------------
1 | 0:00.30 | 3:20.61 | 30 | 15090
2 | 3:21.16 | 3:36.47 | 15091 | 31337
3 | 6:57.63 | 3:10.20 | 31338 | 45607
4 | 10:08.08 | 3:37.55 | 45608 | 61937
5 | 13:45.63 | 3:43.04 | 61938 | 78666
6 | 17:28.67 | 5:43.14 | 78667 | 104405
7 | 23:12.06 | 2:59.09 | 104406 | 117839
8 | 26:11.15 | 4:54.05 | 117840 | 139894
9 | 31:05.20 | 2:49.40 | 139895 | 152609
10 | 33:54.60 | 2:37.61 | 152610 | 164445
11 | 36:32.46 | 2:20.20 | 164446 | 174965
12 | 38:52.66 | 4:58.14 | 174966 | 197329


Характеристики диапазона извлечения и сообщения об ошибках

Выбранный диапазон

Имя файла C:\Users\магазин\Music\Wasteland - Genuine Parts.wav

Пиковый уровень 100.0 %
Скорость извлечения 3.8 X
Качество диапазона 99.9 %
CRC копии 8105006E
Копирование... OK

Ошибок не произошло


AccurateRip: сводка

Трек 1 : извлечено точно (доверие 1) [5B957929] (AR v1)
Трек 2 : извлечено точно (доверие 1) [98EF527F] (AR v1)
Трек 3 : извлечено точно (доверие 1) [D7B58612] (AR v1)
Трек 4 : извлечено точно (доверие 1) [DBB7FF70] (AR v1)
Трек 5 : извлечено точно (доверие 1) [2C9AFDB2] (AR v1)
Трек 6 : извлечено точно (доверие 1) [4D1BD18D] (AR v1)
Трек 7 : извлечено точно (доверие 1) [D417EBE8] (AR v1)
Трек 8 : извлечено точно (доверие 1) [A0BB7B82] (AR v1)
Трек 9 : извлечено точно (доверие 1) [4B07CD45] (AR v1)
Трек 10 : извлечено точно (доверие 1) [27A4BE2D] (AR v1)
Трек 11 : извлечено точно (доверие 1) [47A82392] (AR v1)
Трек 12 : извлечено точно (доверие 1) [4593C58F] (AR v1)

Все треки извлечены точно

Конец отчёта

---- CUETools DB Plugin V2.1.6

[CTDB TOCID: gSHJzbSxhlSemlBQUjvuhPuwZ7M-] disk not present in database
Submit result: gSHJzbSxhlSemlBQUjvuhPuwZ7M- has been uploaded


Genuine Parts


Top
 Profile  
 
 
PostPosted: 02 Jun 2016 
Прокъмитолист
User avatar
Joined: 12 Aug 2007
Posts: 6557
Lоcаtion: Санктъ-Петербуркъ
Age: 51
Name: Олекъ
:thanx:

_________________
прокъметол - это музыко, от которово есть прок (ы)


Top
 Profile  
 
 
PostPosted: 02 Jun 2016 
Прокъмитолист
User avatar
Joined: 12 Aug 2007
Posts: 6557
Lоcаtion: Санктъ-Петербуркъ
Age: 51
Name: Олекъ
и еще раз :thanx:

_________________
прокъметол - это музыко, от которово есть прок (ы)


Top
 Profile  
 
 
PostPosted: 03 Jun 2016 
консэрваторъ
User avatar
Joined: 11 Aug 2007
Posts: 16979
Lоcаtion: Псков
Age: 45
Name: Сергей
Серёг, спасибо!.. А третьего года альбом имеется?.. :oops:

_________________
THRASH 'EM ALL


Top
 Profile E-mail  
 
 
PostPosted: 03 Jun 2016 
консэрваторъ
User avatar
Joined: 11 Aug 2007
Posts: 16979
Lоcаtion: Псков
Age: 45
Name: Сергей
И здесь благодарственное письмо!.. :lob:

_________________
THRASH 'EM ALL


Top
 Profile E-mail  
 
Display posts from previous:  Sort by  
Post new topic Reply to topic  [ 40 posts ]  Go to page 1, 2  Next

All times are UTC + 3 hours


Who is online

Users browsing this forum: No registered users and 3 guests


You cannot post new topics in this forum
You cannot reply to topics in this forum
You cannot edit your posts in this forum
You cannot delete your posts in this forum
You cannot post attachments in this forum

Search for:
Яндекс.Метрика
Powered by phpBB © 2000, 2002, 2005, 2007 phpBB Group