\m/ 80's metal \m/

Информационно-аналитический форум "80 см пыли" (In Search We Trust) "У нас никто никуда не спешит"
Me For You - http://me-4u.com
It is currently 19 Jun 2019

All times are UTC + 3 hours

Spoiler
Chat - temporary registration for foreign users (please leave your application here)





Forum rules


Уважаемые пользователи ресурса, друзья, коллеги и гости нашего форума. Данный раздел конференции создан с целью рафинации, и посвящён такому стилевому направлению в музыке, как Thrash Metal во всех его проявлениях и ипостасях, а иногда и переходящему на пограничные стили Speed, Power, Groove, Crossover, MDM и т.п.
Главное правило здесь одно: Одна группа – одна тема! Всё остальное созвучно основным нормам поведения на конференции.
Шаблон оформления тем в этом подфоруме должен быть основан на данных сайта www.metal-archives.com и выглядеть следующим образом:

Группа (Страна) - Стилевые рамки - дискография
Slayer (USA) - Thrash Metal - дискография


В теме допустимо размещение всей информации касающейся данного коллектива: анонсы любых альбомов в любых форматах, запросы любых релизов коллектива (кроме релизов текущего и прошлого годов), обсуждения, обзоры, а в остальном всё как обычно. Уважаем друг друга, не грубим, соблюдаем нормы поведения на конференции, оформляем анонсы и запросы красиво и информативно, что бы модераторы не посчитали их троллингом, и не отправили куда положено, выписав Вам предупреждение или ещё что похуже… Прежде чем что-то запросить или запостить, пользуемся поиском! Пользуемся поиском! ПОЛЬЗУЕМСЯ ПОИСКОМ!!! Так слышно меня?.. :pardon:
Интересного, конструктивного и креативного общения! ;)

Image



Post new topic Reply to topic  [ 20 posts ] 
Author Message
 
PostPosted: 03 May 2016 
Генеральный thrasher
User avatar
Joined: 03 Oct 2008
Posts: 3710
Lоcаtion: Ханты-Мансийский АО
Age: 44
Name: Сергей
Image

Year:2013
Style:Progressive/Thrash Metal
Country:U.S.A.
Archive:Flac+Cue+Log+Scans
Size:441Mb
Source:my CD
Label:Killer Metal Records

Line-Up:
Keith Letourneau - guitars,vocals
Tim Smith - guitars
Kurt Ragis - drums
Nick Ziembicki - bass

Tracklist:
01. Shallow Ground 06:12
02. Death And Destruction 03:57
03. The Black Rose 05:20
04. End Of Everything 05:14
05. Whence They Came 05:32
06. Before The Dawn 07:44
07. Rebirth 05:11
08. Prostitution 04:13
09. Cleansing Of The Hollow 07:13
10. Darkness 05:54
11. I.D.G.A.F. 03:07

"Cue"
REM GENRE "Progressive/Thrash Metal"
REM DATE 2013
REM DISCID 8A0DF40B
REM COMMENT "ExactAudioCopy v1.1"
PERFORMER "Shallow Ground"
TITLE "The End Of Everything"
FILE "Shallow Ground - The End Of Everything.flac" WAVE
TRACK 01 AUDIO
TITLE "Shallow Ground"
PERFORMER "Shallow Ground"
INDEX 01 00:00:00
TRACK 02 AUDIO
TITLE "Death and Destruction"
PERFORMER "Shallow Ground"
INDEX 01 06:11:67
TRACK 03 AUDIO
TITLE "The Black Rose"
PERFORMER "Shallow Ground"
INDEX 01 10:08:52
TRACK 04 AUDIO
TITLE "End Of Everything"
PERFORMER "Shallow Ground"
INDEX 01 15:28:52
TRACK 05 AUDIO
TITLE "Whence They Came"
PERFORMER "Shallow Ground"
INDEX 01 20:42:07
TRACK 06 AUDIO
TITLE "Before The Dawn"
PERFORMER "Shallow Ground"
INDEX 01 26:14:07
TRACK 07 AUDIO
TITLE "Rebirth"
PERFORMER "Shallow Ground"
INDEX 01 33:57:44
TRACK 08 AUDIO
TITLE "Prostitution"
PERFORMER "Shallow Ground"
INDEX 01 39:07:66
TRACK 09 AUDIO
TITLE "Cleansing Of The Hollow"
PERFORMER "Shallow Ground"
INDEX 01 43:20:13
TRACK 10 AUDIO
TITLE "Darkness"
PERFORMER "Shallow Ground"
INDEX 01 50:32:28
TRACK 11 AUDIO
TITLE "I.D.G.A.F"
PERFORMER "Shallow Ground"
INDEX 01 56:26:28

"Log"
Exact Audio Copy V1.1 from 23. June 2015

Отчёт EAC об извлечении, выполненном 29. апреля 2016, 6:32

Shallow Ground / The End Of Everything

Дисковод: HL-DT-STDVDRAM GTA0N Adapter: 1 ID: 0

Режим чтения : Достоверность
Использование точного потока : Да
Отключение кэша аудио : Да
Использование указателей C2 : Нет

Коррекция смещения при чтении : 102
Способность читать области Lead-in и Lead-out : Нет
Заполнение пропущенных сэмплов тишиной : Да
Удаление блоков с тишиной в начале и конце : Нет
При вычислениях CRC использовались нулевые сэмплы : Да
Интерфейс : Встроенный Win32-интерфейс для Win NT/2000

Выходной формат : Пользовательский кодировщик
Выбранный битрейт : 768 kBit/s
Качество : Высокий
Добавление ID3-тега : Нет
Утилита сжатия : C:\Program Files (x86)\Exact Audio Copy\FLAC\FLAC.EXE
Дополнительные параметры : -6 -V -T "ARTIST=%artist%" -T "TITLE=%title%" -T "ALBUM=%albumtitle%" -T "DATE=%year%" -T "TRACKNUMBER=%tracknr%" -T "GENRE=%genre%" -T "COMMENT=%comment%" -T "BAND=%albuminterpret%" -T "ALBUMARTIST=%albuminterpret%" -T "COMPOSER=%composer%" %haslyrics%--tag-from-file=LYRICS="%lyricsfile%"%haslyrics% -T "DISCNUMBER=%cdnumber%" -T "TOTALDISCS=%totalcds%" -T "TOTALTRACKS=%numtracks%" %hascover%--picture="%coverfile%"%hascover% %source% -o %dest%


TOC извлечённого CD

Трек | Старт | Длительность | Начальный сектор | Конечный сектор
---------------------------------------------------------------------
1 | 0:00.00 | 6:11.67 | 0 | 27891
2 | 6:11.67 | 3:56.60 | 27892 | 45651
3 | 10:08.52 | 5:20.00 | 45652 | 69651
4 | 15:28.52 | 5:13.30 | 69652 | 93156
5 | 20:42.07 | 5:32.00 | 93157 | 118056
6 | 26:14.07 | 7:43.37 | 118057 | 152818
7 | 33:57.44 | 5:10.22 | 152819 | 176090
8 | 39:07.66 | 4:12.22 | 176091 | 195012
9 | 43:20.13 | 7:12.15 | 195013 | 227427
10 | 50:32.28 | 5:54.00 | 227428 | 253977
11 | 56:26.28 | 3:06.38 | 253978 | 267965


Характеристики диапазона извлечения и сообщения об ошибках

Выбранный диапазон

Имя файла C:\Users\магазин\Music\Shallow Ground - The End Of Everything.wav

Пиковый уровень 99.2 %
Скорость извлечения 4.2 X
Качество диапазона 100.0 %
CRC копии 9749681C
Копирование... OK

Ошибок не произошло


AccurateRip: сводка

Трек 1 : извлечено точно (доверие 1) [46A2A93B] (AR v2)
Трек 2 : извлечено точно (доверие 1) [41A0E8EE] (AR v2)
Трек 3 : извлечено точно (доверие 1) [BF8C98C9] (AR v2)
Трек 4 : извлечено точно (доверие 1) [F25A5303] (AR v2)
Трек 5 : извлечено точно (доверие 1) [B276D0F2] (AR v2)
Трек 6 : извлечено точно (доверие 1) [75D7852D] (AR v2)
Трек 7 : извлечено точно (доверие 1) [C5327017] (AR v2)
Трек 8 : извлечено точно (доверие 1) [D942A8D3] (AR v2)
Трек 9 : извлечено точно (доверие 1) [1BA789F6] (AR v2)
Трек 10 : извлечено точно (доверие 1) [F4CCF89B] (AR v2)
Трек 11 : извлечено точно (доверие 1) [230F4EC3] (AR v2)

Все треки извлечены точно

Конец отчёта

---- CUETools DB Plugin V2.1.6

[CTDB TOCID: FzlAe6uIpJ0fK6goJbOYa55WfBo-] found
Submit result: FzlAe6uIpJ0fK6goJbOYa55WfBo- has been confirmed
Track | CTDB Status
1 | (1/1) Accurately ripped
2 | (1/1) Accurately ripped
3 | (1/1) Accurately ripped
4 | (1/1) Accurately ripped
5 | (1/1) Accurately ripped
6 | (1/1) Accurately ripped
7 | (1/1) Accurately ripped
8 | (1/1) Accurately ripped
9 | (1/1) Accurately ripped
10 | (1/1) Accurately ripped
11 | (1/1) Accurately ripped


End Of Everything


Top
 Profile  
 
 
PostPosted: 03 May 2016 
Хиппей (support team)
User avatar
Joined: 30 Jul 2007
Posts: 113091
Lоcаtion: Киев (Kyiv, UA)
Age: 46
Name: Andrey
:thanx:

mirror: iFolder l Narod l M-Cloud

_________________


Top
 Profile E-mail  
 
 
PostPosted: 03 May 2016 
Хиппей (support team)
User avatar
Joined: 30 Jul 2007
Posts: 113091
Lоcаtion: Киев (Kyiv, UA)
Age: 46
Name: Andrey
Slayer слышали?
Ну вот тоже самое, только с другими музыкантами, среднетемповое и техничное. Пардон, но прогрессива здесь нету, есть техничный мягковатый трэш.
Вокал ну очень похож на Томо Арайевский, только без тех шикарных визгов :(

Довольно крепкая работа, но мне не понравилось отсутствие реально скоростных вещей и предсказуемость материала.

4+/10

зы. Завершальный трэк хардкорово-фанковый зело понравился :meloman:
Вот бы весь альбом был таким.

_________________


Top
 Profile E-mail  
 
 
PostPosted: 03 May 2016 
Хиппей (support team)
User avatar
Joined: 30 Jul 2007
Posts: 113091
Lоcаtion: Киев (Kyiv, UA)
Age: 46
Name: Andrey
Парочка занятных композиций ещё понравилась. Добавляю плюсиков, меняю оценку альбому на 5+ :lob:

_________________


Top
 Profile E-mail  
 
 
PostPosted: 03 May 2016 
Доктор энтомологии
User avatar
Joined: 22 Jan 2009
Posts: 9769
Lоcаtion: Даугавпилс
Age: 44
Name: Алексей
:thanx:


Top
 Profile  
 
 
PostPosted: 03 May 2016 
Генеральный thrasher
User avatar
Joined: 03 Oct 2008
Posts: 3710
Lоcаtion: Ханты-Мансийский АО
Age: 44
Name: Сергей
Довольно крепкая работа, но мне не понравилось отсутствие реально скоростных вещей и предсказуемость материала.Завершальный трэк хардкорово-фанковый зело понравился :meloman:
Вот бы весь альбом был таким.


Андрюх,мне нравится...Да и не стал бы я покупать диск просто так.У них в прошлом году второй диск вышел.Я его правда не брал ещё.


Top
 Profile  
 
 
PostPosted: 03 May 2016 
Хиппей (support team)
User avatar
Joined: 30 Jul 2007
Posts: 113091
Lоcаtion: Киев (Kyiv, UA)
Age: 46
Name: Andrey
thorbeorn wrote:
У них в прошлом году второй диск вышел

Тоже понравился?

_________________


Top
 Profile E-mail  
 
 
PostPosted: 03 May 2016 
Генеральный thrasher
User avatar
Joined: 03 Oct 2008
Posts: 3710
Lоcаtion: Ханты-Мансийский АО
Age: 44
Name: Сергей
Не слушал... :pardon:


Top
 Profile  
 
 
PostPosted: 03 May 2016 
Хиппей (support team)
User avatar
Joined: 30 Jul 2007
Posts: 113091
Lоcаtion: Киев (Kyiv, UA)
Age: 46
Name: Andrey
:crazy: А как же ж:
thorbeorn wrote:
Да и не стал бы я покупать диск просто так.

:pardon:

_________________


Top
 Profile E-mail  
 
 
PostPosted: 03 May 2016 
Прокъмитолист
User avatar
Joined: 12 Aug 2007
Posts: 6557
Lоcаtion: Санктъ-Петербуркъ
Age: 51
Name: Олекъ
:thanx:

_________________
прокъметол - это музыко, от которово есть прок (ы)


Top
 Profile  
 
 
PostPosted: 11 May 2016 
Alive Again
User avatar
Joined: 17 Dec 2008
Posts: 4747
Lоcаtion: Курск Воронеж Оскол
Age: 44
Name: Дмитрий
:thanx:


Top
 Profile E-mail  
 
 
PostPosted: 12 May 2016 
консэрваторъ
User avatar
Joined: 11 Aug 2007
Posts: 16979
Lоcаtion: Псков
Age: 45
Name: Сергей
Ну раз прога нет, тож тогда забираем... Спасибо!..

_________________
THRASH 'EM ALL


Top
 Profile E-mail  
 
 
PostPosted: 22 May 2016 
консэрваторъ
User avatar
Joined: 11 Aug 2007
Posts: 16979
Lоcаtion: Псков
Age: 45
Name: Сергей
Лосяш фришный демки 9-ого года на BC... :arrov: https://shallowground.bandcamp.com/album/demo
А ипиха 10-ого по времени звучания треков совпадает с демкой секунда в секунду... думаю - это та же самая демка записанная на цид...

_________________
THRASH 'EM ALL


Top
 Profile E-mail  
 
 
PostPosted: 22 May 2016 
Генеральный thrasher
User avatar
Joined: 03 Oct 2008
Posts: 3710
Lоcаtion: Ханты-Мансийский АО
Age: 44
Name: Сергей
Забираю демку!Надо бы Embrace The Fury прикупить.


Top
 Profile  
 
 
PostPosted: 22 May 2016 
консэрваторъ
User avatar
Joined: 11 Aug 2007
Posts: 16979
Lоcаtion: Псков
Age: 45
Name: Сергей
Прогом здесь и не пахнет (как написано на MA), слегка приблэкованный трасх с перегруженными до песка гитарами... Очень сильно веет СелтикФростом... Серёга, спасибо за ознакомление!.. 15-ый в 320... :arrov: http://dark-world.ru/albums/Shallow-Gro ... e-Fury.php
От часа прослушивания такой музыки (альбом 2013) немного подустал, если честно... особенно в задумчивых местах... Надеюсь в 15-ом прогресс сдвинется с места...

_________________
THRASH 'EM ALL


Top
 Profile E-mail  
 
 
PostPosted: 22 May 2016 
консэрваторъ
User avatar
Joined: 11 Aug 2007
Posts: 16979
Lоcаtion: Псков
Age: 45
Name: Сергей
Уже с первой вещи 15-ый подмял, заворожил, очень достойное начало!.. Норм альбом, в лучших традициях Содома, он более разноплановый, скоростной, интересный, и вот именно в нём уже появляются синкопические микроэлементы прога... :true:

_________________
THRASH 'EM ALL


Top
 Profile E-mail  
 
 
PostPosted: 22 Apr 2018 
Генеральный thrasher
User avatar
Joined: 03 Oct 2008
Posts: 3710
Lоcаtion: Ханты-Мансийский АО
Age: 44
Name: Сергей
Мой рип здесь - https://rutracker.org/forum/viewtopic.php?t=5549902


Top
 Profile  
 
 
PostPosted: 22 Apr 2018 
Хиппей (support team)
User avatar
Joined: 30 Jul 2007
Posts: 113091
Lоcаtion: Киев (Kyiv, UA)
Age: 46
Name: Andrey

:thanx:

_________________


Top
 Profile E-mail  
 
 
PostPosted: 23 Apr 2018 
Хиппей (support team)
User avatar
Joined: 30 Jul 2007
Posts: 113091
Lоcаtion: Киев (Kyiv, UA)
Age: 46
Name: Andrey
Понравился альбом - нетривиальный трэш с элементами прогрессива и нетипичным вокалом.
Тембр или точнее - интонации в вокале солиста очень сложи с исполнением концовочках фраз Джеремией, который из группы Tankard :meloman:
А по музыке мощный и не нудный техно-трэш с бойкими и скоростными песнями. Не все тржки понравились, но больше половины очень хороши.
В топы альбом не буду забирать, но оценю высоко:

7/10

Спасибо за ознакомление :thanx:

_________________


Top
 Profile E-mail  
 
 
PostPosted: 23 Apr 2018 
Хиппей (support team)
User avatar
Joined: 30 Jul 2007
Posts: 113091
Lоcаtion: Киев (Kyiv, UA)
Age: 46
Name: Andrey
Shallow Ground - 2015 - Embrace The Fury [flac]

Image Image Image

mirror: Giga l Drop l Narod l M-Cloud

Image Image Image

Image Image Image

log
Exact Audio Copy V1.1 from 23. June 2015

Отчёт EAC об извлечении, выполненном 13. апреля 2018, 16:14

Shallow Ground / Embrace The Fury

Дисковод: HL-DT-STDVDRAM GTA0N Adapter: 1 ID: 0

Режим чтения : Достоверность
Использование точного потока : Да
Отключение кэша аудио : Да
Использование указателей C2 : Нет

Коррекция смещения при чтении : 102
Способность читать области Lead-in и Lead-out : Нет
Заполнение пропущенных сэмплов тишиной : Да
Удаление блоков с тишиной в начале и конце : Нет
При вычислениях CRC использовались нулевые сэмплы : Да
Интерфейс : Встроенный Win32-интерфейс для Win NT/2000

Выходной формат : Пользовательский кодировщик
Выбранный битрейт : 768 kBit/s
Качество : Высокий
Добавление ID3-тега : Нет
Утилита сжатия : C:\Program Files (x86)\Exact Audio Copy\FLAC\FLAC.EXE
Дополнительные параметры : -V -8 -T "Date=%year%" -T "Genre=%genre%" %source%


TOC извлечённого CD

Трек | Старт | Длительность | Начальный сектор | Конечный сектор
---------------------------------------------------------------------
1 | 0:00.00 | 5:41.68 | 0 | 25642
2 | 5:41.68 | 4:09.18 | 25643 | 44335
3 | 9:51.11 | 5:07.69 | 44336 | 67429
4 | 14:59.05 | 4:14.30 | 67430 | 86509
5 | 19:13.35 | 1:46.11 | 86510 | 94470
6 | 20:59.46 | 5:16.17 | 94471 | 118187
7 | 26:15.63 | 5:45.10 | 118188 | 144072
8 | 32:00.73 | 6:23.42 | 144073 | 172839
9 | 38:24.40 | 5:01.48 | 172840 | 195462


Характеристики диапазона извлечения и сообщения об ошибках

Выбранный диапазон

Имя файла C:\Users\магазин\Music\Shallow Ground - Embrace The Fury.wav

Пиковый уровень 100.0 %
Скорость извлечения 3.8 X
Качество диапазона 99.9 %
CRC теста 9B309B80
CRC копии 9B309B80
Копирование... OK

Ошибок не произошло


AccurateRip: сводка

Трек 1 отсутствует в базе данных
Трек 2 отсутствует в базе данных
Трек 3 отсутствует в базе данных
Трек 4 отсутствует в базе данных
Трек 5 отсутствует в базе данных
Трек 6 отсутствует в базе данных
Трек 7 отсутствует в базе данных
Трек 8 отсутствует в базе данных
Трек 9 отсутствует в базе данных

Ни одного трека нет в базе AccurateRip

Конец отчёта

---- CUETools DB Plugin V2.1.6

[CTDB TOCID: Ia.UgPbd2QUAMPCIjZ.YWwRYPvU-] found
Submit result: Ia.UgPbd2QUAMPCIjZ.YWwRYPvU- has been confirmed
Track | CTDB Status
1 | (1/1) Accurately ripped
2 | (1/1) Accurately ripped
3 | (1/1) Accurately ripped
4 | (1/1) Accurately ripped
5 | (1/1) Accurately ripped
6 | (1/1) Accurately ripped
7 | (1/1) Accurately ripped
8 | (1/1) Accurately ripped
9 | (1/1) Accurately ripped

cue
REM GENRE "Thrash Metal"
REM DATE 2015
REM DISCID 6A0A2E09
REM COMMENT "ExactAudioCopy v1.1"
PERFORMER "Shallow Ground"
TITLE "Embrace The Fury"
FILE "Shallow Ground - Embrace The Fury.flac" WAVE
TRACK 01 AUDIO
TITLE "Once Again"
PERFORMER "Shallow Ground"
INDEX 01 00:00:00
TRACK 02 AUDIO
TITLE "Khan"
PERFORMER "Shallow Ground"
INDEX 01 05:41:68
TRACK 03 AUDIO
TITLE "Brace For Impact"
PERFORMER "Shallow Ground"
INDEX 01 09:51:11
TRACK 04 AUDIO
TITLE "Human Flame"
PERFORMER "Shallow Ground"
INDEX 01 14:59:05
TRACK 05 AUDIO
TITLE "Eye Of The Storm"
PERFORMER "Shallow Ground"
INDEX 01 19:13:35
TRACK 06 AUDIO
TITLE "F.I.U."
PERFORMER "Shallow Ground"
INDEX 01 20:59:46
TRACK 07 AUDIO
TITLE "Class Warfare"
PERFORMER "Shallow Ground"
INDEX 01 26:15:63
TRACK 08 AUDIO
TITLE "Looking Glass"
PERFORMER "Shallow Ground"
INDEX 01 32:00:73
TRACK 09 AUDIO
TITLE "Slayer of the Gods"
PERFORMER "Shallow Ground"
INDEX 01 38:24:40

_________________


Top
 Profile E-mail  
 
Display posts from previous:  Sort by  
Post new topic Reply to topic  [ 20 posts ] 

All times are UTC + 3 hours


Who is online

Users browsing this forum: No registered users and 4 guests


You cannot post new topics in this forum
You cannot reply to topics in this forum
You cannot edit your posts in this forum
You cannot delete your posts in this forum
You cannot post attachments in this forum

Search for:
Яндекс.Метрика
cron
Powered by phpBB © 2000, 2002, 2005, 2007 phpBB Group