\m/ 80's metal \m/

Информационно-аналитический форум "80 см пыли" (In Search We Trust) "У нас никто никуда не спешит"
Me For You - http://me-4u.com
It is currently 22 Apr 2019

All times are UTC + 3 hours

Spoiler
Chat - temporary registration for foreign users (please leave your application here)





Forum rules


Уважаемые пользователи ресурса, друзья, коллеги и гости нашего форума. Данный раздел конференции создан с целью рафинации, и посвящён такому стилевому направлению в музыке, как Thrash Metal во всех его проявлениях и ипостасях, а иногда и переходящему на пограничные стили Speed, Power, Groove, Crossover, MDM и т.п.
Главное правило здесь одно: Одна группа – одна тема! Всё остальное созвучно основным нормам поведения на конференции.
Шаблон оформления тем в этом подфоруме должен быть основан на данных сайта www.metal-archives.com и выглядеть следующим образом:

Группа (Страна) - Стилевые рамки - дискография
Slayer (USA) - Thrash Metal - дискография


В теме допустимо размещение всей информации касающейся данного коллектива: анонсы любых альбомов в любых форматах, запросы любых релизов коллектива (кроме релизов текущего и прошлого годов), обсуждения, обзоры, а в остальном всё как обычно. Уважаем друг друга, не грубим, соблюдаем нормы поведения на конференции, оформляем анонсы и запросы красиво и информативно, что бы модераторы не посчитали их троллингом, и не отправили куда положено, выписав Вам предупреждение или ещё что похуже… Прежде чем что-то запросить или запостить, пользуемся поиском! Пользуемся поиском! ПОЛЬЗУЕМСЯ ПОИСКОМ!!! Так слышно меня?.. :pardon:
Интересного, конструктивного и креативного общения! ;)

Image



Post new topic Reply to topic  [ 8 posts ] 
Author Message
 
PostPosted: 29 Apr 2016 
Генеральный thrasher
User avatar
Joined: 03 Oct 2008
Posts: 3695
Lоcаtion: Ханты-Мансийский АО
Age: 44
Name: Сергей
Вторая епишка испанских трэшеров.Может и на полнометражник когда сподобятся!

Image

Year:2014
Style:Thrash Metal
Country:Spain
Archive:Flac+Cue+Log+Scans
Size:134Mb
Source:my CD
Label:Suspiria Records

Line-Up:
Fonso Alonso - vocals
Iago Ramilo - вrums
Dani Zonka - иass
Fran Gomez - пuitars

Tracklist:
01. Magnicide 03:52
02. Blackout 04:52
03. Government of Money 05:09
04. Hunter of Evil 03:58

"Cue"
REM GENRE "Thrash Metal"
REM DATE 2014
REM DISCID 22042C04
REM COMMENT "ExactAudioCopy v1.1"
PERFORMER "Blast Off"
TITLE "World Of Lies"
FILE "Blast Off - World Of Lies.flac" WAVE
TRACK 01 AUDIO
TITLE "Magnicide"
PERFORMER "Blast Off"
INDEX 01 00:00:00
TRACK 02 AUDIO
TITLE "Blackout"
PERFORMER "Blast Off"
INDEX 01 03:51:46
TRACK 03 AUDIO
TITLE "Government Of Money"
PERFORMER "Blast Off"
INDEX 01 08:42:47
TRACK 04 AUDIO
TITLE "Hunter Of Evil"
PERFORMER "Blast Off"
INDEX 01 13:50:51

"Log"
Exact Audio Copy V1.1 from 23. June 2015

Отчёт EAC об извлечении, выполненном 28. апреля 2016, 11:57

Blast Off / World Of Lies

Дисковод: HL-DT-STDVDRAM GTA0N Adapter: 1 ID: 0

Режим чтения : Достоверность
Использование точного потока : Да
Отключение кэша аудио : Да
Использование указателей C2 : Нет

Коррекция смещения при чтении : 102
Способность читать области Lead-in и Lead-out : Нет
Заполнение пропущенных сэмплов тишиной : Да
Удаление блоков с тишиной в начале и конце : Нет
При вычислениях CRC использовались нулевые сэмплы : Да
Интерфейс : Встроенный Win32-интерфейс для Win NT/2000

Выходной формат : Пользовательский кодировщик
Выбранный битрейт : 768 kBit/s
Качество : Высокий
Добавление ID3-тега : Нет
Утилита сжатия : C:\Program Files (x86)\Exact Audio Copy\FLAC\FLAC.EXE
Дополнительные параметры : -6 -V -T "ARTIST=%artist%" -T "TITLE=%title%" -T "ALBUM=%albumtitle%" -T "DATE=%year%" -T "TRACKNUMBER=%tracknr%" -T "GENRE=%genre%" -T "COMMENT=%comment%" -T "BAND=%albuminterpret%" -T "ALBUMARTIST=%albuminterpret%" -T "COMPOSER=%composer%" %haslyrics%--tag-from-file=LYRICS="%lyricsfile%"%haslyrics% -T "DISCNUMBER=%cdnumber%" -T "TOTALDISCS=%totalcds%" -T "TOTALTRACKS=%numtracks%" %hascover%--picture="%coverfile%"%hascover% %source% -o %dest%


TOC извлечённого CD

Трек | Старт | Длительность | Начальный сектор | Конечный сектор
---------------------------------------------------------------------
1 | 0:00.00 | 3:51.46 | 0 | 17370
2 | 3:51.46 | 4:51.01 | 17371 | 39196
3 | 8:42.47 | 5:08.04 | 39197 | 62300
4 | 13:50.51 | 3:57.34 | 62301 | 80109


Характеристики диапазона извлечения и сообщения об ошибках

Выбранный диапазон

Имя файла C:\Users\магазин\Music\Blast Off - World Of Lies.wav

Пиковый уровень 100.0 %
Скорость извлечения 3.2 X
Качество диапазона 100.0 %
CRC копии A5E2D116
Копирование... OK

Ошибок не произошло


AccurateRip: сводка

Трек 1 отсутствует в базе данных
Трек 2 отсутствует в базе данных
Трек 3 отсутствует в базе данных
Трек 4 отсутствует в базе данных

Ни одного трека нет в базе AccurateRip

Конец отчёта

---- CUETools DB Plugin V2.1.6

[CTDB TOCID: i5FUtjWY_kKROWnkVN1W27tKZyI-] found
Submit result: i5FUtjWY_kKROWnkVN1W27tKZyI- has been confirmed
Track | CTDB Status
1 | (1/1) Accurately ripped
2 | (1/1) Accurately ripped
3 | (1/1) Accurately ripped
4 | (1/1) Accurately ripped


World Of Lies


Top
 Profile  
 
 
PostPosted: 29 Apr 2016 
Прокъмитолист
User avatar
Joined: 12 Aug 2007
Posts: 6545
Lоcаtion: Санктъ-Петербуркъ
Age: 51
Name: Олекъ
:thanx:

_________________
прокъметол - это музыко, от которово есть прок (ы)


Top
 Profile  
 
 
PostPosted: 29 Apr 2016 
консэрваторъ
Joined: 11 Aug 2007
Posts: 16823
Lоcаtion: Псков
Age: 45
Name: Сергей
Берём всё, а там разберёмся... :lob: Спасиба!..

_________________
THRASH 'EM ALL


Top
 Profile E-mail  
 
 
PostPosted: 13 May 2016 
Хиппей (support team)
User avatar
Joined: 30 Jul 2007
Posts: 111757
Lоcаtion: Киев (Kyiv, UA)
Age: 45
Name: Andrey
:thanx:

mirror: iFolder l Narod l M-Cloud

_________________


Top
 Profile E-mail  
 
 
PostPosted: 13 May 2016 
Хиппей (support team)
User avatar
Joined: 30 Jul 2007
Posts: 111757
Lоcаtion: Киев (Kyiv, UA)
Age: 45
Name: Andrey
Неплохо. Но мало что запомнилось :vic:

_________________


Top
 Profile E-mail  
 
 
PostPosted: 22 May 2016 
консэрваторъ
Joined: 11 Aug 2007
Posts: 16823
Lоcаtion: Псков
Age: 45
Name: Сергей
thorbeorn wrote:
Вторая епишка

Фришный лось на BC... :arrov: http://blastoffthrash.bandcamp.com/
Первая ипиха в 320... :arrov: http://dark-world.ru/albums/Blast-Off-D ... ane-EP.php

_________________
THRASH 'EM ALL


Top
 Profile E-mail  
 
 
PostPosted: 22 May 2016 
консэрваторъ
Joined: 11 Aug 2007
Posts: 16823
Lоcаtion: Псков
Age: 45
Name: Сергей
Ууууу... а эти суровые и злые... Вокалист того и гляди закусает...)) Но при этом ещё и играть умеют...
Очень правильное направление, особенно на второй ипихе... альбом у них должен получиться весьма шибатистый!.. :true:
Не иссякает поток почётных грамот в Ханты-Мансийский автономный округ!.. :lob:

_________________
THRASH 'EM ALL


Top
 Profile E-mail  
 
 
PostPosted: 23 May 2016 
Работнечег
User avatar
Joined: 28 Aug 2007
Posts: 5804
Lоcаtion: г. Москва
Age: 30
Name: Дима
Спасибо за злобный трешак, люблю такой! :true:


Top
 Profile E-mail  
 
Display posts from previous:  Sort by  
Post new topic Reply to topic  [ 8 posts ] 

All times are UTC + 3 hours


Who is online

Users browsing this forum: No registered users and 2 guests


You cannot post new topics in this forum
You cannot reply to topics in this forum
You cannot edit your posts in this forum
You cannot delete your posts in this forum
You cannot post attachments in this forum

Search for:
Яндекс.Метрика
cron
Powered by phpBB © 2000, 2002, 2005, 2007 phpBB Group