\m/ 80's metal \m/

Информационно-аналитический форум "80 см пыли" (In Search We Trust) "У нас никто никуда не спешит"
Me For You - http://me-4u.com
It is currently 24 Jul 2019

All times are UTC + 3 hours

Spoiler
Chat - temporary registration for foreign users (please leave your application here)





Forum rules


Уважаемые пользователи ресурса, друзья, коллеги и гости нашего форума. Данный раздел конференции создан с целью рафинации, и посвящён такому стилевому направлению в музыке, как Thrash Metal во всех его проявлениях и ипостасях, а иногда и переходящему на пограничные стили Speed, Power, Groove, Crossover, MDM и т.п.
Главное правило здесь одно: Одна группа – одна тема! Всё остальное созвучно основным нормам поведения на конференции.
Шаблон оформления тем в этом подфоруме должен быть основан на данных сайта www.metal-archives.com и выглядеть следующим образом:

Группа (Страна) - Стилевые рамки - дискография
Slayer (USA) - Thrash Metal - дискография


В теме допустимо размещение всей информации касающейся данного коллектива: анонсы любых альбомов в любых форматах, запросы любых релизов коллектива (кроме релизов текущего и прошлого годов), обсуждения, обзоры, а в остальном всё как обычно. Уважаем друг друга, не грубим, соблюдаем нормы поведения на конференции, оформляем анонсы и запросы красиво и информативно, что бы модераторы не посчитали их троллингом, и не отправили куда положено, выписав Вам предупреждение или ещё что похуже… Прежде чем что-то запросить или запостить, пользуемся поиском! Пользуемся поиском! ПОЛЬЗУЕМСЯ ПОИСКОМ!!! Так слышно меня?.. :pardon:
Интересного, конструктивного и креативного общения! ;)

Image



Post new topic Reply to topic  [ 4 posts ] 
Author Message
 
PostPosted: 29 Apr 2016 
Генеральный thrasher
User avatar
Joined: 03 Oct 2008
Posts: 3714
Lоcаtion: Ханты-Мансийский АО
Age: 44
Name: Сергей
Маленько китайского трэша форуму не помешает.Понравились мне эти ребята.Группа правда уже развалилась.

Image

Year:2013
Style:Thrash Metal
Country:China
Archive:Flac+Cue+Log+Scans
Size:177Mb
Source:my CD
Label:Dying Art Productions

Tracklist:
01. Zombie Massacre 04:33
02. On the Incarnation 03:58
03. Death March 05:06
04. All Or Nothing 03:28
05. Black Breath (Repulsion cover) 02:21
06. Black Metal (Venom cover) 03:08

"Cue"
REM GENRE "Thrash Metal"
REM DATE 2013
REM DISCID 3F054806
REM COMMENT "ExactAudioCopy v1.1"
PERFORMER "Flamingstream"
TITLE "If Blood Roils..."
FILE "Flamingstream - If Blood Roils....flac" WAVE
TRACK 01 AUDIO
TITLE "Zombie Massacre"
PERFORMER "Flamingstream"
INDEX 01 00:00:00
TRACK 02 AUDIO
TITLE "On the Incarnation"
PERFORMER "Flamingstream"
INDEX 01 04:32:73
TRACK 03 AUDIO
TITLE "Death March"
PERFORMER "Flamingstream"
INDEX 01 08:30:37
TRACK 04 AUDIO
TITLE "All or Nothing"
PERFORMER "Flamingstream"
INDEX 01 13:36:23
TRACK 05 AUDIO
TITLE "Black Breath (Repulsion cover)"
PERFORMER "Flamingstream"
INDEX 01 17:04:22
TRACK 06 AUDIO
TITLE "Black Metal (Venom cover)"
PERFORMER "Flamingstream"
INDEX 01 19:24:33

"Log"
Exact Audio Copy V1.1 from 23. June 2015

Отчёт EAC об извлечении, выполненном 28. апреля 2016, 16:09

Flamingstream / If Blood Roils...

Дисковод: HL-DT-STDVDRAM GTA0N Adapter: 1 ID: 0

Режим чтения : Достоверность
Использование точного потока : Да
Отключение кэша аудио : Да
Использование указателей C2 : Нет

Коррекция смещения при чтении : 102
Способность читать области Lead-in и Lead-out : Нет
Заполнение пропущенных сэмплов тишиной : Да
Удаление блоков с тишиной в начале и конце : Нет
При вычислениях CRC использовались нулевые сэмплы : Да
Интерфейс : Встроенный Win32-интерфейс для Win NT/2000

Выходной формат : Пользовательский кодировщик
Выбранный битрейт : 768 kBit/s
Качество : Высокий
Добавление ID3-тега : Нет
Утилита сжатия : C:\Program Files (x86)\Exact Audio Copy\FLAC\FLAC.EXE
Дополнительные параметры : -6 -V -T "ARTIST=%artist%" -T "TITLE=%title%" -T "ALBUM=%albumtitle%" -T "DATE=%year%" -T "TRACKNUMBER=%tracknr%" -T "GENRE=%genre%" -T "COMMENT=%comment%" -T "BAND=%albuminterpret%" -T "ALBUMARTIST=%albuminterpret%" -T "COMPOSER=%composer%" %haslyrics%--tag-from-file=LYRICS="%lyricsfile%"%haslyrics% -T "DISCNUMBER=%cdnumber%" -T "TOTALDISCS=%totalcds%" -T "TOTALTRACKS=%numtracks%" %hascover%--picture="%coverfile%"%hascover% %source% -o %dest%


TOC извлечённого CD

Трек | Старт | Длительность | Начальный сектор | Конечный сектор
---------------------------------------------------------------------
1 | 0:00.00 | 4:32.73 | 0 | 20472
2 | 4:32.73 | 3:57.39 | 20473 | 38286
3 | 8:30.37 | 5:05.61 | 38287 | 61222
4 | 13:36.23 | 3:27.74 | 61223 | 76821
5 | 17:04.22 | 2:20.11 | 76822 | 87332
6 | 19:24.33 | 3:07.74 | 87333 | 101431


Характеристики диапазона извлечения и сообщения об ошибках

Выбранный диапазон

Имя файла C:\Users\магазин\Music\Flamingstream - If Blood Roils....wav

Пиковый уровень 97.7 %
Скорость извлечения 3.2 X
Качество диапазона 100.0 %
CRC копии 7E1AC98B
Копирование... OK

Ошибок не произошло


AccurateRip: сводка

Трек 1 отсутствует в базе данных
Трек 2 отсутствует в базе данных
Трек 3 отсутствует в базе данных
Трек 4 отсутствует в базе данных
Трек 5 отсутствует в базе данных
Трек 6 отсутствует в базе данных

Ни одного трека нет в базе AccurateRip

Конец отчёта

---- CUETools DB Plugin V2.1.6

[CTDB TOCID: 5FT1tcL55NjZycfc_PWCYiQlQYE-] found
Submit result: 5FT1tcL55NjZycfc_PWCYiQlQYE- has been confirmed
Track | CTDB Status
1 | (2/2) Accurately ripped
2 | (2/2) Accurately ripped
3 | (2/2) Accurately ripped
4 | (2/2) Accurately ripped
5 | (2/2) Accurately ripped
6 | (2/2) Accurately ripped


If Blood Roils...


Top
 Profile  
 
 
PostPosted: 29 Apr 2016 
Прокъмитолист
User avatar
Joined: 12 Aug 2007
Posts: 6579
Lоcаtion: Санктъ-Петербуркъ
Age: 51
Name: Олекъ
:thanx:

_________________
прокъметол - это музыко, от которово есть прок (ы)


Top
 Profile  
 
 
PostPosted: 22 May 2016 
консэрваторъ
User avatar
Joined: 11 Aug 2007
Posts: 17057
Lоcаtion: Псков
Age: 45
Name: Сергей
Китайцы... хм... недолюбливаю я славянско-китайское исполнение трэшумiтоллу, посему втыкаю с опаской... :scratch:
Так и есть... :( музыка неплоха, а вокал опечалил... рязанский акцент вокалиста по имени 刘卓 ввёл в тоску/печаль...
В любом, случае Серёге хвала и почёт!.. :true: А китайцев сих всё же оставлю... что бы были...

_________________
THRASH 'EM ALL


Top
 Profile E-mail  
 
 
PostPosted: 23 May 2016 
Alive Again
User avatar
Joined: 17 Dec 2008
Posts: 4747
Lоcаtion: Курск Воронеж Оскол
Age: 44
Name: Дмитрий
Серёге, :thanx:
Quote:
музыка неплоха, а вокал опечалил...

Из-за вокала стёр не дослушав.


Top
 Profile E-mail  
 
Display posts from previous:  Sort by  
Post new topic Reply to topic  [ 4 posts ] 

All times are UTC + 3 hours


Who is online

Users browsing this forum: No registered users and 3 guests


You cannot post new topics in this forum
You cannot reply to topics in this forum
You cannot edit your posts in this forum
You cannot delete your posts in this forum
You cannot post attachments in this forum

Search for:
Яндекс.Метрика
Powered by phpBB © 2000, 2002, 2005, 2007 phpBB Group