\m/ 80's metal \m/

Информационно-аналитический форум "80 см пыли" (In Search We Trust) "У нас никто никуда не спешит"
Me For You - http://me-4u.com
It is currently 20 Apr 2019

All times are UTC + 3 hours

Spoiler
Chat - temporary registration for foreign users (please leave your application here)





Forum rules


Уважаемые пользователи ресурса, друзья, коллеги и гости нашего форума. Данный раздел конференции создан с целью рафинации, и посвящён такому стилевому направлению в музыке, как Thrash Metal во всех его проявлениях и ипостасях, а иногда и переходящему на пограничные стили Speed, Power, Groove, Crossover, MDM и т.п.
Главное правило здесь одно: Одна группа – одна тема! Всё остальное созвучно основным нормам поведения на конференции.
Шаблон оформления тем в этом подфоруме должен быть основан на данных сайта www.metal-archives.com и выглядеть следующим образом:

Группа (Страна) - Стилевые рамки - дискография
Slayer (USA) - Thrash Metal - дискография


В теме допустимо размещение всей информации касающейся данного коллектива: анонсы любых альбомов в любых форматах, запросы любых релизов коллектива (кроме релизов текущего и прошлого годов), обсуждения, обзоры, а в остальном всё как обычно. Уважаем друг друга, не грубим, соблюдаем нормы поведения на конференции, оформляем анонсы и запросы красиво и информативно, что бы модераторы не посчитали их троллингом, и не отправили куда положено, выписав Вам предупреждение или ещё что похуже… Прежде чем что-то запросить или запостить, пользуемся поиском! Пользуемся поиском! ПОЛЬЗУЕМСЯ ПОИСКОМ!!! Так слышно меня?.. :pardon:
Интересного, конструктивного и креативного общения! ;)

Image



Post new topic Reply to topic  [ 9 posts ] 
Author Message
 
PostPosted: 28 Apr 2016 
Генеральный thrasher
User avatar
Joined: 03 Oct 2008
Posts: 3695
Lоcаtion: Ханты-Мансийский АО
Age: 44
Name: Сергей
Очередные трэшующие макаронники.Судя по музыке ориентиром для этих ребят служат ранние Metallica и Megadeth...

Image

Year:2014
Style:Thrash Metal
Country:Italy
Archive:Flac+Cue+Log+Scans
Size:252Mb
Source:my CD
Label:Earthquake Terror Noise

Line-Up:
Alessandro Castagneri - bass
Andrea Steeler - guitars
Mattia Itala - guitars,vocals
Simone Cibrario - drums

Tracklist:
01. Reap What You Sow 04:54
02. Bhopal-ToxicViolence 02:44
03. Vengeance Of Blood 05:17
04. In God We...Dust! 06:35
05. Heritage 04:18
06. Ashura 00:20
07. V2 05:02
08. Venganza De Sangre 05:17

"Cue"
REM GENRE "Thrash Metal"
REM DATE 2014
REM DISCID 7A080E08
REM COMMENT "ExactAudioCopy v1.1"
PERFORMER "Ashura"
TITLE "Mindhood"
FILE "Ashura - Mindhood.flac" WAVE
TRACK 01 AUDIO
TITLE "Reap What You Sow"
PERFORMER "Ashura"
INDEX 01 00:00:00
TRACK 02 AUDIO
TITLE "Bhopal-ToxicViolence"
PERFORMER "Ashura"
INDEX 01 04:53:65
TRACK 03 AUDIO
TITLE "Vengeance of Blood"
PERFORMER "Ashura"
INDEX 01 07:37:55
TRACK 04 AUDIO
TITLE "In God We...Dust!"
PERFORMER "Ashura"
INDEX 01 12:53:57
TRACK 05 AUDIO
TITLE "Heritage"
PERFORMER "Ashura"
INDEX 01 19:27:63
TRACK 06 AUDIO
TITLE "Ashura"
PERFORMER "Ashura"
INDEX 01 23:45:40
TRACK 07 AUDIO
TITLE "V2"
PERFORMER "Ashura"
INDEX 01 24:05:09
TRACK 08 AUDIO
TITLE "Venganza de Sangre"
PERFORMER "Ashura"
INDEX 01 29:06:45

"Log"
Exact Audio Copy V1.1 from 23. June 2015

Отчёт EAC об извлечении, выполненном 16. апреля 2016, 15:13

Ashura / Mindhood

Дисковод: HL-DT-STDVDRAM GTA0N Adapter: 1 ID: 0

Режим чтения : Достоверность
Использование точного потока : Да
Отключение кэша аудио : Да
Использование указателей C2 : Нет

Коррекция смещения при чтении : 102
Способность читать области Lead-in и Lead-out : Нет
Заполнение пропущенных сэмплов тишиной : Да
Удаление блоков с тишиной в начале и конце : Нет
При вычислениях CRC использовались нулевые сэмплы : Да
Интерфейс : Встроенный Win32-интерфейс для Win NT/2000

Выходной формат : Пользовательский кодировщик
Выбранный битрейт : 768 kBit/s
Качество : Высокий
Добавление ID3-тега : Нет
Утилита сжатия : C:\Program Files (x86)\Exact Audio Copy\FLAC\FLAC.EXE
Дополнительные параметры : -6 -V -T "ARTIST=%artist%" -T "TITLE=%title%" -T "ALBUM=%albumtitle%" -T "DATE=%year%" -T "TRACKNUMBER=%tracknr%" -T "GENRE=%genre%" -T "COMMENT=%comment%" -T "BAND=%albuminterpret%" -T "ALBUMARTIST=%albuminterpret%" -T "COMPOSER=%composer%" %haslyrics%--tag-from-file=LYRICS="%lyricsfile%"%haslyrics% -T "DISCNUMBER=%cdnumber%" -T "TOTALDISCS=%totalcds%" -T "TOTALTRACKS=%numtracks%" %hascover%--picture="%coverfile%"%hascover% %source% -o %dest%


TOC извлечённого CD

Трек | Старт | Длительность | Начальный сектор | Конечный сектор
---------------------------------------------------------------------
1 | 0:00.00 | 4:53.65 | 0 | 22039
2 | 4:53.65 | 2:43.65 | 22040 | 34329
3 | 7:37.55 | 5:16.02 | 34330 | 58031
4 | 12:53.57 | 6:34.06 | 58032 | 87587
5 | 19:27.63 | 4:17.52 | 87588 | 106914
6 | 23:45.40 | 0:19.44 | 106915 | 108383
7 | 24:05.09 | 5:01.36 | 108384 | 130994
8 | 29:06.45 | 5:16.02 | 130995 | 154696


Характеристики диапазона извлечения и сообщения об ошибках

Выбранный диапазон

Имя файла C:\Users\магазин\Music\Ashura - Mindhood.wav

Пиковый уровень 97.7 %
Скорость извлечения 3.6 X
Качество диапазона 100.0 %
CRC копии 8FB6DABE
Копирование... OK

Ошибок не произошло


AccurateRip: сводка

Трек 1 : извлечено точно (доверие 1) [BE996F5C] (AR v2)
Трек 2 : извлечено точно (доверие 1) [D6557E48] (AR v2)
Трек 3 : извлечено точно (доверие 1) [17E9EAD6] (AR v2)
Трек 4 : извлечено точно (доверие 1) [8EC6F766] (AR v2)
Трек 5 : извлечено точно (доверие 1) [2FD051A4] (AR v2)
Трек 6 : извлечено точно (доверие 1) [3AAAE20A] (AR v2)
Трек 7 : извлечено точно (доверие 1) [1C02E16B] (AR v2)
Трек 8 : извлечено точно (доверие 1) [3F8F08F7] (AR v2)

Все треки извлечены точно

Конец отчёта

---- CUETools DB Plugin V2.1.6

[CTDB TOCID: 3UAEcKXsbGsT9kKorZ04n5QuL9Y-] found
Submit result: 3UAEcKXsbGsT9kKorZ04n5QuL9Y- has been confirmed
Track | CTDB Status
1 | (1/1) Accurately ripped
2 | (1/1) Accurately ripped
3 | (1/1) Accurately ripped
4 | (1/1) Accurately ripped
5 | (1/1) Accurately ripped
6 | (1/1) Accurately ripped
7 | (1/1) Accurately ripped
8 | (1/1) Accurately ripped


Mindhood


Top
 Profile  
 
 
PostPosted: 28 Apr 2016 
Доктор энтомологии
User avatar
Joined: 22 Jan 2009
Posts: 9694
Lоcаtion: Даугавпилс
Age: 44
Name: Алексей
:thanx:


Top
 Profile  
 
 
PostPosted: 28 Apr 2016 
Прокъмитолист
User avatar
Joined: 12 Aug 2007
Posts: 6545
Lоcаtion: Санктъ-Петербуркъ
Age: 51
Name: Олекъ
:thanx:

_________________
прокъметол - это музыко, от которово есть прок (ы)


Top
 Profile  
 
 
PostPosted: 28 Apr 2016 
консэрваторъ
Joined: 11 Aug 2007
Posts: 16815
Lоcаtion: Псков
Age: 45
Name: Сергей
Круть!.. Сча заслушаем, спасибо!..
На МА стиль указан как Heavy/Thrash Metal
http://www.metal-archives.com/bands/Ashura/3540368848
Split-up :shok: :shok:

_________________
THRASH 'EM ALL


Top
 Profile E-mail  
 
 
PostPosted: 28 Apr 2016 
консэрваторъ
Joined: 11 Aug 2007
Posts: 16815
Lоcаtion: Псков
Age: 45
Name: Сергей
Смачный вкусный альбом!.. Качаю демку... :arrov: http://www.mediafire.com/?59dn83kiq568ejo
Офповылажеванная... :arrov: https://www.youtube.com/watch?v=Y2haYQHJQgc

_________________
THRASH 'EM ALL


Top
 Profile E-mail  
 
 
PostPosted: 28 Apr 2016 
Я набрал 1000 сообщений!
Joined: 09 Jul 2008
Posts: 2727
Age: 45
Name: Сергей
отличный альбом, спасибо


Top
 Profile  
 
 
PostPosted: 29 Apr 2016 
Я набрал 1000 сообщений!
Joined: 09 Jul 2008
Posts: 2727
Age: 45
Name: Сергей
послушал повнимательней, в ушах - денег на микширование явно пожалели.. может быть, поэтому и распались?..


Top
 Profile  
 
 
PostPosted: 22 Jul 2016 
ТрэшЭрос
User avatar
Joined: 18 Jul 2011
Posts: 2303
Lоcаtion: Гулькевичи
Age: 44
Name: Александр
:thanx:
Только добрался в тему, а тут такое :lob: :dance: :true:

_________________
Thrash no trash!!!


Top
 Profile E-mail  
 
 
PostPosted: 22 Jul 2016 
консэрваторъ
Joined: 11 Aug 2007
Posts: 16815
Lоcаtion: Псков
Age: 45
Name: Сергей
Счас как раз в машине кручу альбомчик сей... :lob:

_________________
THRASH 'EM ALL


Top
 Profile E-mail  
 
Display posts from previous:  Sort by  
Post new topic Reply to topic  [ 9 posts ] 

All times are UTC + 3 hours


Who is online

Users browsing this forum: No registered users and 2 guests


You cannot post new topics in this forum
You cannot reply to topics in this forum
You cannot edit your posts in this forum
You cannot delete your posts in this forum
You cannot post attachments in this forum

Search for:
Яндекс.Метрика
cron
Powered by phpBB © 2000, 2002, 2005, 2007 phpBB Group