\m/ 80's metal \m/

Информационно-аналитический форум "80 см пыли" (In Search We Trust) "У нас никто никуда не спешит"
Me For You - http://me-4u.com
It is currently 23 Apr 2019

All times are UTC + 3 hours

Spoiler
Chat - temporary registration for foreign users (please leave your application here)





Forum rules


Уважаемые пользователи ресурса, друзья, коллеги и гости нашего форума. Данный раздел конференции создан с целью рафинации, и посвящён такому стилевому направлению в музыке, как Thrash Metal во всех его проявлениях и ипостасях, а иногда и переходящему на пограничные стили Speed, Power, Groove, Crossover, MDM и т.п.
Главное правило здесь одно: Одна группа – одна тема! Всё остальное созвучно основным нормам поведения на конференции.
Шаблон оформления тем в этом подфоруме должен быть основан на данных сайта www.metal-archives.com и выглядеть следующим образом:

Группа (Страна) - Стилевые рамки - дискография
Slayer (USA) - Thrash Metal - дискография


В теме допустимо размещение всей информации касающейся данного коллектива: анонсы любых альбомов в любых форматах, запросы любых релизов коллектива (кроме релизов текущего и прошлого годов), обсуждения, обзоры, а в остальном всё как обычно. Уважаем друг друга, не грубим, соблюдаем нормы поведения на конференции, оформляем анонсы и запросы красиво и информативно, что бы модераторы не посчитали их троллингом, и не отправили куда положено, выписав Вам предупреждение или ещё что похуже… Прежде чем что-то запросить или запостить, пользуемся поиском! Пользуемся поиском! ПОЛЬЗУЕМСЯ ПОИСКОМ!!! Так слышно меня?.. :pardon:
Интересного, конструктивного и креативного общения! ;)

Image



Post new topic Reply to topic  [ 18 posts ] 
Author Message
 
PostPosted: 12 Apr 2016 
Генеральный thrasher
User avatar
Joined: 03 Oct 2008
Posts: 3695
Lоcаtion: Ханты-Мансийский АО
Age: 44
Name: Сергей
Суровый дебют американских трэшеров.Серёге splatty рекомендую к ознакомлению!

Image

Year:2014
Style:Thrash Metal
Country:U.S.A.
Archive:Flac+Cue+Log+Scans
Size:297Mb
Source:my CD
Label:Slaney Records

Nick Ramos - guitar
Vince Mejia - vocals,guitar
Tommy Tama - drums
David Badillo - bass

Tracklist:
01. Vengeance has a Name 05:15
02. Shadow Of The White Skull 04:44
03. Fatality 04:04
04. Beauty With a Price 04:32
05. Napalm 'Nam 04:11
06. Arachnid Contagion 05:36
07. Carnivorous Lamniform 03:17
08. Proclamation to Enslave a Nation 04:54
09. Catastrophic End 04:31

"Cue"
REM GENRE "Thrash Metal"
REM DATE 2014
REM DISCID 71099E09
REM COMMENT "ExactAudioCopy v1.1"
PERFORMER "Skoffin"
TITLE "Lucid Persecution"
FILE "Skoffin - Lucid Persecution.flac" WAVE
TRACK 01 AUDIO
TITLE "Vengeance has a Name"
PERFORMER "Skoffin"
FLAGS DCP
INDEX 01 00:00:00
TRACK 02 AUDIO
TITLE "Shadow Of The White Skull"
PERFORMER "Skoffin"
FLAGS DCP
INDEX 01 05:14:60
TRACK 03 AUDIO
TITLE "Fatality"
PERFORMER "Skoffin"
FLAGS DCP
INDEX 01 09:58:53
TRACK 04 AUDIO
TITLE "Beauty With a Price"
PERFORMER "Skoffin"
FLAGS DCP
INDEX 01 14:02:46
TRACK 05 AUDIO
TITLE "Napalm 'Nam"
PERFORMER "Skoffin"
FLAGS DCP
INDEX 01 18:34:46
TRACK 06 AUDIO
TITLE "Arachnid Contagion"
PERFORMER "Skoffin"
FLAGS DCP
INDEX 01 22:45:16
TRACK 07 AUDIO
TITLE "Carnivorous Lamniform"
PERFORMER "Skoffin"
FLAGS DCP
INDEX 01 28:21:10
TRACK 08 AUDIO
TITLE "Proclamation to Enslave a Nation"
PERFORMER "Skoffin"
FLAGS DCP
INDEX 01 31:37:71
TRACK 09 AUDIO
TITLE "Catastrophic End"
PERFORMER "Skoffin"
FLAGS DCP
INDEX 01 36:31:70

"Log"
Exact Audio Copy V1.1 from 23. June 2015

Отчёт EAC об извлечении, выполненном 12. апреля 2016, 8:35

Skoffin / Lucid Persecution

Дисковод: HL-DT-STDVDRAM GTA0N Adapter: 1 ID: 0

Режим чтения : Достоверность
Использование точного потока : Да
Отключение кэша аудио : Да
Использование указателей C2 : Нет

Коррекция смещения при чтении : 102
Способность читать области Lead-in и Lead-out : Нет
Заполнение пропущенных сэмплов тишиной : Да
Удаление блоков с тишиной в начале и конце : Нет
При вычислениях CRC использовались нулевые сэмплы : Да
Интерфейс : Встроенный Win32-интерфейс для Win NT/2000

Выходной формат : Пользовательский кодировщик
Выбранный битрейт : 768 kBit/s
Качество : Высокий
Добавление ID3-тега : Нет
Утилита сжатия : C:\Program Files (x86)\Exact Audio Copy\FLAC\FLAC.EXE
Дополнительные параметры : -6 -V -T "ARTIST=%artist%" -T "TITLE=%title%" -T "ALBUM=%albumtitle%" -T "DATE=%year%" -T "TRACKNUMBER=%tracknr%" -T "GENRE=%genre%" -T "COMMENT=%comment%" -T "BAND=%albuminterpret%" -T "ALBUMARTIST=%albuminterpret%" -T "COMPOSER=%composer%" %haslyrics%--tag-from-file=LYRICS="%lyricsfile%"%haslyrics% -T "DISCNUMBER=%cdnumber%" -T "TOTALDISCS=%totalcds%" -T "TOTALTRACKS=%numtracks%" %hascover%--picture="%coverfile%"%hascover% %source% -o %dest%


TOC извлечённого CD

Трек | Старт | Длительность | Начальный сектор | Конечный сектор
---------------------------------------------------------------------
1 | 0:00.00 | 5:14.60 | 0 | 23609
2 | 5:14.60 | 4:43.68 | 23610 | 44902
3 | 9:58.53 | 4:03.68 | 44903 | 63195
4 | 14:02.46 | 4:32.00 | 63196 | 83595
5 | 18:34.46 | 4:10.45 | 83596 | 102390
6 | 22:45.16 | 5:35.69 | 102391 | 127584
7 | 28:21.10 | 3:16.61 | 127585 | 142345
8 | 31:37.71 | 4:53.74 | 142346 | 164394
9 | 36:31.70 | 4:30.47 | 164395 | 184691


Характеристики диапазона извлечения и сообщения об ошибках

Выбранный диапазон

Имя файла C:\Users\магазин\Music\Skoffin - Lucid Persecution.wav

Пиковый уровень 100.0 %
Скорость извлечения 3.9 X
Качество диапазона 100.0 %
CRC копии 51085479
Копирование... OK

Ошибок не произошло


AccurateRip: сводка

Трек 1 отсутствует в базе данных
Трек 2 отсутствует в базе данных
Трек 3 отсутствует в базе данных
Трек 4 отсутствует в базе данных
Трек 5 отсутствует в базе данных
Трек 6 отсутствует в базе данных
Трек 7 отсутствует в базе данных
Трек 8 отсутствует в базе данных
Трек 9 отсутствует в базе данных

Ни одного трека нет в базе AccurateRip

Конец отчёта

---- CUETools DB Plugin V2.1.6

[CTDB TOCID: WiqTPVbhEcdduVIBzbbqt7ojLTo-] found
Submit result: WiqTPVbhEcdduVIBzbbqt7ojLTo- has been confirmed
Track | CTDB Status
1 | (3/3) Accurately ripped
2 | (3/3) Accurately ripped
3 | (3/3) Accurately ripped
4 | (3/3) Accurately ripped
5 | (3/3) Accurately ripped
6 | (3/3) Accurately ripped
7 | (3/3) Accurately ripped
8 | (3/3) Accurately ripped
9 | (3/3) Accurately ripped


Lucid Persecution


Top
 Profile  
 
 
PostPosted: 12 Apr 2016 
Прокъмитолист
User avatar
Joined: 12 Aug 2007
Posts: 6545
Lоcаtion: Санктъ-Петербуркъ
Age: 51
Name: Олекъ
:thanx:

_________________
прокъметол - это музыко, от которово есть прок (ы)


Top
 Profile  
 
 
PostPosted: 12 Apr 2016 
консэрваторъ
Joined: 11 Aug 2007
Posts: 16827
Lоcаtion: Псков
Age: 45
Name: Сергей
О! О! О-о-о!
О-о-о-о! О-о!..
:true: :lob:

_________________
THRASH 'EM ALL


Top
 Profile E-mail  
 
 
PostPosted: 12 Apr 2016 
Я набрал 1000 сообщений!
Joined: 09 Jul 2008
Posts: 2732
Age: 45
Name: Сергей
не понравилось, спасибо )


Top
 Profile  
 
 
PostPosted: 12 Apr 2016 
Генеральный thrasher
User avatar
Joined: 03 Oct 2008
Posts: 3695
Lоcаtion: Ханты-Мансийский АО
Age: 44
Name: Сергей
не понравилось, спасибо )


Ваше право!А мне нравится...


Top
 Profile  
 
 
PostPosted: 12 Apr 2016 
консэрваторъ
Joined: 11 Aug 2007
Posts: 16827
Lоcаtion: Псков
Age: 45
Name: Сергей
На самом деле дебютник звучит очень слабо, звук в подушку, заложенную в бочку... но потенциал у ребят несомненно есть... Написал им по поводу демки 8-ого года...

_________________
THRASH 'EM ALL


Top
 Profile E-mail  
 
 
PostPosted: 12 Apr 2016 
Генеральный thrasher
User avatar
Joined: 03 Oct 2008
Posts: 3695
Lоcаtion: Ханты-Мансийский АО
Age: 44
Name: Сергей
На самом деле дебютник звучит очень слабо, звук в подушку, заложенную в бочку


Серёг,по моему нормально звучит.Я пока лося делал,дважды альбом погонял.Или у меня уже прамблемы? :shok:


Top
 Profile  
 
 
PostPosted: 12 Apr 2016 
консэрваторъ
Joined: 11 Aug 2007
Posts: 16827
Lоcаtion: Псков
Age: 45
Name: Сергей
Серёг, да при чём здесь ты то?.. Такая запись... Уверен на следующем альбоме будет пообъёмистее!.. Их забрал для коллекции и надежды на последующие работы, потому как рубают напористо и забористо... заоградочно... :pardon:
Спасибо большое!.. :lob:

_________________
THRASH 'EM ALL


Top
 Profile E-mail  
 
 
PostPosted: 12 Apr 2016 
Генеральный thrasher
User avatar
Joined: 03 Oct 2008
Posts: 3695
Lоcаtion: Ханты-Мансийский АО
Age: 44
Name: Сергей
Окей!Ждём нового стаффа!


Top
 Profile  
 
 
PostPosted: 12 Apr 2016 
Доктор энтомологии
User avatar
Joined: 22 Jan 2009
Posts: 9694
Lоcаtion: Даугавпилс
Age: 44
Name: Алексей
О, а это еще более ништячно :lob: Спасибо за наводочку :bodun: :punko:


Top
 Profile  
 
 
PostPosted: 12 Apr 2016 
консэрваторъ
Joined: 11 Aug 2007
Posts: 16827
Lоcаtion: Псков
Age: 45
Name: Сергей
Молотобойцы они ещё те конечно... !!. :lob:

_________________
THRASH 'EM ALL


Top
 Profile E-mail  
 
 
PostPosted: 12 Apr 2016 
Я набрал 1000 сообщений!
Joined: 09 Jul 2008
Posts: 2732
Age: 45
Name: Сергей
ох


Top
 Profile  
 
 
PostPosted: 12 Apr 2016 
Alive Again
User avatar
Joined: 17 Dec 2008
Posts: 4747
Lоcаtion: Курск Воронеж Оскол
Age: 44
Name: Дмитрий
:thanx:


Top
 Profile E-mail  
 
 
PostPosted: 16 Apr 2016 
ТрэшЭрос
User avatar
Joined: 18 Jul 2011
Posts: 2303
Lоcаtion: Гулькевичи
Age: 44
Name: Александр
:thanx:

_________________
Thrash no trash!!!


Top
 Profile E-mail  
 
 
PostPosted: 15 Aug 2016 
Генеральный thrasher
User avatar
Joined: 03 Oct 2008
Posts: 3695
Lоcаtion: Ханты-Мансийский АО
Age: 44
Name: Сергей
Написал им по поводу демки 8-ого года...


Ответили или нет?


Top
 Profile  
 
 
PostPosted: 15 Aug 2016 
консэрваторъ
Joined: 11 Aug 2007
Posts: 16827
Lоcаtion: Псков
Age: 45
Name: Сергей
Со дня космонавтики так и молчат... :vic:

_________________
THRASH 'EM ALL


Top
 Profile E-mail  
 
 
PostPosted: 16 Aug 2016 
Хиппей (support team)
User avatar
Joined: 30 Jul 2007
Posts: 111788
Lоcаtion: Киев (Kyiv, UA)
Age: 45
Name: Andrey
:thanx:

mirror: iFolder l Narod l M-Cloud

_________________


Top
 Profile E-mail  
 
 
PostPosted: 17 Aug 2016 
Хиппей (support team)
User avatar
Joined: 30 Jul 2007
Posts: 111788
Lоcаtion: Киев (Kyiv, UA)
Age: 45
Name: Andrey
Запись как запись, ну немного плосковато звучит ритм-секция. Но сам альбом не очень мне.
Моторные ребята, но.... то заводятся сильно, то дико тормозят. Не нашли, явно, ещё своей стилистики и подхода к выходу креатива :vic:

4/10

_________________


Top
 Profile E-mail  
 
Display posts from previous:  Sort by  
Post new topic Reply to topic  [ 18 posts ] 

All times are UTC + 3 hours


Who is online

Users browsing this forum: No registered users and 3 guests


You cannot post new topics in this forum
You cannot reply to topics in this forum
You cannot edit your posts in this forum
You cannot delete your posts in this forum
You cannot post attachments in this forum

Search for:
Яндекс.Метрика
Powered by phpBB © 2000, 2002, 2005, 2007 phpBB Group