\m/ 80's metal \m/

Информационно-аналитический форум "80 см пыли" (In Search We Trust) "У нас никто никуда не спешит"
Me For You - http://me-4u.com
It is currently 24 Apr 2019

All times are UTC + 3 hours

Spoiler
Chat - temporary registration for foreign users (please leave your application here)





Forum rules


Уважаемые пользователи ресурса, друзья, коллеги и гости нашего форума. Данный раздел конференции создан с целью рафинации, и посвящён такому стилевому направлению в музыке, как Thrash Metal во всех его проявлениях и ипостасях, а иногда и переходящему на пограничные стили Speed, Power, Groove, Crossover, MDM и т.п.
Главное правило здесь одно: Одна группа – одна тема! Всё остальное созвучно основным нормам поведения на конференции.
Шаблон оформления тем в этом подфоруме должен быть основан на данных сайта www.metal-archives.com и выглядеть следующим образом:

Группа (Страна) - Стилевые рамки - дискография
Slayer (USA) - Thrash Metal - дискография


В теме допустимо размещение всей информации касающейся данного коллектива: анонсы любых альбомов в любых форматах, запросы любых релизов коллектива (кроме релизов текущего и прошлого годов), обсуждения, обзоры, а в остальном всё как обычно. Уважаем друг друга, не грубим, соблюдаем нормы поведения на конференции, оформляем анонсы и запросы красиво и информативно, что бы модераторы не посчитали их троллингом, и не отправили куда положено, выписав Вам предупреждение или ещё что похуже… Прежде чем что-то запросить или запостить, пользуемся поиском! Пользуемся поиском! ПОЛЬЗУЕМСЯ ПОИСКОМ!!! Так слышно меня?.. :pardon:
Интересного, конструктивного и креативного общения! ;)

Image



Post new topic Reply to topic  [ 91 posts ]  Go to page 1, 2, 3, 4, 5  Next
Author Message
 
PostPosted: 12 Apr 2016 
Генеральный thrasher
User avatar
Joined: 03 Oct 2008
Posts: 3695
Lоcаtion: Ханты-Мансийский АО
Age: 44
Name: Сергей
Опять Италия трэшует!Молодые парни нарезали неплохой альбомчик с довольно приятными мелодиями.

Image

Year:2014
Style:Thrash Metal
Country:Italy
Archive:Flac+Cue+Log+Scans
Size:268Mb
Source:my CD
Label:Nightbreaker Productions

Line-Up:
Alessandro Castagneri - bass
Andrea Steeler - guitars
Mattia Itala - guitars,vocals
Simone Cibrario - drums

Tracklist:
01. Into the Lies... They Were Denied 04:14
02. Murder 02:50
03. Nowhere to Hide 03:57
04. To the Night (Breaker) 03:13
05. Disorder, No Order 04:27
06. Interstellar Defiance 04:23
07. Call to Insanity 03:09
08. Conjuring Death 03:41
09. The Fall 02:47
10. Spreading the Terror 04:20

"Cue"
REM GENRE "Thrash Metal"
REM DATE 2014
REM DISCID 7C08A60A
REM COMMENT "ExactAudioCopy v1.1"
PERFORMER "Acidity"
TITLE "Into The Lies"
FILE "Acidity - Into The Lies.flac" WAVE
TRACK 01 AUDIO
TITLE "Into the Lies... They Were Denied"
PERFORMER "Acidity"
INDEX 01 00:00:00
TRACK 02 AUDIO
TITLE "Murder"
PERFORMER "Acidity"
INDEX 01 04:13:06
TRACK 03 AUDIO
TITLE "Nowhere to Hide"
PERFORMER "Acidity"
INDEX 01 07:02:73
TRACK 04 AUDIO
TITLE "To the Night (Breaker)"
PERFORMER "Acidity"
INDEX 01 10:59:28
TRACK 05 AUDIO
TITLE "Disorder, No Order"
PERFORMER "Acidity"
INDEX 01 14:12:24
TRACK 06 AUDIO
TITLE "Interstellar Defiance"
PERFORMER "Acidity"
INDEX 01 18:38:26
TRACK 07 AUDIO
TITLE "Call to Insanity"
PERFORMER "Acidity"
INDEX 01 23:00:39
TRACK 08 AUDIO
TITLE "Conjuring Death"
PERFORMER "Acidity"
INDEX 01 26:08:60
TRACK 09 AUDIO
TITLE "The Fall"
PERFORMER "Acidity"
INDEX 01 29:48:63
TRACK 10 AUDIO
TITLE "Spreading the Terror"
PERFORMER "Acidity"
INDEX 01 32:35:13

"Log"
Exact Audio Copy V1.1 from 23. June 2015

Отчёт EAC об извлечении, выполненном 12. апреля 2016, 12:20

Acidity / Into The Lies

Дисковод: HL-DT-STDVDRAM GTA0N Adapter: 1 ID: 0

Режим чтения : Достоверность
Использование точного потока : Да
Отключение кэша аудио : Да
Использование указателей C2 : Нет

Коррекция смещения при чтении : 102
Способность читать области Lead-in и Lead-out : Нет
Заполнение пропущенных сэмплов тишиной : Да
Удаление блоков с тишиной в начале и конце : Нет
При вычислениях CRC использовались нулевые сэмплы : Да
Интерфейс : Встроенный Win32-интерфейс для Win NT/2000

Выходной формат : Пользовательский кодировщик
Выбранный битрейт : 768 kBit/s
Качество : Высокий
Добавление ID3-тега : Нет
Утилита сжатия : C:\Program Files (x86)\Exact Audio Copy\FLAC\FLAC.EXE
Дополнительные параметры : -6 -V -T "ARTIST=%artist%" -T "TITLE=%title%" -T "ALBUM=%albumtitle%" -T "DATE=%year%" -T "TRACKNUMBER=%tracknr%" -T "GENRE=%genre%" -T "COMMENT=%comment%" -T "BAND=%albuminterpret%" -T "ALBUMARTIST=%albuminterpret%" -T "COMPOSER=%composer%" %haslyrics%--tag-from-file=LYRICS="%lyricsfile%"%haslyrics% -T "DISCNUMBER=%cdnumber%" -T "TOTALDISCS=%totalcds%" -T "TOTALTRACKS=%numtracks%" %hascover%--picture="%coverfile%"%hascover% %source% -o %dest%


TOC извлечённого CD

Трек | Старт | Длительность | Начальный сектор | Конечный сектор
---------------------------------------------------------------------
1 | 0:00.00 | 4:13.06 | 0 | 18980
2 | 4:13.06 | 2:49.67 | 18981 | 31722
3 | 7:02.73 | 3:56.30 | 31723 | 49452
4 | 10:59.28 | 3:12.71 | 49453 | 63923
5 | 14:12.24 | 4:26.02 | 63924 | 83875
6 | 18:38.26 | 4:22.13 | 83876 | 103538
7 | 23:00.39 | 3:08.21 | 103539 | 117659
8 | 26:08.60 | 3:40.03 | 117660 | 134162
9 | 29:48.63 | 2:46.25 | 134163 | 146637
10 | 32:35.13 | 4:19.13 | 146638 | 166075


Характеристики диапазона извлечения и сообщения об ошибках

Выбранный диапазон

Имя файла C:\Users\магазин\Music\Acidity - Into The Lies.wav

Пиковый уровень 99.9 %
Скорость извлечения 3.7 X
Качество диапазона 100.0 %
CRC копии C2B7CCA1
Копирование... OK

Ошибок не произошло


AccurateRip: сводка

Трек 1 : извлечено точно (доверие 1) [147F3877] (AR v2)
Трек 2 : извлечено точно (доверие 1) [0C7C80A3] (AR v2)
Трек 3 : извлечено точно (доверие 1) [A9C0012A] (AR v2)
Трек 4 : извлечено точно (доверие 1) [E330CB71] (AR v2)
Трек 5 : извлечено точно (доверие 1) [C8AA6E4C] (AR v2)
Трек 6 : извлечено точно (доверие 1) [C2BD50F4] (AR v2)
Трек 7 : извлечено точно (доверие 1) [3E132D38] (AR v2)
Трек 8 : извлечено точно (доверие 1) [75DC092C] (AR v2)
Трек 9 : извлечено точно (доверие 1) [C386752A] (AR v2)
Трек 10 : извлечено точно (доверие 1) [FAC761B6] (AR v2)

Все треки извлечены точно

Конец отчёта

---- CUETools DB Plugin V2.1.6

[CTDB TOCID: daDmNpovEgiol8Zz8PYGRcyPvpM-] found
Submit result: daDmNpovEgiol8Zz8PYGRcyPvpM- has been confirmed
Track | CTDB Status
1 | (1/1) Accurately ripped
2 | (1/1) Accurately ripped
3 | (1/1) Accurately ripped
4 | (1/1) Accurately ripped
5 | (1/1) Accurately ripped
6 | (1/1) Accurately ripped
7 | (1/1) Accurately ripped
8 | (1/1) Accurately ripped
9 | (1/1) Accurately ripped
10 | (1/1) Accurately ripped


Into The Lies


Top
 Profile  
 
 
PostPosted: 12 Apr 2016 
Прокъмитолист
User avatar
Joined: 12 Aug 2007
Posts: 6545
Lоcаtion: Санктъ-Петербуркъ
Age: 51
Name: Олекъ
:thanx:

_________________
прокъметол - это музыко, от которово есть прок (ы)


Top
 Profile  
 
 
PostPosted: 12 Apr 2016 
консэрваторъ
User avatar
Joined: 11 Aug 2007
Posts: 16835
Lоcаtion: Псков
Age: 45
Name: Сергей
И этих надо брать!.. :lob:

ACIDITY Into The Lies | +

_________________
THRASH 'EM ALL


Top
 Profile E-mail  
 
 
PostPosted: 12 Apr 2016 
Я набрал 1000 сообщений!
Joined: 09 Jul 2008
Posts: 2733
Age: 45
Name: Сергей
угу, немного однообразно, но оч неплохо


Top
 Profile  
 
 
PostPosted: 12 Apr 2016 
Генеральный thrasher
User avatar
Joined: 03 Oct 2008
Posts: 3695
Lоcаtion: Ханты-Мансийский АО
Age: 44
Name: Сергей
угу, немного однообразно, но оч неплохо


Посмотрите на фотографии этих парнишек и задумайтесь,сколько у нас в России на данный момент хороших трэш-команд!И посмотрите мои топики здесь по итальянцам.В маленькой стране куча неплохих банд...И то,что мной здесь выложено - малая часть итальянской трэш-сцены!


Top
 Profile  
 
 
PostPosted: 12 Apr 2016 
Я набрал 1000 сообщений!
Joined: 09 Jul 2008
Posts: 2733
Age: 45
Name: Сергей
да я не против итальянцев, только сегодня послушал новый http://www.metal-archives.com/bands/Ris ... 3540271614 , очень советую )


Top
 Profile  
 
 
PostPosted: 12 Apr 2016 
Генеральный thrasher
User avatar
Joined: 03 Oct 2008
Posts: 3695
Lоcаtion: Ханты-Мансийский АО
Age: 44
Name: Сергей
Послушал уже.Дебютник был посильнее...


Top
 Profile  
 
 
PostPosted: 12 Apr 2016 
консэрваторъ
User avatar
Joined: 11 Aug 2007
Posts: 16835
Lоcаtion: Псков
Age: 45
Name: Сергей
Три трека из демки можно надёргать с туба... :arrov: https://www.youtube.com/user/BrainExplosion88/videos

_________________
THRASH 'EM ALL


Top
 Profile E-mail  
 
 
PostPosted: 12 Apr 2016 
Доктор энтомологии
User avatar
Joined: 22 Jan 2009
Posts: 9694
Lоcаtion: Даугавпилс
Age: 44
Name: Алексей
И альбом есть в ютубе целиком :meloman:
| +


Top
 Profile  
 
 
PostPosted: 12 Apr 2016 
консэрваторъ
User avatar
Joined: 11 Aug 2007
Posts: 16835
Lоcаtion: Псков
Age: 45
Name: Сергей
Да Ви шо!?. :shok: :benya:

_________________
THRASH 'EM ALL


Top
 Profile E-mail  
 
 
PostPosted: 12 Apr 2016 
Доктор энтомологии
User avatar
Joined: 22 Jan 2009
Posts: 9694
Lоcаtion: Даугавпилс
Age: 44
Name: Алексей
И ничего удивительного. Не рассказал бы нам о существовании альбома и группы наш друг Сергей, не смогли бы мы ознакомиться с жемчужиной итальянского трэша :thanx: Альбом - хорош :lob:


Top
 Profile  
 
 
PostPosted: 12 Apr 2016 
консэрваторъ
User avatar
Joined: 11 Aug 2007
Posts: 16835
Lоcаtion: Псков
Age: 45
Name: Сергей
viewtopic.php?p=261344#p261344

_________________
THRASH 'EM ALL


Top
 Profile E-mail  
 
 
PostPosted: 12 Apr 2016 
Доктор энтомологии
User avatar
Joined: 22 Jan 2009
Posts: 9694
Lоcаtion: Даугавпилс
Age: 44
Name: Алексей
Круг замкнулся :lob: :crazy:


Top
 Profile  
 
 
PostPosted: 12 Apr 2016 
консэрваторъ
User avatar
Joined: 11 Aug 2007
Posts: 16835
Lоcаtion: Псков
Age: 45
Name: Сергей
Серёга, ипихи нет... ну, совершенно совершенно случайно... как в прошлый раз?.. :oops:

2012 Hidden Oppression (EP) :arrov: http://www.metal-archives.com/albums/Ac ... ion/353520

_________________
THRASH 'EM ALL


Top
 Profile E-mail  
 
 
PostPosted: 12 Apr 2016 
Я набрал 1000 сообщений!
Joined: 09 Jul 2008
Posts: 2733
Age: 45
Name: Сергей
интересно, у всех полное соответствие? )


Top
 Profile  
 
 
PostPosted: 12 Apr 2016 
консэрваторъ
User avatar
Joined: 11 Aug 2007
Posts: 16835
Lоcаtion: Псков
Age: 45
Name: Сергей
Кстати... кстати!.. Ипиха то у них ваще сверхзвуковая!.. Спидметолл!.. :true: Напомнила мне дебютник ЭнжелДаста...

_________________
THRASH 'EM ALL


Top
 Profile E-mail  
 
 
PostPosted: 12 Apr 2016 
Alive Again
User avatar
Joined: 17 Dec 2008
Posts: 4747
Lоcаtion: Курск Воронеж Оскол
Age: 44
Name: Дмитрий
:thanx:


Top
 Profile E-mail  
 
 
PostPosted: 13 Apr 2016 
Генеральный thrasher
User avatar
Joined: 03 Oct 2008
Posts: 3695
Lоcаtion: Ханты-Мансийский АО
Age: 44
Name: Сергей
Кстати... кстати!.. Ипиха то у них ваще сверхзвуковая!.. Спидметолл!.. :true: Напомнила мне дебютник ЭнжелДаста...


Нет у меня этой епишки! Ты в мр3 качнул?


Top
 Profile  
 
 
PostPosted: 13 Apr 2016 
консэрваторъ
User avatar
Joined: 11 Aug 2007
Posts: 16835
Lоcаtion: Псков
Age: 45
Name: Сергей
Ага... жаль тока, что в свистящих 128... :(

_________________
THRASH 'EM ALL


Top
 Profile E-mail  
 
 
PostPosted: 13 Apr 2016 
Генеральный thrasher
User avatar
Joined: 03 Oct 2008
Posts: 3695
Lоcаtion: Ханты-Мансийский АО
Age: 44
Name: Сергей
Может написать им?


Top
 Profile  
 
Display posts from previous:  Sort by  
Post new topic Reply to topic  [ 91 posts ]  Go to page 1, 2, 3, 4, 5  Next

All times are UTC + 3 hours


Who is online

Users browsing this forum: No registered users and 3 guests


You cannot post new topics in this forum
You cannot reply to topics in this forum
You cannot edit your posts in this forum
You cannot delete your posts in this forum
You cannot post attachments in this forum

Search for:
Яндекс.Метрика
Powered by phpBB © 2000, 2002, 2005, 2007 phpBB Group