\m/ 80's metal \m/

Информационно-аналитический форум "80 см пыли" (In Search We Trust) "У нас никто никуда не спешит"
Me For You - http://me-4u.com
It is currently 17 Jun 2019

All times are UTC + 3 hours

Spoiler
Chat - temporary registration for foreign users (please leave your application here)





Forum rules


Уважаемые пользователи ресурса, друзья, коллеги и гости нашего форума. Данный раздел конференции создан с целью рафинации, и посвящён такому стилевому направлению в музыке, как Thrash Metal во всех его проявлениях и ипостасях, а иногда и переходящему на пограничные стили Speed, Power, Groove, Crossover, MDM и т.п.
Главное правило здесь одно: Одна группа – одна тема! Всё остальное созвучно основным нормам поведения на конференции.
Шаблон оформления тем в этом подфоруме должен быть основан на данных сайта www.metal-archives.com и выглядеть следующим образом:

Группа (Страна) - Стилевые рамки - дискография
Slayer (USA) - Thrash Metal - дискография


В теме допустимо размещение всей информации касающейся данного коллектива: анонсы любых альбомов в любых форматах, запросы любых релизов коллектива (кроме релизов текущего и прошлого годов), обсуждения, обзоры, а в остальном всё как обычно. Уважаем друг друга, не грубим, соблюдаем нормы поведения на конференции, оформляем анонсы и запросы красиво и информативно, что бы модераторы не посчитали их троллингом, и не отправили куда положено, выписав Вам предупреждение или ещё что похуже… Прежде чем что-то запросить или запостить, пользуемся поиском! Пользуемся поиском! ПОЛЬЗУЕМСЯ ПОИСКОМ!!! Так слышно меня?.. :pardon:
Интересного, конструктивного и креативного общения! ;)

Image



Post new topic Reply to topic  [ 52 posts ]  Go to page 1, 2, 3  Next
Author Message
 
PostPosted: 03 Apr 2016 
Генеральный thrasher
User avatar
Joined: 03 Oct 2008
Posts: 3710
Lоcаtion: Ханты-Мансийский АО
Age: 44
Name: Сергей
Серёге splatty рекомендую заслушать!Остальным тоже welcome!

Image

Year:2014
Style:Thrash Metal
Country:Italy
Archive:Flac+Cue+Log+Scans
Size:281Mb
Source:my CD
Label:Iron Shield Records

Line-Up:
Giuseppe Peri - rhythm guitars,backing vocals
Salvatore Li Causi - lead guitars
Leonardo Botta - vocals
Angelo Bissanti - bass,backing vocals
Vincenzo Lombardi - drums

Tracklist:
01. Mosh Tank 01:14
02. City Grave 04:23
03. Thrash Bombz 05:50
04. Human Obliteration 02:53
05. Mission Of Blood 04:34
06. Command Of Injury 03:12
07. Dead Body Hanged 02:59
08. Fear Of The Light 02:49
09. Necrosis 04:00
10. A.H.B. 02:23
11. The Curse 03:05
12. Toxic Waste Inc. 02:57

"Cue"
REM GENRE "Thrash Metal"
REM DATE 2014
REM DISCID AA0EE60D
REM COMMENT "ExactAudioCopy v1.1"
PERFORMER "Thrash Bombz"
TITLE "Mission Of Blood"
FILE "Thrash Bombz - Mission Of Blood.flac" WAVE
TRACK 01 AUDIO
TITLE "Mosh Tank"
PERFORMER "Thrash Bombz"
FLAGS DCP
INDEX 01 00:00:00
TRACK 02 AUDIO
TITLE "City Grave"
PERFORMER "Thrash Bombz"
FLAGS DCP
INDEX 01 01:14:00
TRACK 03 AUDIO
TITLE "Thrash Bombz"
PERFORMER "Thrash Bombz"
FLAGS DCP
INDEX 01 05:36:37
TRACK 04 AUDIO
TITLE "Human Obliteration"
PERFORMER "Thrash Bombz"
FLAGS DCP
INDEX 01 11:26:37
TRACK 05 AUDIO
TITLE "Mission Of Blood"
PERFORMER "Thrash Bombz"
FLAGS DCP
INDEX 01 14:18:47
TRACK 06 AUDIO
TITLE "Command Of Injury"
PERFORMER "Thrash Bombz"
FLAGS DCP
INDEX 01 18:52:41
TRACK 07 AUDIO
TITLE "Dead Body Hanged"
PERFORMER "Thrash Bombz"
FLAGS DCP
INDEX 01 22:04:09
TRACK 08 AUDIO
TITLE "Fear Of The Light"
PERFORMER "Thrash Bombz"
FLAGS DCP
INDEX 01 25:02:66
TRACK 09 AUDIO
TITLE "Necrosis"
PERFORMER "Thrash Bombz"
FLAGS DCP
INDEX 01 27:50:74
TRACK 10 AUDIO
TITLE "A.H.B."
PERFORMER "Thrash Bombz"
FLAGS DCP
INDEX 01 31:50:05
TRACK 11 AUDIO
TITLE "The Curse"
PERFORMER "Thrash Bombz"
FLAGS DCP
INDEX 01 34:12:17
TRACK 12 AUDIO
TITLE "Toxic Waste Inc."
PERFORMER "Thrash Bombz"
FLAGS DCP
INDEX 01 37:16:30

"Log"
Exact Audio Copy V1.1 from 23. June 2015

Отчёт EAC об извлечении, выполненном 31. марта 2016, 18:29

Thrash Bombz / Mission Of Blood

Дисковод: HL-DT-STDVDRAM GTA0N Adapter: 1 ID: 0

Режим чтения : Достоверность
Использование точного потока : Да
Отключение кэша аудио : Да
Использование указателей C2 : Нет

Коррекция смещения при чтении : 102
Способность читать области Lead-in и Lead-out : Нет
Заполнение пропущенных сэмплов тишиной : Да
Удаление блоков с тишиной в начале и конце : Нет
При вычислениях CRC использовались нулевые сэмплы : Да
Интерфейс : Встроенный Win32-интерфейс для Win NT/2000

Выходной формат : Пользовательский кодировщик
Выбранный битрейт : 768 kBit/s
Качество : Высокий
Добавление ID3-тега : Нет
Утилита сжатия : C:\Program Files (x86)\Exact Audio Copy\FLAC\FLAC.EXE
Дополнительные параметры : -6 -V -T "ARTIST=%artist%" -T "TITLE=%title%" -T "ALBUM=%albumtitle%" -T "DATE=%year%" -T "TRACKNUMBER=%tracknr%" -T "GENRE=%genre%" -T "COMMENT=%comment%" -T "BAND=%albuminterpret%" -T "ALBUMARTIST=%albuminterpret%" -T "COMPOSER=%composer%" %haslyrics%--tag-from-file=LYRICS="%lyricsfile%"%haslyrics% -T "DISCNUMBER=%cdnumber%" -T "TOTALDISCS=%totalcds%" -T "TOTALTRACKS=%numtracks%" %hascover%--picture="%coverfile%"%hascover% %source% -o %dest%


TOC извлечённого CD

Трек | Старт | Длительность | Начальный сектор | Конечный сектор
---------------------------------------------------------------------
1 | 0:00.00 | 1:14.00 | 0 | 5549
2 | 1:14.00 | 4:22.37 | 5550 | 25236
3 | 5:36.37 | 5:50.00 | 25237 | 51486
4 | 11:26.37 | 2:52.10 | 51487 | 64396
5 | 14:18.47 | 4:33.69 | 64397 | 84940
6 | 18:52.41 | 3:11.43 | 84941 | 99308
7 | 22:04.09 | 2:58.57 | 99309 | 112715
8 | 25:02.66 | 2:48.08 | 112716 | 125323
9 | 27:50.74 | 3:59.06 | 125324 | 143254
10 | 31:50.05 | 2:22.12 | 143255 | 153916
11 | 34:12.17 | 3:04.13 | 153917 | 167729
12 | 37:16.30 | 2:56.43 | 167730 | 180972
13 | 42:44.73 | 20:49.05 | 192373 | 286052


Характеристики диапазона извлечения и сообщения об ошибках

Выбранный диапазон

Имя файла C:\Users\магазин\Music\Thrash Bombz - Mission Of Blood.wav

Пиковый уровень 73.1 %
Скорость извлечения 2.7 X
Качество диапазона 99.9 %
CRC копии 008B2220
Копирование... OK

Ошибок не произошло


AccurateRip: сводка

Трек 1 отсутствует в базе данных
Трек 2 отсутствует в базе данных
Трек 3 отсутствует в базе данных
Трек 4 отсутствует в базе данных
Трек 5 отсутствует в базе данных
Трек 6 отсутствует в базе данных
Трек 7 отсутствует в базе данных
Трек 8 отсутствует в базе данных
Трек 9 отсутствует в базе данных
Трек 10 отсутствует в базе данных
Трек 11 отсутствует в базе данных
Трек 12 отсутствует в базе данных

Ни одного трека нет в базе AccurateRip

Конец отчёта

---- CUETools DB Plugin V2.1.6

[CTDB TOCID: T6ZauCi7IStCZq0c8PrSoDrGAOU-] found
Submit result: T6ZauCi7IStCZq0c8PrSoDrGAOU- has been confirmed
Track | CTDB Status
1 | (2/2) Accurately ripped
2 | (2/2) Accurately ripped
3 | (2/2) Accurately ripped
4 | (2/2) Accurately ripped
5 | (2/2) Accurately ripped
6 | (2/2) Accurately ripped
7 | (2/2) Accurately ripped
8 | (2/2) Accurately ripped
9 | (2/2) Accurately ripped
10 | (2/2) Accurately ripped
11 | (2/2) Accurately ripped
12 | (2/2) Accurately ripped


Mission Of Blood


Top
 Profile  
 
 
PostPosted: 03 Apr 2016 
Прокъмитолист
User avatar
Joined: 12 Aug 2007
Posts: 6557
Lоcаtion: Санктъ-Петербуркъ
Age: 51
Name: Олекъ
:thanx:

_________________
прокъметол - это музыко, от которово есть прок (ы)


Top
 Profile  
 
 
PostPosted: 03 Apr 2016 
консэрваторъ
User avatar
Joined: 11 Aug 2007
Posts: 16972
Lоcаtion: Псков
Age: 45
Name: Сергей
О!.. Итальянцы очередные... беру!.. Спасибоса!..

_________________
THRASH 'EM ALL


Top
 Profile E-mail  
 
 
PostPosted: 03 Apr 2016 
консэрваторъ
User avatar
Joined: 11 Aug 2007
Posts: 16972
Lоcаtion: Псков
Age: 45
Name: Сергей
С вокалом Хэтфилда местами... :smile: На реверберации фриданлоад демо и 2 песни из ипихи... :arrov: https://www.reverbnation.com/thrashbombz/songs
Скучновато немного...

_________________
THRASH 'EM ALL


Top
 Profile E-mail  
 
 
PostPosted: 03 Apr 2016 
консэрваторъ
User avatar
Joined: 11 Aug 2007
Posts: 16972
Lоcаtion: Псков
Age: 45
Name: Сергей
Слушаю демку 12-ого года... Sicilian Way of Thrash... Какое же милое сердцу звучание а ля 90'Псковандеграунддетх!.. :true: :smile:
Quote:
Recorded at ‘80 studio (AG) in the first days of December 2007 - except "Human Incantation" in the summer of 2010.

_________________
THRASH 'EM ALL


Top
 Profile E-mail  
 
 
PostPosted: 03 Apr 2016 
консэрваторъ
User avatar
Joined: 11 Aug 2007
Posts: 16972
Lоcаtion: Псков
Age: 45
Name: Сергей
Серёга, а ипихи Dawn последующей у тебя случаем нет?..

_________________
THRASH 'EM ALL


Top
 Profile E-mail  
 
 
PostPosted: 04 Apr 2016 
Хиппей (support team)
User avatar
Joined: 30 Jul 2007
Posts: 113079
Lоcаtion: Киев (Kyiv, UA)
Age: 46
Name: Andrey
:thanx:

mirror: iFolder l Narod M-Cloud

Название нескромное :nea:

_________________


Top
 Profile E-mail  
 
 
PostPosted: 04 Apr 2016 
Генеральный thrasher
User avatar
Joined: 03 Oct 2008
Posts: 3710
Lоcаtion: Ханты-Мансийский АО
Age: 44
Name: Сергей
Серёга, а ипихи Dawn последующей у тебя случаем нет?..


Есть.Сегодня сканы доделаю и выложу.


Top
 Profile  
 
 
PostPosted: 04 Apr 2016 
консэрваторъ
User avatar
Joined: 11 Aug 2007
Posts: 16972
Lоcаtion: Псков
Age: 45
Name: Сергей
!!! Ну, круть!!! :true: :true: :true:

_________________
THRASH 'EM ALL


Top
 Profile E-mail  
 
 
PostPosted: 04 Apr 2016 
Генеральный thrasher
User avatar
Joined: 03 Oct 2008
Posts: 3710
Lоcаtion: Ханты-Мансийский АО
Age: 44
Name: Сергей
Image

Year:2014
Style:Thrash Metal
Country:Italy
Archive:Flac+Cue+Log+Scans
Size:152Mb
Source:my CD
Label:Iron Shield Records

Line-Up:
Giuseppe Peri - rhythm guitars,backing vocals
Salvatore Li Causi - lead guitars
Angelo Bissanti - bass,vocals
Vincenzo Lombardi - drums

Tracklist:
01. Unknown... 01:16
02. ...Presence 03:59
03. Drown in Your Misery 04:42
04. Eternal Punishment 03:48
05. Dawn 04:42
06. Human Obliteration 02:54

"Cue"
REM GENRE "Thrash Metal"
REM DATE 2014
REM DISCID 4A04FF06
REM COMMENT "ExactAudioCopy v1.1"
PERFORMER "Thrash Bombz"
TITLE "Dawn"
FILE "Thrash Bombz - Dawn.flac" WAVE
TRACK 01 AUDIO
TITLE "Unknown..."
PERFORMER "Thrash Bombz"
FLAGS DCP
INDEX 01 00:00:00
TRACK 02 AUDIO
TITLE "...Presence"
PERFORMER "Thrash Bombz"
FLAGS DCP
INDEX 01 01:15:74
TRACK 03 AUDIO
TITLE "Drown in Your Misery"
PERFORMER "Thrash Bombz"
FLAGS DCP
INDEX 01 05:14:74
TRACK 04 AUDIO
TITLE "Eternal Punishment"
PERFORMER "Thrash Bombz"
FLAGS DCP
INDEX 01 09:56:48
TRACK 05 AUDIO
TITLE "Dawn"
PERFORMER "Thrash Bombz"
FLAGS DCP
INDEX 01 13:44:46
TRACK 06 AUDIO
TITLE "Human Obliteration"
PERFORMER "Thrash Bombz"
FLAGS DCP
INDEX 01 18:26:39

"Log"
Exact Audio Copy V1.1 from 23. June 2015

Отчёт EAC об извлечении, выполненном 4. апреля 2016, 10:25

Thrash Bombz / Dawn

Дисковод: HL-DT-STDVDRAM GTA0N Adapter: 1 ID: 0

Режим чтения : Достоверность
Использование точного потока : Да
Отключение кэша аудио : Да
Использование указателей C2 : Нет

Коррекция смещения при чтении : 102
Способность читать области Lead-in и Lead-out : Нет
Заполнение пропущенных сэмплов тишиной : Да
Удаление блоков с тишиной в начале и конце : Нет
При вычислениях CRC использовались нулевые сэмплы : Да
Интерфейс : Встроенный Win32-интерфейс для Win NT/2000

Выходной формат : Пользовательский кодировщик
Выбранный битрейт : 768 kBit/s
Качество : Высокий
Добавление ID3-тега : Нет
Утилита сжатия : C:\Program Files (x86)\Exact Audio Copy\FLAC\FLAC.EXE
Дополнительные параметры : -6 -V -T "ARTIST=%artist%" -T "TITLE=%title%" -T "ALBUM=%albumtitle%" -T "DATE=%year%" -T "TRACKNUMBER=%tracknr%" -T "GENRE=%genre%" -T "COMMENT=%comment%" -T "BAND=%albuminterpret%" -T "ALBUMARTIST=%albuminterpret%" -T "COMPOSER=%composer%" %haslyrics%--tag-from-file=LYRICS="%lyricsfile%"%haslyrics% -T "DISCNUMBER=%cdnumber%" -T "TOTALDISCS=%totalcds%" -T "TOTALTRACKS=%numtracks%" %hascover%--picture="%coverfile%"%hascover% %source% -o %dest%


TOC извлечённого CD

Трек | Старт | Длительность | Начальный сектор | Конечный сектор
---------------------------------------------------------------------
1 | 0:00.00 | 1:15.74 | 0 | 5698
2 | 1:15.74 | 3:59.00 | 5699 | 23623
3 | 5:14.74 | 4:41.49 | 23624 | 44747
4 | 9:56.48 | 3:47.73 | 44748 | 61845
5 | 13:44.46 | 4:41.68 | 61846 | 82988
6 | 18:26.39 | 2:53.03 | 82989 | 95966


Характеристики диапазона извлечения и сообщения об ошибках

Выбранный диапазон

Имя файла C:\Users\магазин\Music\Thrash Bombz - Dawn.wav

Пиковый уровень 100.0 %
Скорость извлечения 3.2 X
Качество диапазона 99.9 %
CRC копии DA6C912E
Копирование... OK

Ошибок не произошло


AccurateRip: сводка

Трек 1 отсутствует в базе данных
Трек 2 отсутствует в базе данных
Трек 3 отсутствует в базе данных
Трек 4 отсутствует в базе данных
Трек 5 отсутствует в базе данных
Трек 6 отсутствует в базе данных

Ни одного трека нет в базе AccurateRip

Конец отчёта

---- CUETools DB Plugin V2.1.6

[CTDB TOCID: XOPd1MdJKTiZufVZ9uon8fa5g0w-] found
Submit result: already submitted
Track | CTDB Status
1 | (2/2) Accurately ripped
2 | (2/2) Accurately ripped
3 | (2/2) Accurately ripped
4 | (2/2) Accurately ripped
5 | (2/2) Accurately ripped
6 | (2/2) Accurately ripped


Dawn


Last edited by thorbeorn on 04 Apr 2016, edited 1 time in total.

Top
 Profile  
 
 
PostPosted: 04 Apr 2016 
Генеральный thrasher
User avatar
Joined: 03 Oct 2008
Posts: 3710
Lоcаtion: Ханты-Мансийский АО
Age: 44
Name: Сергей
Просьба пока не качать.В быстром режиме рипнул.Сейчас в достоверном переделаю.


Top
 Profile  
 
 
PostPosted: 04 Apr 2016 
Генеральный thrasher
User avatar
Joined: 03 Oct 2008
Posts: 3710
Lоcаtion: Ханты-Мансийский АО
Age: 44
Name: Сергей
Переделал... :meloman:


Top
 Profile  
 
 
PostPosted: 04 Apr 2016 
консэрваторъ
User avatar
Joined: 11 Aug 2007
Posts: 16972
Lоcаtion: Псков
Age: 45
Name: Сергей
Преогромнейшая благодарность тебе, Серёга!!! Группой проникся весьма по итогам!.. Сегодня этот великолепный цэдэ к прослушиванию в стеновом режиме!.. :lob: :lob:

_________________
THRASH 'EM ALL


Top
 Profile E-mail  
 
 
PostPosted: 04 Apr 2016 
Alive Again
User avatar
Joined: 17 Dec 2008
Posts: 4747
Lоcаtion: Курск Воронеж Оскол
Age: 44
Name: Дмитрий
:thanx: Серёг!


Top
 Profile E-mail  
 
 
PostPosted: 04 Apr 2016 
Генеральный thrasher
User avatar
Joined: 03 Oct 2008
Posts: 3710
Lоcаtion: Ханты-Мансийский АО
Age: 44
Name: Сергей
Да.Миник на мой взгляд очень хорош!


Top
 Profile  
 
 
PostPosted: 04 Apr 2016 
Alive Again
User avatar
Joined: 17 Dec 2008
Posts: 4747
Lоcаtion: Курск Воронеж Оскол
Age: 44
Name: Дмитрий
:thanx:
Название нескромное :nea:

А обложка :crazy: :true:
:thanx: Серёг!


Top
 Profile E-mail  
 
 
PostPosted: 04 Apr 2016 
Хиппей (support team)
User avatar
Joined: 30 Jul 2007
Posts: 113079
Lоcаtion: Киев (Kyiv, UA)
Age: 46
Name: Andrey
:thanx:

mirror: iFolder l Narod l M-Cloud

_________________


Top
 Profile E-mail  
 
 
PostPosted: 04 Apr 2016 
Хиппей (support team)
User avatar
Joined: 30 Jul 2007
Posts: 113079
Lоcаtion: Киев (Kyiv, UA)
Age: 46
Name: Andrey
:thanx:
Название нескромное :nea:

А обложка :crazy: :true:
:thanx: Серёг!

Хм, на обложку только посмотрел =) :crazy:

_________________


Top
 Profile E-mail  
 
 
PostPosted: 04 Apr 2016 
Хиппей (support team)
User avatar
Joined: 30 Jul 2007
Posts: 113079
Lоcаtion: Киев (Kyiv, UA)
Age: 46
Name: Andrey
Ура! :lob: :lob: :lob:
Серёга. спасибо, ещё один хоть и мини, шо шедевр в коллекцию трэша :thanx:
Разнообразнейший забойный трэшак (здесь слышны и классические Сепуртура и Содом-Креатор, и Антракс с Металликой), звучащий при всём колорите очень гармонично, хитово, мощно и весело :true: :true: :true:

9+/10

_________________


Top
 Profile E-mail  
 
 
PostPosted: 04 Apr 2016 
Генеральный thrasher
User avatar
Joined: 03 Oct 2008
Posts: 3710
Lоcаtion: Ханты-Мансийский АО
Age: 44
Name: Сергей
Не думал я,Саныч,что тебе понравится!!


Top
 Profile  
 
Display posts from previous:  Sort by  
Post new topic Reply to topic  [ 52 posts ]  Go to page 1, 2, 3  Next

All times are UTC + 3 hours


Who is online

Users browsing this forum: No registered users and 3 guests


You cannot post new topics in this forum
You cannot reply to topics in this forum
You cannot edit your posts in this forum
You cannot delete your posts in this forum
You cannot post attachments in this forum

Search for:
Яндекс.Метрика
Powered by phpBB © 2000, 2002, 2005, 2007 phpBB Group