\m/ 80's metal \m/

Информационно-аналитический форум "80 см пыли" (In Search We Trust) "У нас никто никуда не спешит"
Me For You - http://me-4u.com
It is currently 20 Apr 2019

All times are UTC + 3 hours

Spoiler
Chat - temporary registration for foreign users (please leave your application here)





Forum rules


Уважаемые пользователи ресурса, друзья, коллеги и гости нашего форума. Данный раздел конференции создан с целью рафинации, и посвящён такому стилевому направлению в музыке, как Thrash Metal во всех его проявлениях и ипостасях, а иногда и переходящему на пограничные стили Speed, Power, Groove, Crossover, MDM и т.п.
Главное правило здесь одно: Одна группа – одна тема! Всё остальное созвучно основным нормам поведения на конференции.
Шаблон оформления тем в этом подфоруме должен быть основан на данных сайта www.metal-archives.com и выглядеть следующим образом:

Группа (Страна) - Стилевые рамки - дискография
Slayer (USA) - Thrash Metal - дискография


В теме допустимо размещение всей информации касающейся данного коллектива: анонсы любых альбомов в любых форматах, запросы любых релизов коллектива (кроме релизов текущего и прошлого годов), обсуждения, обзоры, а в остальном всё как обычно. Уважаем друг друга, не грубим, соблюдаем нормы поведения на конференции, оформляем анонсы и запросы красиво и информативно, что бы модераторы не посчитали их троллингом, и не отправили куда положено, выписав Вам предупреждение или ещё что похуже… Прежде чем что-то запросить или запостить, пользуемся поиском! Пользуемся поиском! ПОЛЬЗУЕМСЯ ПОИСКОМ!!! Так слышно меня?.. :pardon:
Интересного, конструктивного и креативного общения! ;)

Image



Post new topic Reply to topic  [ 28 posts ]  Go to page 1, 2  Next
Author Message
 
PostPosted: 23 Mar 2016 
Генеральный thrasher
User avatar
Joined: 03 Oct 2008
Posts: 3695
Lоcаtion: Ханты-Мансийский АО
Age: 44
Name: Сергей
Image

Year:2008
Style:Thrash Metal
Country:U.K.
Archive:Flac+Cue+Log+Scans
Size:304Mb
Source:my CD
Label:Witches Brew

Line-Up:
Calum Henderson - guitars
Jamie Bremaneson - drums
Stephen Matulevicze - vocals
Greg Corlett - guitars
Keith Henderson - bass

Tracklist:
01. Murder City 05:21
02. Sectioned 05:22
03. False Flag 03:43
04. Global Hangover 06:43
05. Downhill Without Brakes 05:08
06. Intervention 04:00
07. Thrash Island 05:06
08. Kill the Gestapo 05:03

"Cue"
REM GENRE "Thrash Metal"
REM DATE 2008
REM DISCID 64097708
REM COMMENT "ExactAudioCopy v1.1"
PERFORMER "Amok"
TITLE "Downhill Without Brakes"
FILE "Amok - Downhill Without Brakes.flac" WAVE
TRACK 01 AUDIO
TITLE "Murder City"
PERFORMER "Amok"
INDEX 01 00:00:00
TRACK 02 AUDIO
TITLE "Sectioned"
PERFORMER "Amok"
INDEX 01 05:20:64
TRACK 03 AUDIO
TITLE "False Flag"
PERFORMER "Amok"
INDEX 01 10:42:62
TRACK 04 AUDIO
TITLE "Global Hangover"
PERFORMER "Amok"
INDEX 01 14:25:62
TRACK 05 AUDIO
TITLE "Downhill Without Brakes"
PERFORMER "Amok"
INDEX 01 21:08:52
TRACK 06 AUDIO
TITLE "Intervention"
PERFORMER "Amok"
INDEX 01 26:16:38
TRACK 07 AUDIO
TITLE "Thrash Island"
PERFORMER "Amok"
INDEX 01 30:15:72
TRACK 08 AUDIO
TITLE "Kill the Gestapo"
PERFORMER "Amok"
INDEX 01 35:21:03

"Log"
Exact Audio Copy V1.1 from 23. June 2015

Отчёт EAC об извлечении, выполненном 23. марта 2016, 12:35

Amok / Downhill Without Brakes

Дисковод: HL-DT-STDVDRAM GTA0N Adapter: 1 ID: 0

Режим чтения : Достоверность
Использование точного потока : Да
Отключение кэша аудио : Да
Использование указателей C2 : Нет

Коррекция смещения при чтении : 102
Способность читать области Lead-in и Lead-out : Нет
Заполнение пропущенных сэмплов тишиной : Да
Удаление блоков с тишиной в начале и конце : Нет
При вычислениях CRC использовались нулевые сэмплы : Да
Интерфейс : Встроенный Win32-интерфейс для Win NT/2000

Выходной формат : Пользовательский кодировщик
Выбранный битрейт : 768 kBit/s
Качество : Высокий
Добавление ID3-тега : Нет
Утилита сжатия : C:\Program Files (x86)\Exact Audio Copy\FLAC\FLAC.EXE
Дополнительные параметры : -6 -V -T "ARTIST=%artist%" -T "TITLE=%title%" -T "ALBUM=%albumtitle%" -T "DATE=%year%" -T "TRACKNUMBER=%tracknr%" -T "GENRE=%genre%" -T "COMMENT=%comment%" -T "BAND=%albuminterpret%" -T "ALBUMARTIST=%albuminterpret%" -T "COMPOSER=%composer%" %haslyrics%--tag-from-file=LYRICS="%lyricsfile%"%haslyrics% -T "DISCNUMBER=%cdnumber%" -T "TOTALDISCS=%totalcds%" -T "TOTALTRACKS=%numtracks%" %hascover%--picture="%coverfile%"%hascover% %source% -o %dest%


TOC извлечённого CD

Трек | Старт | Длительность | Начальный сектор | Конечный сектор
---------------------------------------------------------------------
1 | 0:00.00 | 5:20.64 | 0 | 24063
2 | 5:20.64 | 5:21.73 | 24064 | 48211
3 | 10:42.62 | 3:43.00 | 48212 | 64936
4 | 14:25.62 | 6:42.65 | 64937 | 95151
5 | 21:08.52 | 5:07.61 | 95152 | 118237
6 | 26:16.38 | 3:59.34 | 118238 | 136196
7 | 30:15.72 | 5:05.06 | 136197 | 159077
8 | 35:21.03 | 5:02.05 | 159078 | 181732


Характеристики диапазона извлечения и сообщения об ошибках

Выбранный диапазон

Имя файла C:\Users\магазин\Music\Amok - Downhill Without Brakes.wav

Пиковый уровень 100.0 %
Скорость извлечения 3.8 X
Качество диапазона 100.0 %
CRC копии 8A439DB0
Копирование... OK

Ошибок не произошло


AccurateRip: сводка

Трек 1 : извлечено точно (доверие 1) [C88CA9CD] (AR v1)
Трек 2 : извлечено точно (доверие 1) [CB1D9FA1] (AR v1)
Трек 3 : извлечено точно (доверие 1) [8AAF1B46] (AR v1)
Трек 4 : извлечено точно (доверие 1) [058DE3A3] (AR v1)
Трек 5 : извлечено точно (доверие 1) [5A80862C] (AR v1)
Трек 6 : извлечено точно (доверие 1) [8FFEE0AB] (AR v1)
Трек 7 : извлечено точно (доверие 1) [21D44A51] (AR v1)
Трек 8 : извлечено точно (доверие 1) [11988723] (AR v1)

Все треки извлечены точно

Конец отчёта

---- CUETools DB Plugin V2.1.6

[CTDB TOCID: EWb86cygvpkoSj9tGn3IKmBJXWE-] disk not present in database
Submit result: EWb86cygvpkoSj9tGn3IKmBJXWE- has been uploaded


Downhill Without Brakes

Image

Year:2013
Style:Thrash Metal
Country:U.K.
Archive:Flac+Cue+Log+Scans
Size:440Mb
Source:my CD
Label:Witches Brew

Tracklist:
01. 1885 01:38
02. Somewhere In The West 05:29
03. No Faith 04:38
04. Creature Of Habit 07:00
05. Lawbreakers 04:32
06. Uprise 07:28
07. Cover Your Tracks 06:03
08. Sixty-Eight 06:11
09. Make Time To Kill Time 04:08
10. Lost Generation 06:24

"Cue"
REM GENRE "Thrash Metal"
REM DATE 2013
REM DISCID 860C850A
REM COMMENT "ExactAudioCopy v1.1"
PERFORMER "Amok"
TITLE "Somewhere In The West"
FILE "Amok - Somewhere In The West.flac" WAVE
TRACK 01 AUDIO
TITLE "1885"
PERFORMER "Amok"
INDEX 01 00:00:00
TRACK 02 AUDIO
TITLE "Somewhere In The West "
PERFORMER "Amok"
INDEX 01 01:37:10
TRACK 03 AUDIO
TITLE "No Faith"
PERFORMER "Amok"
INDEX 01 07:05:41
TRACK 04 AUDIO
TITLE "Creature Of Habit "
PERFORMER "Amok"
INDEX 01 11:43:01
TRACK 05 AUDIO
TITLE "Lawbreakers"
PERFORMER "Amok"
INDEX 01 18:42:62
TRACK 06 AUDIO
TITLE "Uprise"
PERFORMER "Amok"
INDEX 01 23:14:51
TRACK 07 AUDIO
TITLE "Cover Your Tracks"
PERFORMER "Amok"
INDEX 01 30:41:65
TRACK 08 AUDIO
TITLE "Sixty-Eight"
PERFORMER "Amok"
INDEX 01 36:44:00
TRACK 09 AUDIO
TITLE "Make Time To Kill Time"
PERFORMER "Amok"
INDEX 01 42:54:60
TRACK 10 AUDIO
TITLE "Lost Generation"
PERFORMER "Amok"
INDEX 01 47:02:33

"Log"
xact Audio Copy V1.1 from 23. June 2015

Отчёт EAC об извлечении, выполненном 23. марта 2016, 14:10

Amok / Somewhere In The West

Дисковод: HL-DT-STDVDRAM GTA0N Adapter: 1 ID: 0

Режим чтения : Достоверность
Использование точного потока : Да
Отключение кэша аудио : Да
Использование указателей C2 : Нет

Коррекция смещения при чтении : 102
Способность читать области Lead-in и Lead-out : Нет
Заполнение пропущенных сэмплов тишиной : Да
Удаление блоков с тишиной в начале и конце : Нет
При вычислениях CRC использовались нулевые сэмплы : Да
Интерфейс : Встроенный Win32-интерфейс для Win NT/2000

Выходной формат : Пользовательский кодировщик
Выбранный битрейт : 768 kBit/s
Качество : Высокий
Добавление ID3-тега : Нет
Утилита сжатия : C:\Program Files (x86)\Exact Audio Copy\FLAC\FLAC.EXE
Дополнительные параметры : -6 -V -T "ARTIST=%artist%" -T "TITLE=%title%" -T "ALBUM=%albumtitle%" -T "DATE=%year%" -T "TRACKNUMBER=%tracknr%" -T "GENRE=%genre%" -T "COMMENT=%comment%" -T "BAND=%albuminterpret%" -T "ALBUMARTIST=%albuminterpret%" -T "COMPOSER=%composer%" %haslyrics%--tag-from-file=LYRICS="%lyricsfile%"%haslyrics% -T "DISCNUMBER=%cdnumber%" -T "TOTALDISCS=%totalcds%" -T "TOTALTRACKS=%numtracks%" %hascover%--picture="%coverfile%"%hascover% %source% -o %dest%


TOC извлечённого CD

Трек | Старт | Длительность | Начальный сектор | Конечный сектор
---------------------------------------------------------------------
1 | 0:00.00 | 1:37.10 | 0 | 7284
2 | 1:37.10 | 5:28.31 | 7285 | 31915
3 | 7:05.41 | 4:37.35 | 31916 | 52725
4 | 11:43.01 | 6:59.61 | 52726 | 84211
5 | 18:42.62 | 4:31.64 | 84212 | 104600
6 | 23:14.51 | 7:27.14 | 104601 | 138139
7 | 30:41.65 | 6:02.10 | 138140 | 165299
8 | 36:44.00 | 6:10.60 | 165300 | 193109
9 | 42:54.60 | 4:07.48 | 193110 | 211682
10 | 47:02.33 | 6:23.31 | 211683 | 240438


Характеристики диапазона извлечения и сообщения об ошибках

Выбранный диапазон

Имя файла C:\Users\магазин\Music\Amok - Somewhere In The West.wav

Пиковый уровень 100.0 %
Скорость извлечения 4.1 X
Качество диапазона 100.0 %
CRC копии 2382958C
Копирование... OK

Ошибок не произошло


AccurateRip: сводка

Трек 1 отсутствует в базе данных
Трек 2 отсутствует в базе данных
Трек 3 отсутствует в базе данных
Трек 4 отсутствует в базе данных
Трек 5 отсутствует в базе данных
Трек 6 отсутствует в базе данных
Трек 7 отсутствует в базе данных
Трек 8 отсутствует в базе данных
Трек 9 отсутствует в базе данных
Трек 10 отсутствует в базе данных

Ни одного трека нет в базе AccurateRip

Конец отчёта

---- CUETools DB Plugin V2.1.6

[CTDB TOCID: 60fxFiAABDec.hgctjF0vOoJ2.8-] found
Submit result: 60fxFiAABDec.hgctjF0vOoJ2.8- has been confirmed
Track | CTDB Status
1 | (1/1) Accurately ripped
2 | (1/1) Accurately ripped
3 | (1/1) Accurately ripped
4 | (1/1) Accurately ripped
5 | (1/1) Accurately ripped
6 | (1/1) Accurately ripped
7 | (1/1) Accurately ripped
8 | (1/1) Accurately ripped
9 | (1/1) Accurately ripped
10 | (1/1) Accurately ripped


Somewhere In The West


Top
 Profile  
 
 
PostPosted: 23 Mar 2016 
Прокъмитолист
User avatar
Joined: 12 Aug 2007
Posts: 6545
Lоcаtion: Санктъ-Петербуркъ
Age: 51
Name: Олекъ
2008-й в своих закромах обнаружил, а вот 2013-й надо бы качнуть. спасибо, Серёга :thanx:

_________________
прокъметол - это музыко, от которово есть прок (ы)


Top
 Profile  
 
 
PostPosted: 23 Mar 2016 
Генеральный thrasher
User avatar
Joined: 03 Oct 2008
Posts: 3695
Lоcаtion: Ханты-Мансийский АО
Age: 44
Name: Сергей
2008-й в своих закромах обнаружил, а вот 2013-й надо бы качнуть. спасибо, Серёга :thanx:


Я ж говорю,Олег,закрома мои обширны.Пока я в отпуске,можно маленько лосями заняться. :lob:


Top
 Profile  
 
 
PostPosted: 23 Mar 2016 
Хиппей (support team)
User avatar
Joined: 30 Jul 2007
Posts: 111729
Lоcаtion: Киев (Kyiv, UA)
Age: 45
Name: Andrey
Серёг, спасибо :thanx:

Вроде ещё этих Амоков британских не слушал.

На первой облоге уже сразу и моментально понравился человег-утконос :kro:

_________________


Top
 Profile E-mail  
 
 
PostPosted: 23 Mar 2016 
Генеральный thrasher
User avatar
Joined: 03 Oct 2008
Posts: 3695
Lоcаtion: Ханты-Мансийский АО
Age: 44
Name: Сергей
Скажу честно,Андрюх,полностью в эту банду не вьехал...Но купил дешево! :benya: Продюсерская работа на релизах Witches Brew
хромает.


Top
 Profile  
 
 
PostPosted: 24 Mar 2016 
Хиппей (support team)
User avatar
Joined: 30 Jul 2007
Posts: 111729
Lоcаtion: Киев (Kyiv, UA)
Age: 45
Name: Andrey
thorbeorn wrote:
Downhill Without Brakes


mirror: iFolder l Narod l M-Cloud

Ух-ты :shok:
Начал слушать - так это ж клоны Антракса классического (87-90) :lob: :lob: :lob:

_________________


Top
 Profile E-mail  
 
 
PostPosted: 24 Mar 2016 
Хиппей (support team)
User avatar
Joined: 30 Jul 2007
Posts: 111729
Lоcаtion: Киев (Kyiv, UA)
Age: 45
Name: Andrey
Да меня порвал этот альбом в уматень, хотя, вроде ж я клонов и не люблю :crazy: :true: :true: :true: :kro: :lob: :lob: :lob:

9/10

Как минимум - альбом недели и месяца :meloman:
И конечно же, включу его в альбом десятилетия :meloman:

Серёга, спасибо за очередной алмазный шедевр :true: :thanx: :thanx: :thanx:

_________________


Top
 Profile E-mail  
 
 
PostPosted: 24 Mar 2016 
Генеральный thrasher
User avatar
Joined: 03 Oct 2008
Posts: 3695
Lоcаtion: Ханты-Мансийский АО
Age: 44
Name: Сергей
Если честно,не думал я,что тебе понравится,Андрей!Интересно мнение Серёги splatty...


Top
 Profile  
 
 
PostPosted: 24 Mar 2016 
консэрваторъ
Joined: 11 Aug 2007
Posts: 16815
Lоcаtion: Псков
Age: 45
Name: Сергей
:shok: Вы знали, знали, что я заинтересуюсь... Слушаю 13-ый... Пока двояко... то рифаки крутейшие, то напевы непонятные... В вокале есть немного Нуклеара который Ассаулт... Вот хотя бы начало Creature of Habit, сначала круть, потом непонятный припев... Не знаю... Наверное надо качать и правильно слушать...

_________________
THRASH 'EM ALL


Top
 Profile E-mail  
 
 
PostPosted: 24 Mar 2016 
консэрваторъ
Joined: 11 Aug 2007
Posts: 16815
Lоcаtion: Псков
Age: 45
Name: Сергей
Песни по 7 по 6 минут... Ну круто, куле!.. :meloman: Надо брать, спасибо Серёга!.. :lob:
Ититькин дух!.. :dash: :arrov: http://www.metal-archives.com/bands/Amok/50468 куча демок...
Альбом пишуть... интересно... :arrov: https://www.facebook.com/amokscotland/p ... 3180343582

_________________
THRASH 'EM ALL


Top
 Profile E-mail  
 
 
PostPosted: 24 Mar 2016 
Доктор энтомологии
User avatar
Joined: 22 Jan 2009
Posts: 9694
Lоcаtion: Даугавпилс
Age: 44
Name: Алексей
Да, что-то есть от нуклеаров, ток чуть поневнятнее, и от антрахов, но чуть менее эмоционально. Послушать можно :meloman:
http://amokthrash.bandcamp.com/album/do ... out-brakes


Top
 Profile  
 
 
PostPosted: 24 Mar 2016 
Хиппей (support team)
User avatar
Joined: 30 Jul 2007
Posts: 111729
Lоcаtion: Киев (Kyiv, UA)
Age: 45
Name: Andrey
Кстати, я бы за такое по морде бы бил носовым платошком... :fingal:
Quote:
Country of origin:
United Kingdom
Location:
Glasgow, Scotland

_________________


Top
 Profile E-mail  
 
 
PostPosted: 24 Mar 2016 
Хиппей (support team)
User avatar
Joined: 30 Jul 2007
Posts: 111729
Lоcаtion: Киев (Kyiv, UA)
Age: 45
Name: Andrey
splatty wrote:
В вокале есть немного Нуклеара который Ассаулт...

Entomologist wrote:
Да, что-то есть от нуклеаров, ток чуть поневнятнее

Ага, спасибо, напомнили :thanx:
А то не мог вспомнить, кого мне кроме первой песни (там чистейший Беладонна) эта манера пения ещё напоминает :meloman:

_________________


Top
 Profile E-mail  
 
 
PostPosted: 24 Mar 2016 
Хиппей (support team)
User avatar
Joined: 30 Jul 2007
Posts: 111729
Lоcаtion: Киев (Kyiv, UA)
Age: 45
Name: Andrey
thorbeorn wrote:
Somewhere In The West


mirror: iFolder l Narod l M-Cloud

Начал слушать... Ничего хорошего уже не ожидая от группы =)...

_________________


Top
 Profile E-mail  
 
 
PostPosted: 24 Mar 2016 
Хиппей (support team)
User avatar
Joined: 30 Jul 2007
Posts: 111729
Lоcаtion: Киев (Kyiv, UA)
Age: 45
Name: Andrey
Обана-2.
А вот и хрен =)
Как минимум вокал ещё более потрушнел :lob: :lob: :lob:
Но вот только звук... :fingal:

_________________


Top
 Profile E-mail  
 
 
PostPosted: 24 Mar 2016 
Хиппей (support team)
User avatar
Joined: 30 Jul 2007
Posts: 111729
Lоcаtion: Киев (Kyiv, UA)
Age: 45
Name: Andrey
Цуко, эта сраная заклиппингованность записи пытается порвать мой олдскульный тракт :esel: :esel: :esel:

_________________


Top
 Profile E-mail  
 
 
PostPosted: 24 Mar 2016 
Хиппей (support team)
User avatar
Joined: 30 Jul 2007
Posts: 111729
Lоcаtion: Киев (Kyiv, UA)
Age: 45
Name: Andrey
thorbeorn wrote:
Продюсерская работа на релизах Witches Brew
хромает.

Кто эта ваще такие??? И какое право они имели подходить на километр к данной работе? :cry:

_________________


Top
 Profile E-mail  
 
 
PostPosted: 24 Mar 2016 
Генеральный thrasher
User avatar
Joined: 03 Oct 2008
Posts: 3695
Lоcаtion: Ханты-Мансийский АО
Age: 44
Name: Сергей
Witches Brew выпустила кучу альбомов,Андрюх. Не знал про такой лейбл?


Top
 Profile  
 
 
PostPosted: 24 Mar 2016 
Хиппей (support team)
User avatar
Joined: 30 Jul 2007
Posts: 111729
Lоcаtion: Киев (Kyiv, UA)
Age: 45
Name: Andrey
(В лесу раздавался топор дровосека.) :pechkin:

Болит голова и ухи трясутся
Немного шалит захудалый живот
Зачем же так мучить сим звуком ректальным
Ведь этот альбом всё так же хорош

8/10

Ну чего? Пришлось слушать альбом почти на минимальной громкости, чтобы не порвать ухи.
Сейчас пшол уж второй круг (не Михаил), релиз нравится, но не так, как дебютный. Да и явно гнилой саунд этому "поспособствовал" :esel:

_________________


Top
 Profile E-mail  
 
 
PostPosted: 24 Mar 2016 
Хиппей (support team)
User avatar
Joined: 30 Jul 2007
Posts: 111729
Lоcаtion: Киев (Kyiv, UA)
Age: 45
Name: Andrey
Witches Brew выпустила кучу альбомов,Андрюх. Не знал про такой лейбл?

Откуда?
Я ж не покупаю диски или пластинки-кассеты. А слушая музыку картинки вообще редко разглядываю, хоть с ними и звучат альбомы лучше.
Теперь буду знать, теперь я их подостаю на Морлдобуке и в других местах. Таких тварей нужно до рождения топить в унитазах.

_________________


Top
 Profile E-mail  
 
Display posts from previous:  Sort by  
Post new topic Reply to topic  [ 28 posts ]  Go to page 1, 2  Next

All times are UTC + 3 hours


Who is online

Users browsing this forum: No registered users and 4 guests


You cannot post new topics in this forum
You cannot reply to topics in this forum
You cannot edit your posts in this forum
You cannot delete your posts in this forum
You cannot post attachments in this forum

Search for:
Яндекс.Метрика
Powered by phpBB © 2000, 2002, 2005, 2007 phpBB Group