\m/ 80's metal \m/

Информационно-аналитический форум "80 см пыли" (In Search We Trust) "У нас никто никуда не спешит"
Me For You - http://me-4u.com
It is currently 24 Jul 2019

All times are UTC + 3 hours

Spoiler
Chat - temporary registration for foreign users (please leave your application here)





Forum rules


Уважаемые пользователи ресурса, друзья, коллеги и гости нашего форума. Данный раздел конференции создан с целью рафинации, и посвящён такому стилевому направлению в музыке, как Thrash Metal во всех его проявлениях и ипостасях, а иногда и переходящему на пограничные стили Speed, Power, Groove, Crossover, MDM и т.п.
Главное правило здесь одно: Одна группа – одна тема! Всё остальное созвучно основным нормам поведения на конференции.
Шаблон оформления тем в этом подфоруме должен быть основан на данных сайта www.metal-archives.com и выглядеть следующим образом:

Группа (Страна) - Стилевые рамки - дискография
Slayer (USA) - Thrash Metal - дискография


В теме допустимо размещение всей информации касающейся данного коллектива: анонсы любых альбомов в любых форматах, запросы любых релизов коллектива (кроме релизов текущего и прошлого годов), обсуждения, обзоры, а в остальном всё как обычно. Уважаем друг друга, не грубим, соблюдаем нормы поведения на конференции, оформляем анонсы и запросы красиво и информативно, что бы модераторы не посчитали их троллингом, и не отправили куда положено, выписав Вам предупреждение или ещё что похуже… Прежде чем что-то запросить или запостить, пользуемся поиском! Пользуемся поиском! ПОЛЬЗУЕМСЯ ПОИСКОМ!!! Так слышно меня?.. :pardon:
Интересного, конструктивного и креативного общения! ;)

Image



Post new topic Reply to topic  [ 56 posts ]  Go to page 1, 2, 3  Next
Author Message
 
PostPosted: 11 Jan 2016 
Генеральный thrasher
User avatar
Joined: 03 Oct 2008
Posts: 3714
Lоcаtion: Ханты-Мансийский АО
Age: 44
Name: Сергей
Польский Exodus...Почему?Послушайте сами!

Soul Collector - Thrashmageddon 2014

Image

Year:2014
Style:Thrash Metal
Country:Poland
Archive:Flac+Cue+Log+Scans
Size:521Mb
Source:my CD
Label:Defense Records

Tracklist:
01. Army Of The Dead 05:06
02. Cursed Land 05:40
03. Thrashmageddon 06:09
04. Bless My Gun 07:51
05. Lord Of Fire 06:09
06. 2000 Years In Lies 04:48
07. Horrorhouse 08:18
08. I Saw... 05:32
09. The Stoneface 05:17
10. One Day In The Front 06:16
11. Pure Fucking Evil 04:24

"Cue"
REM GENRE "Thrash Metal"
REM DATE 2014
REM DISCID 980F550B
REM COMMENT "ExactAudioCopy v1.1"
PERFORMER "Soul Collector"
TITLE "Thrashmageddon"
FILE "Soul Collector - Thrashmageddon.flac" WAVE
TRACK 01 AUDIO
TITLE "Army Of The Dead "
PERFORMER "Soul Collector"
FLAGS DCP
INDEX 01 00:00:00
TRACK 02 AUDIO
TITLE "Cursed Land"
PERFORMER "Soul Collector"
FLAGS DCP
INDEX 01 05:05:23
TRACK 03 AUDIO
TITLE "Thrashmageddon"
PERFORMER "Soul Collector"
FLAGS DCP
INDEX 01 10:44:57
TRACK 04 AUDIO
TITLE "Bless My Gun"
PERFORMER "Soul Collector"
FLAGS DCP
INDEX 01 16:53:42
TRACK 05 AUDIO
TITLE "Lord Of Fire "
PERFORMER "Soul Collector"
FLAGS DCP
INDEX 01 24:43:62
TRACK 06 AUDIO
TITLE "2000 Years in Lies"
PERFORMER "Soul Collector"
FLAGS DCP
INDEX 01 30:52:37
TRACK 07 AUDIO
TITLE "Horrorhouse"
PERFORMER "Soul Collector"
FLAGS DCP
INDEX 01 35:40:34
TRACK 08 AUDIO
TITLE "I Saw..."
PERFORMER "Soul Collector"
FLAGS DCP
INDEX 01 43:58:30
TRACK 09 AUDIO
TITLE "The Stoneface"
PERFORMER "Soul Collector"
FLAGS DCP
INDEX 01 49:30:13
TRACK 10 AUDIO
TITLE "One Day In The Front"
PERFORMER "Soul Collector"
FLAGS DCP
INDEX 01 54:46:49
TRACK 11 AUDIO
TITLE "Pure Fucking Evil"
PERFORMER "Soul Collector"
FLAGS DCP
INDEX 01 61:02:06

"Log"
Exact Audio Copy V1.1 from 23. June 2015

Отчёт EAC об извлечении, выполненном 3. января 2016, 11:27

Soul Collector / Thrashmageddon

Дисковод: HL-DT-STDVDRAM GTA0N Adapter: 1 ID: 0

Режим чтения : Достоверность
Использование точного потока : Да
Отключение кэша аудио : Да
Использование указателей C2 : Нет

Коррекция смещения при чтении : 102
Способность читать области Lead-in и Lead-out : Нет
Заполнение пропущенных сэмплов тишиной : Да
Удаление блоков с тишиной в начале и конце : Нет
При вычислениях CRC использовались нулевые сэмплы : Да
Интерфейс : Встроенный Win32-интерфейс для Win NT/2000

Выходной формат : Пользовательский кодировщик
Выбранный битрейт : 768 kBit/s
Качество : Высокий
Добавление ID3-тега : Нет
Утилита сжатия : C:\Program Files (x86)\Exact Audio Copy\FLAC\FLAC.EXE
Дополнительные параметры : -6 -V -T "ARTIST=%artist%" -T "TITLE=%title%" -T "ALBUM=%albumtitle%" -T "DATE=%year%" -T "TRACKNUMBER=%tracknr%" -T "GENRE=%genre%" -T "COMMENT=%comment%" -T "BAND=%albuminterpret%" -T "ALBUMARTIST=%albuminterpret%" -T "COMPOSER=%composer%" %haslyrics%--tag-from-file=LYRICS="%lyricsfile%"%haslyrics% -T "DISCNUMBER=%cdnumber%" -T "TOTALDISCS=%totalcds%" -T "TOTALTRACKS=%numtracks%" %hascover%--picture="%coverfile%"%hascover% %source% -o %dest%


TOC извлечённого CD

Трек | Старт | Длительность | Начальный сектор | Конечный сектор
---------------------------------------------------------------------
1 | 0:00.00 | 5:05.23 | 0 | 22897
2 | 5:05.23 | 5:39.34 | 22898 | 48356
3 | 10:44.57 | 6:08.60 | 48357 | 76016
4 | 16:53.42 | 7:50.20 | 76017 | 111286
5 | 24:43.62 | 6:08.50 | 111287 | 138936
6 | 30:52.37 | 4:47.72 | 138937 | 160533
7 | 35:40.34 | 8:17.71 | 160534 | 197879
8 | 43:58.30 | 5:31.58 | 197880 | 222762
9 | 49:30.13 | 5:16.36 | 222763 | 246498
10 | 54:46.49 | 6:15.32 | 246499 | 274655
11 | 61:02.06 | 4:23.46 | 274656 | 294426


Характеристики диапазона извлечения и сообщения об ошибках

Выбранный диапазон

Имя файла C:\Users\магазин\Music\Soul Collector - Thrashmageddon.wav

Пиковый уровень 100.0 %
Скорость извлечения 2.2 X
Качество диапазона 100.0 %
CRC копии 1FE0E906
Копирование... OK

Ошибок не произошло


AccurateRip: сводка

Трек 1 отсутствует в базе данных
Трек 2 отсутствует в базе данных
Трек 3 отсутствует в базе данных
Трек 4 отсутствует в базе данных
Трек 5 отсутствует в базе данных
Трек 6 отсутствует в базе данных
Трек 7 отсутствует в базе данных
Трек 8 отсутствует в базе данных
Трек 9 отсутствует в базе данных
Трек 10 отсутствует в базе данных
Трек 11 отсутствует в базе данных

Ни одного трека нет в базе AccurateRip

Конец отчёта

---- CUETools DB Plugin V2.1.6

[CTDB TOCID: Ope_xnh3III0_b6Qoup4VCfODl0-] found
Submit result: Ope_xnh3III0_b6Qoup4VCfODl0- has been confirmed
Track | CTDB Status
1 | (1/1) Accurately ripped
2 | (1/1) Accurately ripped
3 | (1/1) Accurately ripped
4 | (1/1) Accurately ripped
5 | (1/1) Accurately ripped
6 | (1/1) Accurately ripped
7 | (1/1) Accurately ripped
8 | (1/1) Accurately ripped
9 | (1/1) Accurately ripped
10 | (1/1) Accurately ripped
11 | (1/1) Accurately ripped


Thrashmageddon


Top
 Profile  
 
 
PostPosted: 11 Jan 2016 
Прокъмитолист
User avatar
Joined: 12 Aug 2007
Posts: 6579
Lоcаtion: Санктъ-Петербуркъ
Age: 51
Name: Олекъ
:thanx:

_________________
прокъметол - это музыко, от которово есть прок (ы)


Top
 Profile  
 
 
PostPosted: 23 May 2016 
Генеральный thrasher
User avatar
Joined: 03 Oct 2008
Posts: 3714
Lоcаtion: Ханты-Мансийский АО
Age: 44
Name: Сергей
По данному альбому коллеги могут что-нибудь сказать? Или никто не слушал?


Top
 Profile  
 
 
PostPosted: 23 May 2016 
Работнечег
User avatar
Joined: 28 Aug 2007
Posts: 5919
Lоcаtion: г. Москва
Age: 30
Name: Дима
Прослушал частично. Действительно Exodus напоминает, чуть менее злобно и модерново, нежели чем их последние альбомы, скорее такой микс из старого и позднего творчества Exodus. По прослушанным 5 песням понравилось, хоть и без фанатизма, спасибо! :thanx: :thanx:


Top
 Profile E-mail  
 
 
PostPosted: 24 May 2016 
Труъ
User avatar
Joined: 30 Aug 2007
Posts: 119
Lоcаtion: Москва
спасибо


Top
 Profile  
 
 
PostPosted: 24 May 2016 
Я набрал 1000 сообщений!
Joined: 09 Jul 2008
Posts: 2912
Age: 45
Name: Сергей
не понравилось, даже дослушивать не стал


Top
 Profile  
 
 
PostPosted: 30 Aug 2016 
консэрваторъ
User avatar
Joined: 11 Aug 2007
Posts: 17057
Lоcаtion: Псков
Age: 45
Name: Сергей
Хорошие идеи есть, но какжешь им ещё далеко до нормального звучания... :(

_________________
THRASH 'EM ALL


Top
 Profile E-mail  
 
 
PostPosted: 30 Aug 2016 
консэрваторъ
User avatar
Joined: 11 Aug 2007
Posts: 17057
Lоcаtion: Псков
Age: 45
Name: Сергей
В 2014 было... а счас вроде зазвучали... надо бы этот сплит целиком заслушать... :arrov: https://www.reverbnation.com/soulcollector/songs
Внезапно продуманное длинное интересное соло в первой песне... :oops:

_________________
THRASH 'EM ALL


Top
 Profile E-mail  
 
 
PostPosted: 30 Aug 2016 
Генеральный thrasher
User avatar
Joined: 03 Oct 2008
Posts: 3714
Lоcаtion: Ханты-Мансийский АО
Age: 44
Name: Сергей
Надо бы купить его


Top
 Profile  
 
 
PostPosted: 30 Aug 2016 
консэрваторъ
User avatar
Joined: 11 Aug 2007
Posts: 17057
Lоcаtion: Псков
Age: 45
Name: Сергей
Во втором треке наша хороводная!.. :lob: :arrov: http://www.soulcollector.pl/
Так то лучше... направление очень правильное!.. Там ещё третья длинючая какая-то... Серёг, если закупляешь, точно подсоберу их... ;)
А куплять так сразу спрашивать и про ипиху 10-ого... тож засада... пусть подарят в нагрузку... :oops:

_________________
THRASH 'EM ALL


Top
 Profile E-mail  
 
 
PostPosted: 30 Aug 2016 
Генеральный thrasher
User avatar
Joined: 03 Oct 2008
Posts: 3714
Lоcаtion: Ханты-Мансийский АО
Age: 44
Name: Сергей
Это ж поляки!Хрен чо они подарят!


Top
 Profile  
 
 
PostPosted: 30 Aug 2016 
консэрваторъ
User avatar
Joined: 11 Aug 2007
Posts: 17057
Lоcаtion: Псков
Age: 45
Name: Сергей
Ипиха ф320 вроде раздавалась... около 53 метров, но как-то тухло с ней... Спроси, Серёга, обязательно, если соберёшься... может уже и нет диска в циркуляции... как ни как уже 6 лет прошло...

_________________
THRASH 'EM ALL


Top
 Profile E-mail  
 
 
PostPosted: 30 Aug 2016 
Генеральный thrasher
User avatar
Joined: 03 Oct 2008
Posts: 3714
Lоcаtion: Ханты-Мансийский АО
Age: 44
Name: Сергей
Сплит на дискогсе продают за 8 евро.Плюс доставка


Top
 Profile  
 
 
PostPosted: 31 Aug 2016 
консэрваторъ
User avatar
Joined: 11 Aug 2007
Posts: 17057
Lоcаtion: Псков
Age: 45
Name: Сергей
А там по ссыли на картинке, если написать на майл музыкантам, 7 + шипинг...

_________________
THRASH 'EM ALL


Top
 Profile E-mail  
 
 
PostPosted: 31 Aug 2016 
Генеральный thrasher
User avatar
Joined: 03 Oct 2008
Posts: 3714
Lоcаtion: Ханты-Мансийский АО
Age: 44
Name: Сергей
Мне в любом случае надо сначала новую карту завести и привязать к paypal.Никак собраться не могу.Хоть и понимаю,что надо!


Top
 Profile  
 
 
PostPosted: 03 Sep 2016 
Генеральный thrasher
User avatar
Joined: 03 Oct 2008
Posts: 3714
Lоcаtion: Ханты-Мансийский АО
Age: 44
Name: Сергей
Заказал сплит в одном из наших дистро...


Top
 Profile  
 
 
PostPosted: 03 Sep 2016 
консэрваторъ
User avatar
Joined: 11 Aug 2007
Posts: 17057
Lоcаtion: Псков
Age: 45
Name: Сергей
:lob: :lob: Придётся собирать... проворчал старый дед и начал рубится седой лысиной об табуретку... :benya:
Серёга, спасибо большое, что ты есть!.. Кста, я сча всё же про ипиху узнаю, чего да как...

_________________
THRASH 'EM ALL


Top
 Profile E-mail  
 
 
PostPosted: 03 Sep 2016 
Генеральный thrasher
User avatar
Joined: 03 Oct 2008
Posts: 3714
Lоcаtion: Ханты-Мансийский АО
Age: 44
Name: Сергей
Узнай конечно.Но многого от поляков не ожидай,Серёг!Их менталитет от нашего ох как отличается!


Top
 Profile  
 
 
PostPosted: 03 Sep 2016 
консэрваторъ
User avatar
Joined: 11 Aug 2007
Posts: 17057
Lоcаtion: Псков
Age: 45
Name: Сергей
Дак я куплю, а диск тебе отправлю... в ознаменование ухода в отпуск наконец-таки... :true:

_________________
THRASH 'EM ALL


Top
 Profile E-mail  
 
 
PostPosted: 04 Sep 2016 
консэрваторъ
User avatar
Joined: 11 Aug 2007
Posts: 17057
Lоcаtion: Псков
Age: 45
Name: Сергей
Soul Collector wrote:
Hi!
Unfortunatelly we don' t have any copies any more:(
Cheers:D

Хреново, на ебаях тоже не видать... Чего делать будем?.. У кого есть поляки знакомые?.. Спрошу сколько было копий...

_________________
THRASH 'EM ALL


Top
 Profile E-mail  
 
Display posts from previous:  Sort by  
Post new topic Reply to topic  [ 56 posts ]  Go to page 1, 2, 3  Next

All times are UTC + 3 hours


Who is online

Users browsing this forum: No registered users and 4 guests


You cannot post new topics in this forum
You cannot reply to topics in this forum
You cannot edit your posts in this forum
You cannot delete your posts in this forum
You cannot post attachments in this forum

Search for:
Яндекс.Метрика
Powered by phpBB © 2000, 2002, 2005, 2007 phpBB Group