\m/ 80's metal \m/

Информационно-аналитический форум "80 см пыли" (In Search We Trust) "У нас никто никуда не спешит"
Me For You - http://me-4u.com
It is currently 21 Jul 2019

All times are UTC + 3 hours

Spoiler
Chat - temporary registration for foreign users (please leave your application here)





Forum rules


Уважаемые пользователи ресурса, друзья, коллеги и гости нашего форума. Данный раздел конференции создан с целью рафинации, и посвящён такому стилевому направлению в музыке, как Thrash Metal во всех его проявлениях и ипостасях, а иногда и переходящему на пограничные стили Speed, Power, Groove, Crossover, MDM и т.п.
Главное правило здесь одно: Одна группа – одна тема! Всё остальное созвучно основным нормам поведения на конференции.
Шаблон оформления тем в этом подфоруме должен быть основан на данных сайта www.metal-archives.com и выглядеть следующим образом:

Группа (Страна) - Стилевые рамки - дискография
Slayer (USA) - Thrash Metal - дискография


В теме допустимо размещение всей информации касающейся данного коллектива: анонсы любых альбомов в любых форматах, запросы любых релизов коллектива (кроме релизов текущего и прошлого годов), обсуждения, обзоры, а в остальном всё как обычно. Уважаем друг друга, не грубим, соблюдаем нормы поведения на конференции, оформляем анонсы и запросы красиво и информативно, что бы модераторы не посчитали их троллингом, и не отправили куда положено, выписав Вам предупреждение или ещё что похуже… Прежде чем что-то запросить или запостить, пользуемся поиском! Пользуемся поиском! ПОЛЬЗУЕМСЯ ПОИСКОМ!!! Так слышно меня?.. :pardon:
Интересного, конструктивного и креативного общения! ;)

Image



Post new topic Reply to topic  [ 4 posts ] 
Author Message
 
PostPosted: 07 Jul 2015 
Генеральный thrasher
User avatar
Joined: 03 Oct 2008
Posts: 3714
Lоcаtion: Ханты-Мансийский АО
Age: 44
Name: Сергей
Image

Year:2005 (2013 Re-Issue)
Style:Thrash Metal
Country:Brazil
Archive:Flac+Cue+Log+Scans
Size:568Mb
Source:my CD
Label:Metal Maximus Records
Catalog ID:MM002

Line-Up:
Diego Nogueira - bass
Dario Viola - vocals,guitars
Paulo Oliveira - drums
Felipe Nizuma - guitars

Tracklist:
01. Psychotic Minds 04:31
02. Nudity On T.V. 04:04
03. No More Apathy 03:34
04. Assassin 03:56
05. When Will They Fall 03:10
06. Beer & Mosh 04:02
07. ... And Then All My Hope Is Gone 04:36
08. Empty Words 03:36
09. Collapse Is Near 03:50
10. The Lament/I.M.F. 03:43
License To Thrash Demo (1998):
11. The Edge 03:52
12. Flash Of The Pain 05:36
13. Annihilation 04:08
Beer & Mosh Demo (2002):
14. Beer & Mosh 04:18
15. Nudity On T.V. 03:54
16. Flash Of The Pain 04:56
17. Face Your End 05:57

"Cue"
REM GENRE "Thrash Metal"
REM DATE 2013
REM DISCID 0510D711
REM COMMENT "ExactAudioCopy v0.99pb5"
PERFORMER "Blasthrash"
TITLE "No Traces Left Behind (Collector's Edition)"
FILE "Blasthrash - No Traces Left Behind (Collector's Edition).flac" WAVE
TRACK 01 AUDIO
TITLE "Psychotic Minds "
PERFORMER "Blasthrash"
INDEX 01 00:00:00
TRACK 02 AUDIO
TITLE "Nudity On T.V."
PERFORMER "Blasthrash"
INDEX 01 04:31:39
TRACK 03 AUDIO
TITLE "No More Apathy"
PERFORMER "Blasthrash"
INDEX 01 08:36:17
TRACK 04 AUDIO
TITLE "Assassin"
PERFORMER "Blasthrash"
INDEX 01 12:10:27
TRACK 05 AUDIO
TITLE "When Will They Fall"
PERFORMER "Blasthrash"
INDEX 01 16:06:44
TRACK 06 AUDIO
TITLE "Beer & Mosh"
PERFORMER "Blasthrash"
INDEX 01 19:17:00
TRACK 07 AUDIO
TITLE "... And Then All My Hope Is Gone"
PERFORMER "Blasthrash"
INDEX 01 23:19:47
TRACK 08 AUDIO
TITLE "Empty Words"
PERFORMER "Blasthrash"
INDEX 01 27:56:27
TRACK 09 AUDIO
TITLE "Collapse Is Near"
PERFORMER "Blasthrash"
INDEX 01 31:32:63
TRACK 10 AUDIO
TITLE "The Lament/I.M.F."
PERFORMER "Blasthrash"
INDEX 01 35:22:71
TRACK 11 AUDIO
TITLE "The Edge"
PERFORMER "Blasthrash"
INDEX 01 39:06:61
TRACK 12 AUDIO
TITLE "Flash Of The Pain"
PERFORMER "Blasthrash"
INDEX 01 42:59:48
TRACK 13 AUDIO
TITLE "Annihilation"
PERFORMER "Blasthrash"
INDEX 01 48:36:45
TRACK 14 AUDIO
TITLE "Beer & Mosh"
PERFORMER "Blasthrash"
INDEX 01 52:45:00
TRACK 15 AUDIO
TITLE "Nudity On T.V."
PERFORMER "Blasthrash"
INDEX 01 57:03:53
TRACK 16 AUDIO
TITLE "Flash Of the Pain"
PERFORMER "Blasthrash"
INDEX 01 60:58:01
TRACK 17 AUDIO
TITLE "Face Your End"
PERFORMER "Blasthrash"
INDEX 01 65:54:19

"Log"
Exact Audio Copy V0.99 prebeta 5 from 4. May 2009

Отчёт EAC об извлечении, выполненном 1. июля 2015, 14:09

Blasthrash / No Traces Left Behind (Collector's Edition)

Дисковод: MATSHITADVD-RAM UJ8A0AS Adapter: 0 ID: 1

Режим чтения : Достоверность
Использование точного потока : Да
Отключение кэша аудио : Да
Использование указателей C2 : Нет

Коррекция смещения при чтении : 102
Способность читать области Lead-in и Lead-out : Нет
Заполнение пропущенных сэмплов тишиной : Да
Удаление блоков с тишиной в начале и конце : Нет
При вычислениях CRC использовались нулевые сэмплы : Да
Интерфейс : Встроенный Win32-интерфейс для Win NT/2000

Выходной формат : Пользовательский кодировщик
Выбранный битрейт : 1024 kBit/s
Качество : Высокий
Добавление ID3-тэга : Нет
Утилита сжатия : C:\Program Files\Exact Audio Copy\FLAC\FLAC.EXE
Дополнительные параметры : -6 -V -T "ARTIST=%a" -T "TITLE=%t" -T "ALBUM=%g" -T "DATE=%y" -T "TRACKNUMBER=%n" -T "GENRE=%m" -T "COMMENT=%e" %s -o %d


TOC извлечённого CD

Трек | Старт | Длительность | Начальный сектор | Конечный сектор
---------------------------------------------------------------------
1 | 0:00.00 | 4:31.39 | 0 | 20363
2 | 4:31.39 | 4:04.53 | 20364 | 38716
3 | 8:36.17 | 3:34.10 | 38717 | 54776
4 | 12:10.27 | 3:56.17 | 54777 | 72493
5 | 16:06.44 | 3:10.31 | 72494 | 86774
6 | 19:17.00 | 4:02.47 | 86775 | 104971
7 | 23:19.47 | 4:36.55 | 104972 | 125726
8 | 27:56.27 | 3:36.36 | 125727 | 141962
9 | 31:32.63 | 3:50.08 | 141963 | 159220
10 | 35:22.71 | 3:43.65 | 159221 | 176010
11 | 39:06.61 | 3:52.62 | 176011 | 193472
12 | 42:59.48 | 5:36.72 | 193473 | 218744
13 | 48:36.45 | 4:08.30 | 218745 | 237374
14 | 52:45.00 | 4:18.53 | 237375 | 256777
15 | 57:03.53 | 3:54.23 | 256778 | 274350
16 | 60:58.01 | 4:56.18 | 274351 | 296568
17 | 65:54.19 | 5:57.50 | 296569 | 323393


Характеристики диапазона извлечения и сообщения об ошибках

Выбранный диапазон

Имя файла C:\Users\эксперт\Music\Blasthrash - No Traces Left Behind (Collector's Edition).wav

Пиковый уровень 100.0 %
Качество диапазона 100.0 %
CRC копии B4C8EC00
Копирование... OK

Ошибок не произошло


AccurateRip: сводка

Трек 1 точность не определена (достоверность 1) [197D9672], AccurateRip вернул [B4708DDC]
Трек 2 точность не определена (достоверность 1) [798D19D6], AccurateRip вернул [515AED7D]
Трек 3 точность не определена (достоверность 1) [90F25A5B], AccurateRip вернул [E4A3B536]
Трек 4 точность не определена (достоверность 1) [847A417D], AccurateRip вернул [F2F2BB27]
Трек 5 точность не определена (достоверность 1) [8295224D], AccurateRip вернул [2E9D50CD]
Трек 6 точность не определена (достоверность 1) [C54DB78E], AccurateRip вернул [22CC86EA]
Трек 7 точность не определена (достоверность 1) [916667A0], AccurateRip вернул [909D7CF4]
Трек 8 точность не определена (достоверность 1) [F621F8C3], AccurateRip вернул [CC7226CD]
Трек 9 точность не определена (достоверность 1) [3EED5856], AccurateRip вернул [5A210225]
Трек 10 точность не определена (достоверность 1) [09088BB1], AccurateRip вернул [3022468B]
Трек 11 точность не определена (достоверность 1) [7664922B], AccurateRip вернул [3998C31F]
Трек 12 точность не определена (достоверность 1) [B19E6FA0], AccurateRip вернул [FEAB7F76]
Трек 13 точность не определена (достоверность 1) [093EE04E], AccurateRip вернул [0B7FEBA4]
Трек 14 точность не определена (достоверность 1) [6962C0F0], AccurateRip вернул [F2D63E9D]
Трек 15 точность не определена (достоверность 1) [286057D8], AccurateRip вернул [9B560DC6]
Трек 16 точность не определена (достоверность 1) [74C6C24F], AccurateRip вернул [10C77589]
Трек 17 точность не определена (достоверность 1) [C404660A], AccurateRip вернул [51C1B9AD]

Ни один трек не прошёл проверки на точность
В вашей базе может быть иной вариант штамповки диска

Конец отчёта


No Traces Left Behind


Last edited by thorbeorn on 19 Mar 2017, edited 1 time in total.

Top
 Profile  
 
 
PostPosted: 19 Mar 2017 
Генеральный thrasher
User avatar
Joined: 03 Oct 2008
Posts: 3714
Lоcаtion: Ханты-Мансийский АО
Age: 44
Name: Сергей
Image

Year:2008
Style:Thrash Metal
Country:Brazil
Archive:Flac+Cue+Log+Scans
Source:my CD
Size:241Mb
Label:Mutilation Records

Tracklist:
01. Freedom Lies Dead 04:42
02. Violence Just For Fun 04:06
03. Possessed By Beer 03:51
04. Collective Suicide 04:12
05. F# 00:11
06. Radiation Death 03:23
07. Fear The Holy Cross 02:33
08. Brain Dysfunction 03:14
09. Like a Living Dead 03:41
10. Thrash Or Die 04:46

"Cue"
REM GENRE "Thrash Metal"
REM DATE 2008
REM DISCID 77081F0A
REM COMMENT "ExactAudioCopy v1.1"
PERFORMER "Blasthrash"
TITLE "Violence Just For Fun"
FILE "Blasthrash - Violence Just For Fun.flac" WAVE
TRACK 01 AUDIO
TITLE "Freedom Lies Dead"
PERFORMER "Blasthrash"
INDEX 01 00:00:00
TRACK 02 AUDIO
TITLE "Violence Just For Fun"
PERFORMER "Blasthrash"
INDEX 00 04:40:27
INDEX 01 04:42:30
TRACK 03 AUDIO
TITLE "Possessed By Beer"
PERFORMER "Blasthrash"
INDEX 00 08:46:35
INDEX 01 08:48:35
TRACK 04 AUDIO
TITLE "Collective Suicide"
PERFORMER "Blasthrash"
INDEX 00 12:37:50
INDEX 01 12:39:50
TRACK 05 AUDIO
TITLE "F#"
PERFORMER "Blasthrash"
INDEX 00 16:49:27
INDEX 01 16:51:27
TRACK 06 AUDIO
TITLE "Radiation Death"
PERFORMER "Blasthrash"
INDEX 00 16:59:66
INDEX 01 17:01:66
TRACK 07 AUDIO
TITLE "Fear The Holy Cross"
PERFORMER "Blasthrash"
INDEX 00 20:22:60
INDEX 01 20:24:60
TRACK 08 AUDIO
TITLE "Brain Dysfunction"
PERFORMER "Blasthrash"
INDEX 00 22:55:63
INDEX 01 22:57:63
TRACK 09 AUDIO
TITLE "Like a Living Dead"
PERFORMER "Blasthrash"
INDEX 01 26:12:24
TRACK 10 AUDIO
TITLE "Thrash or Die"
PERFORMER "Blasthrash"
INDEX 00 29:51:31
INDEX 01 29:53:31

"Log"
Exact Audio Copy V1.1 from 23. June 2015

Отчёт EAC об извлечении, выполненном 18. марта 2017, 14:17

Blasthrash / Violence Just For Fun

Дисковод: HL-DT-STDVDRAM GTA0N Adapter: 1 ID: 0

Режим чтения : Достоверность
Использование точного потока : Да
Отключение кэша аудио : Да
Использование указателей C2 : Нет

Коррекция смещения при чтении : 102
Способность читать области Lead-in и Lead-out : Нет
Заполнение пропущенных сэмплов тишиной : Да
Удаление блоков с тишиной в начале и конце : Нет
При вычислениях CRC использовались нулевые сэмплы : Да
Интерфейс : Встроенный Win32-интерфейс для Win NT/2000

Выходной формат : Пользовательский кодировщик
Выбранный битрейт : 768 kBit/s
Качество : Высокий
Добавление ID3-тега : Нет
Утилита сжатия : C:\Program Files (x86)\Exact Audio Copy\FLAC\FLAC.EXE
Дополнительные параметры : -V -8 -T "Date=%year%" -T "Genre=%genre%" %source%


TOC извлечённого CD

Трек | Старт | Длительность | Начальный сектор | Конечный сектор
---------------------------------------------------------------------
1 | 0:00.00 | 4:42.30 | 0 | 21179
2 | 4:42.30 | 4:06.05 | 21180 | 39634
3 | 8:48.35 | 3:51.15 | 39635 | 56974
4 | 12:39.50 | 4:11.52 | 56975 | 75851
5 | 16:51.27 | 0:10.39 | 75852 | 76640
6 | 17:01.66 | 3:22.69 | 76641 | 91859
7 | 20:24.60 | 2:33.03 | 91860 | 103337
8 | 22:57.63 | 3:14.36 | 103338 | 117923
9 | 26:12.24 | 3:41.07 | 117924 | 134505
10 | 29:53.31 | 4:46.09 | 134506 | 155964


Характеристики диапазона извлечения и сообщения об ошибках

Выбранный диапазон

Имя файла C:\Users\магазин\Music\Blasthrash - Violence Just For Fun.wav

Пиковый уровень 100.0 %
Скорость извлечения 3.7 X
Качество диапазона 100.0 %
CRC теста 532FECE8
CRC копии 532FECE8
Копирование... OK

Ошибок не произошло


AccurateRip: сводка

Трек 1 отсутствует в базе данных
Трек 2 отсутствует в базе данных
Трек 3 отсутствует в базе данных
Трек 4 отсутствует в базе данных
Трек 5 отсутствует в базе данных
Трек 6 отсутствует в базе данных
Трек 7 отсутствует в базе данных
Трек 8 отсутствует в базе данных
Трек 9 отсутствует в базе данных
Трек 10 отсутствует в базе данных

Ни одного трека нет в базе AccurateRip

Конец отчёта

---- CUETools DB Plugin V2.1.6

[CTDB TOCID: MD5gPEIuGhSs1r7SYVVTTBfdQFM-] found
Submit result: MD5gPEIuGhSs1r7SYVVTTBfdQFM- has been confirmed
Track | CTDB Status
1 | (1/1) Accurately ripped
2 | (1/1) Accurately ripped
3 | (1/1) Accurately ripped
4 | (1/1) Accurately ripped
5 | (1/1) Accurately ripped
6 | (1/1) Accurately ripped
7 | (1/1) Accurately ripped
8 | (1/1) Accurately ripped
9 | (1/1) Accurately ripped
10 | (1/1) Accurately ripped


Violence Just For Fun


Top
 Profile  
 
 
PostPosted: 19 Mar 2017 
консэрваторъ
User avatar
Joined: 11 Aug 2007
Posts: 17053
Lоcаtion: Псков
Age: 45
Name: Сергей
Спасибо, забираю, будем изучать... :thanx: :thanx: :thanx:

_________________
THRASH 'EM ALL


Top
 Profile E-mail  
 
 
PostPosted: 20 Mar 2017 
консэрваторъ
User avatar
Joined: 11 Aug 2007
Posts: 17053
Lоcаtion: Псков
Age: 45
Name: Сергей
Демки ничем не удивили... Дебютник слабоват... Альбом 8-ого года успешно продолжает направление тупого рубилова + на нём ещё к тому же проблемы со звуком - явственно журчат низкобитрэйтные артефакты... ага, так и есть...

Image

В 2013 году выходил трибьют Ratos de Porão - Ratomaniax на нём есть кавер от сабжа 10. Blasthrash - Contando Os Mortos (Ratos de Porão cover), кстати, замечательный!.. тут 192

Blasthrash - Contando os Mortos (Tributo ao Ratos de Porão) | +

На концертном сплите Metal das Ruas Vol. 3 2014 есть песня ранее не издававшаяся 10. Blasthrash - Sweet Taste of Addiction 05:08 320 на дизере

Blasthrash - "Sweet Taste of Addiction" (Live) | +

Сплит Blasthrash / Fastkill - Slaughters in the Antipodes 2015 320 на дизере

В 16-ом выходил трибьют The Misfits на нём есть песнь 11. Blasthrash - Crawling Eye (The Misfits cover) 01:54 фришен на BC

Blasthrash - Crawling Eye "Fiends Behind The World - A Brazilian Tribute To The Misfits" | +

_________________
THRASH 'EM ALL


Top
 Profile E-mail  
 
Display posts from previous:  Sort by  
Post new topic Reply to topic  [ 4 posts ] 

All times are UTC + 3 hours


Who is online

Users browsing this forum: No registered users and 3 guests


You cannot post new topics in this forum
You cannot reply to topics in this forum
You cannot edit your posts in this forum
You cannot delete your posts in this forum
You cannot post attachments in this forum

Search for:
Яндекс.Метрика
cron
Powered by phpBB © 2000, 2002, 2005, 2007 phpBB Group