\m/ 80's metal \m/

Информационно-аналитический форум "80 см пыли" (In Search We Trust) "У нас никто никуда не спешит"
Me For You - http://me-4u.com
It is currently 22 Apr 2019

All times are UTC + 3 hours

Spoiler
Chat - temporary registration for foreign users (please leave your application here)





Forum rules


Уважаемые пользователи ресурса, друзья, коллеги и гости нашего форума. Данный раздел конференции создан с целью рафинации, и посвящён такому стилевому направлению в музыке, как Thrash Metal во всех его проявлениях и ипостасях, а иногда и переходящему на пограничные стили Speed, Power, Groove, Crossover, MDM и т.п.
Главное правило здесь одно: Одна группа – одна тема! Всё остальное созвучно основным нормам поведения на конференции.
Шаблон оформления тем в этом подфоруме должен быть основан на данных сайта www.metal-archives.com и выглядеть следующим образом:

Группа (Страна) - Стилевые рамки - дискография
Slayer (USA) - Thrash Metal - дискография


В теме допустимо размещение всей информации касающейся данного коллектива: анонсы любых альбомов в любых форматах, запросы любых релизов коллектива (кроме релизов текущего и прошлого годов), обсуждения, обзоры, а в остальном всё как обычно. Уважаем друг друга, не грубим, соблюдаем нормы поведения на конференции, оформляем анонсы и запросы красиво и информативно, что бы модераторы не посчитали их троллингом, и не отправили куда положено, выписав Вам предупреждение или ещё что похуже… Прежде чем что-то запросить или запостить, пользуемся поиском! Пользуемся поиском! ПОЛЬЗУЕМСЯ ПОИСКОМ!!! Так слышно меня?.. :pardon:
Интересного, конструктивного и креативного общения! ;)

Image



Post new topic Reply to topic  [ 16 posts ] 
Author Message
 
PostPosted: 27 Mar 2015 
Генеральный thrasher
User avatar
Joined: 03 Oct 2008
Posts: 3695
Lоcаtion: Ханты-Мансийский АО
Age: 44
Name: Сергей
Все альбомы хорошей немецкой трэш-бригады,ныне не существующей...Рекомендую!

Image

Year:1997
Style:Speed/Thrash Metal
Country:Germany
Audio:Flac+Cue+Log+Scans
Size:449Mb
Source:my CD
Label:Self-Released

Tracklist:
01. Death Machine 04:05
02. The Run 04:47
03. The Ultimate War 04:20
04. Waiting For My Death 04:22
05. Leaving The Battlefield 03:18
06. This Life Of Mine 04:44
07. Inquisition 05:09
08. Stormtrooper 04:43
09. City Raiders 05:53
10. Death And Destruction 07:07
11. Nightmares 04:19
12. Killture 04:56

"Cue"
REM GENRE "Thrash Metal"
REM DATE 1997
REM DISCID 9A0D9B0C
REM COMMENT "ExactAudioCopy v0.99pb5"
PERFORMER "Armistice"
TITLE "Tied"
FILE "Armistice - Tied.flac" WAVE
TRACK 01 AUDIO
TITLE "Death Machine"
PERFORMER "Armistice"
INDEX 01 00:00:00
TRACK 02 AUDIO
TITLE "The Run"
PERFORMER "Armistice"
INDEX 00 04:05:20
INDEX 01 04:07:15
TRACK 03 AUDIO
TITLE "The Ultimate War"
PERFORMER "Armistice"
INDEX 00 08:54:55
INDEX 01 08:56:45
TRACK 04 AUDIO
TITLE "Waiting For My Death"
PERFORMER "Armistice"
INDEX 00 13:17:10
INDEX 01 13:19:10
TRACK 05 AUDIO
TITLE "Leaving The Battlefield"
PERFORMER "Armistice"
INDEX 00 17:41:35
INDEX 01 17:42:50
TRACK 06 AUDIO
TITLE "This Life Of Mine"
PERFORMER "Armistice"
INDEX 00 21:01:30
INDEX 01 21:03:25
TRACK 07 AUDIO
TITLE "Inquisition"
PERFORMER "Armistice"
INDEX 00 25:47:45
INDEX 01 25:49:15
TRACK 08 AUDIO
TITLE "Stormtrooper"
PERFORMER "Armistice"
INDEX 01 30:58:70
TRACK 09 AUDIO
TITLE "City Raiders"
PERFORMER "Armistice"
INDEX 01 35:42:65
TRACK 10 AUDIO
TITLE "Death And Destruction"
PERFORMER "Armistice"
INDEX 00 41:36:25
INDEX 01 41:38:10
TRACK 11 AUDIO
TITLE "Nightmares"
PERFORMER "Armistice"
INDEX 00 48:45:15
INDEX 01 48:46:45
TRACK 12 AUDIO
TITLE "Killture"
PERFORMER "Armistice"
INDEX 00 53:05:55
INDEX 01 53:07:25

"Log"
Exact Audio Copy V0.99 prebeta 5 from 4. May 2009

Отчёт EAC об извлечении, выполненном 27. марта 2015, 14:37

Armistice / Tied

Дисковод: MATSHITADVD-RAM UJ8A0AS Adapter: 0 ID: 1

Режим чтения : Достоверность
Использование точного потока : Да
Отключение кэша аудио : Да
Использование указателей C2 : Нет

Коррекция смещения при чтении : 102
Способность читать области Lead-in и Lead-out : Нет
Заполнение пропущенных сэмплов тишиной : Да
Удаление блоков с тишиной в начале и конце : Нет
При вычислениях CRC использовались нулевые сэмплы : Да
Интерфейс : Встроенный Win32-интерфейс для Win NT/2000

Выходной формат : Пользовательский кодировщик
Выбранный битрейт : 1024 kBit/s
Качество : Высокий
Добавление ID3-тэга : Нет
Утилита сжатия : C:\Program Files\Exact Audio Copy\FLAC\FLAC.EXE
Дополнительные параметры : -6 -V -T "ARTIST=%a" -T "TITLE=%t" -T "ALBUM=%g" -T "DATE=%y" -T "TRACKNUMBER=%n" -T "GENRE=%m" -T "COMMENT=%e" %s -o %d


TOC извлечённого CD

Трек | Старт | Длительность | Начальный сектор | Конечный сектор
---------------------------------------------------------------------
1 | 0:00.00 | 4:07.15 | 0 | 18539
2 | 4:07.15 | 4:49.30 | 18540 | 40244
3 | 8:56.45 | 4:22.40 | 40245 | 59934
4 | 13:19.10 | 4:23.40 | 59935 | 79699
5 | 17:42.50 | 3:20.50 | 79700 | 94749
6 | 21:03.25 | 4:45.65 | 94750 | 116189
7 | 25:49.15 | 5:09.55 | 116190 | 139419
8 | 30:58.70 | 4:43.70 | 139420 | 160714
9 | 35:42.65 | 5:55.20 | 160715 | 187359
10 | 41:38.10 | 7:08.35 | 187360 | 219494
11 | 48:46.45 | 4:20.55 | 219495 | 239049
12 | 53:07.25 | 4:56.25 | 239050 | 261274


Характеристики диапазона извлечения и сообщения об ошибках

Выбранный диапазон

Имя файла C:\Users\эксперт\Music\Armistice - Tied.wav

Пиковый уровень 100.0 %
Качество диапазона 99.9 %
CRC копии D7888593
Копирование... OK

Ошибок не произошло


AccurateRip: сводка

Трек 1 точность не определена (достоверность 1) [3D3DC004], AccurateRip вернул [06DF4E1C]
Трек 2 точность не определена (достоверность 1) [967AB8C2], AccurateRip вернул [11E480BA]
Трек 3 точность не определена (достоверность 1) [09A097A6], AccurateRip вернул [0B3F798E]
Трек 4 точность не определена (достоверность 1) [900D76E6], AccurateRip вернул [B922B2AE]
Трек 5 точность не определена (достоверность 1) [DF91DE90], AccurateRip вернул [5ABFEEF8]
Трек 6 точность не определена (достоверность 1) [6D438E76], AccurateRip вернул [7205B80E]
Трек 7 точность не определена (достоверность 1) [99A9A267], AccurateRip вернул [17C317CF]
Трек 8 точность не определена (достоверность 1) [D345105A], AccurateRip вернул [352DA40A]
Трек 9 точность не определена (достоверность 1) [9FEE1113], AccurateRip вернул [5150970B]
Трек 10 точность не определена (достоверность 1) [98631E17], AccurateRip вернул [3FA7682F]
Трек 11 точность не определена (достоверность 1) [B9C59EF4], AccurateRip вернул [EC71D818]
Трек 12 точность не определена (достоверность 1) [4B451F1F], AccurateRip вернул [F7151D4F]

Ни один трек не прошёл проверки на точность
В вашей базе может быть иной вариант штамповки диска

Конец отчёта


Tied

Image

Year:2000
Style:Speed/Thrash Metal
Country:Germany
Audio:Flac+Cue+Log+Scans
Size:433Mb
Source:my CD
Label:Black Arrow Production

Tracklist:
01. Airraid Siren 03:34
02. Dance In The Fire 05:47
03. The Run 04:56
04. Down The Drain 03:38
05. Symptom Of The Universe (Black Sabbath cover) 03:22
06. Hit And Run 04:17
07. This Life of Mine 04:26
08. Nuclear Breakdown 06:05
09. Waiting For My Death 03:59
10. Worse Than Yesterday 04:31
11. Death Machine 03:59
12. The Ultimate War 04:23

"Cue"
REM GENRE "Thrash Metal"
REM DATE 2000
REM DISCID A80C6E0C
REM COMMENT "ExactAudioCopy v0.99pb5"
PERFORMER "Armistice"
TITLE "Hot On The Trail"
FILE "Armistice - Hot On The Trail.flac" WAVE
TRACK 01 AUDIO
TITLE "Airraid Siren"
PERFORMER "Armistice"
FLAGS DCP
INDEX 01 00:00:00
TRACK 02 AUDIO
TITLE "Dance In The Fire"
PERFORMER "Armistice"
FLAGS DCP
INDEX 01 03:34:35
TRACK 03 AUDIO
TITLE "The Run"
PERFORMER "Armistice"
FLAGS DCP
INDEX 01 09:21:40
TRACK 04 AUDIO
TITLE "Down The Drain"
PERFORMER "Armistice"
FLAGS DCP
INDEX 01 14:17:52
TRACK 05 AUDIO
TITLE "Sympton Of The Universe"
PERFORMER "Armistice"
FLAGS DCP
INDEX 01 17:56:20
TRACK 06 AUDIO
TITLE "Hit And Run"
PERFORMER "Armistice"
FLAGS DCP
INDEX 01 21:19:10
TRACK 07 AUDIO
TITLE "This Life Of Mine"
PERFORMER "Armistice"
FLAGS DCP
INDEX 01 25:36:45
TRACK 08 AUDIO
TITLE "Nuclear Breakdown"
PERFORMER "Armistice"
FLAGS DCP
INDEX 01 30:02:60
TRACK 09 AUDIO
TITLE "Waiting For My Death"
PERFORMER "Armistice"
FLAGS DCP
INDEX 01 36:07:65
TRACK 10 AUDIO
TITLE "Worse Than Yesterday"
PERFORMER "Armistice"
FLAGS DCP
INDEX 01 40:07:40
TRACK 11 AUDIO
TITLE "Death Machine"
PERFORMER "Armistice"
FLAGS DCP
INDEX 01 44:39:35
TRACK 12 AUDIO
TITLE "The Ultimate War"
PERFORMER "Armistice"
FLAGS DCP
INDEX 01 48:38:72

"Log"
Exact Audio Copy V0.99 prebeta 5 from 4. May 2009

Отчёт EAC об извлечении, выполненном 21. марта 2015, 14:00

Armistice / Hot On The Trail

Дисковод: MATSHITADVD-RAM UJ8A0AS Adapter: 0 ID: 1

Режим чтения : Достоверность
Использование точного потока : Да
Отключение кэша аудио : Да
Использование указателей C2 : Нет

Коррекция смещения при чтении : 102
Способность читать области Lead-in и Lead-out : Нет
Заполнение пропущенных сэмплов тишиной : Да
Удаление блоков с тишиной в начале и конце : Нет
При вычислениях CRC использовались нулевые сэмплы : Да
Интерфейс : Встроенный Win32-интерфейс для Win NT/2000

Выходной формат : Пользовательский кодировщик
Выбранный битрейт : 1024 kBit/s
Качество : Высокий
Добавление ID3-тэга : Нет
Утилита сжатия : C:\Program Files\Exact Audio Copy\FLAC\FLAC.EXE
Дополнительные параметры : -6 -V -T "ARTIST=%a" -T "TITLE=%t" -T "ALBUM=%g" -T "DATE=%y" -T "TRACKNUMBER=%n" -T "GENRE=%m" -T "COMMENT=%e" %s -o %d


TOC извлечённого CD

Трек | Старт | Длительность | Начальный сектор | Конечный сектор
---------------------------------------------------------------------
1 | 0:00.00 | 3:34.35 | 0 | 16084
2 | 3:34.35 | 5:47.05 | 16085 | 42114
3 | 9:21.40 | 4:56.12 | 42115 | 64326
4 | 14:17.52 | 3:38.43 | 64327 | 80719
5 | 17:56.20 | 3:22.65 | 80720 | 95934
6 | 21:19.10 | 4:17.35 | 95935 | 115244
7 | 25:36.45 | 4:26.15 | 115245 | 135209
8 | 30:02.60 | 6:05.05 | 135210 | 162589
9 | 36:07.65 | 3:59.50 | 162590 | 180564
10 | 40:07.40 | 4:31.70 | 180565 | 200959
11 | 44:39.35 | 3:59.37 | 200960 | 218921
12 | 48:38.72 | 4:23.15 | 218922 | 238661


Характеристики диапазона извлечения и сообщения об ошибках

Выбранный диапазон

Имя файла C:\Users\эксперт\Music\Armistice - Hot On The Trail.wav

Пиковый уровень 98.8 %
Качество диапазона 99.9 %
CRC копии A993D1C8
Копирование... OK

Ошибок не произошло


AccurateRip: сводка

Трек 1 точность не определена (достоверность 1) [B74231C1], AccurateRip вернул [ECBA12D7]
Трек 2 точность не определена (достоверность 1) [F833BB16], AccurateRip вернул [5C67604B]
Трек 3 точность не определена (достоверность 1) [3133843B], AccurateRip вернул [FC0DC861]
Трек 4 точность не определена (достоверность 1) [55B5CCA3], AccurateRip вернул [3D9C811C]
Трек 5 точность не определена (достоверность 1) [0A28E869], AccurateRip вернул [1631A5F5]
Трек 6 точность не определена (достоверность 1) [D2FE89C9], AccurateRip вернул [D4CA126E]
Трек 7 точность не определена (достоверность 1) [8C3689B9], AccurateRip вернул [7EE8DCB1]
Трек 8 точность не определена (достоверность 1) [999C1578], AccurateRip вернул [E17F7BFD]
Трек 9 точность не определена (достоверность 1) [EF2130D9], AccurateRip вернул [97F52A5A]
Трек 10 точность не определена (достоверность 1) [5CDFE266], AccurateRip вернул [A81FC18E]
Трек 11 точность не определена (достоверность 1) [BEA9DEFF], AccurateRip вернул [B2D4ED1D]
Трек 12 точность не определена (достоверность 1) [D07102ED], AccurateRip вернул [431F9A82]

Ни один трек не прошёл проверки на точность
В вашей базе может быть иной вариант штамповки диска

Конец отчёта


Hot On The Trail

Image

Year:2005
Style:Speed/Thrash Metal
Country:Germany
Audio:Flac+Cue+Log+Scans
Size:312Mb
Source:my CD
Label:Bad Land Records

Tracklist:
01. Child Soldier 06:42
02. Rabies 04:48
03. Berserk 04:23
04. Nail Me To The Cross 04:33
05. Trail Of Fear 05:39
06. Leaving The Battlefield 03:00
07. Doggy Style 06:03
08. Return Of The Aggressor 04:34
"Cue"
REM GENRE "Thrash Metal"
REM DATE 2005
REM DISCID 7F108B09
REM COMMENT "ExactAudioCopy v0.99pb5"
PERFORMER "Armistice"
TITLE "Roots Of Evil"
FILE "Armistice - Roots Of Evil.flac" WAVE
TRACK 01 AUDIO
TITLE "Child Soldier"
PERFORMER "Armistice"
FLAGS DCP
INDEX 01 00:00:00
TRACK 02 AUDIO
TITLE "Rabies"
PERFORMER "Armistice"
FLAGS DCP
INDEX 00 06:42:44
INDEX 01 06:44:44
TRACK 03 AUDIO
TITLE "Berserk"
PERFORMER "Armistice"
FLAGS DCP
INDEX 00 11:32:61
INDEX 01 11:34:61
TRACK 04 AUDIO
TITLE "Nail Me To The Cross"
PERFORMER "Armistice"
FLAGS DCP
INDEX 00 15:58:28
INDEX 01 16:00:28
TRACK 05 AUDIO
TITLE "Trail of Fear"
PERFORMER "Armistice"
FLAGS DCP
INDEX 00 20:33:31
INDEX 01 20:35:31
TRACK 06 AUDIO
TITLE "Leaving the Battlefield"
PERFORMER "Armistice"
FLAGS DCP
INDEX 00 26:15:16
INDEX 01 26:17:16
TRACK 07 AUDIO
TITLE "Doggy Style"
PERFORMER "Armistice"
FLAGS DCP
INDEX 00 29:17:28
INDEX 01 29:19:28
TRACK 08 AUDIO
TITLE "Return of the Aggressor"
PERFORMER "Armistice"
FLAGS DCP
INDEX 00 35:23:12
INDEX 01 35:25:12

"Log"
Exact Audio Copy V0.99 prebeta 5 from 4. May 2009

Отчёт EAC об извлечении, выполненном 27. марта 2015, 13:36

Armistice / Roots Of Evil

Дисковод: MATSHITADVD-RAM UJ8A0AS Adapter: 0 ID: 1

Режим чтения : Достоверность
Использование точного потока : Да
Отключение кэша аудио : Да
Использование указателей C2 : Нет

Коррекция смещения при чтении : 102
Способность читать области Lead-in и Lead-out : Нет
Заполнение пропущенных сэмплов тишиной : Да
Удаление блоков с тишиной в начале и конце : Нет
При вычислениях CRC использовались нулевые сэмплы : Да
Интерфейс : Встроенный Win32-интерфейс для Win NT/2000

Выходной формат : Пользовательский кодировщик
Выбранный битрейт : 1024 kBit/s
Качество : Высокий
Добавление ID3-тэга : Нет
Утилита сжатия : C:\Program Files\Exact Audio Copy\FLAC\FLAC.EXE
Дополнительные параметры : -6 -V -T "ARTIST=%a" -T "TITLE=%t" -T "ALBUM=%g" -T "DATE=%y" -T "TRACKNUMBER=%n" -T "GENRE=%m" -T "COMMENT=%e" %s -o %d


TOC извлечённого CD

Трек | Старт | Длительность | Начальный сектор | Конечный сектор
---------------------------------------------------------------------
1 | 0:00.00 | 6:44.44 | 0 | 30343
2 | 6:44.44 | 4:50.17 | 30344 | 52110
3 | 11:34.61 | 4:25.42 | 52111 | 72027
4 | 16:00.28 | 4:35.03 | 72028 | 92655
5 | 20:35.31 | 5:41.60 | 92656 | 118290
6 | 26:17.16 | 3:02.12 | 118291 | 131952
7 | 29:19.28 | 6:05.59 | 131953 | 159386
8 | 35:25.12 | 4:34.20 | 159387 | 179956
9 | 42:31.32 | 28:04.03 | 191357 | 317659


Характеристики диапазона извлечения и сообщения об ошибках

Выбранный диапазон

Имя файла C:\Users\эксперт\Music\Armistice - Roots Of Evil.wav

Пиковый уровень 100.0 %
Качество диапазона 100.0 %
CRC копии 24D3C12B
Копирование... OK

Ошибок не произошло


AccurateRip: сводка

Трек 1 нет в базе данных
Трек 2 нет в базе данных
Трек 3 нет в базе данных
Трек 4 нет в базе данных
Трек 5 нет в базе данных
Трек 6 нет в базе данных
Трек 7 нет в базе данных
Трек 8 нет в базе данных

Ни одного трека нет в базе AccurateRip

Конец отчёта


Roots Of Evil


Top
 Profile  
 
 
PostPosted: 27 Mar 2015 
Хиппей (support team)
User avatar
Joined: 30 Jul 2007
Posts: 111755
Lоcаtion: Киев (Kyiv, UA)
Age: 45
Name: Andrey
:thanx:

mirrors:

1997 - iFolder l Narod l M-Cloud
2000 - iFolder l Narod l M-Cloud
2005 - iFolder l Narod l M-Cloud

_________________


Top
 Profile E-mail  
 
 
PostPosted: 27 Mar 2015 
Хиппей (support team)
User avatar
Joined: 30 Jul 2007
Posts: 111755
Lоcаtion: Киев (Kyiv, UA)
Age: 45
Name: Andrey
Начал слушать первый альбом...
Ржачно стало, когда услышал вокал, да ещё и с не германским акцентом, ну и запись полуподвального качества.
Пойду гляну. кто тут глотку пытается рвать, да не получается по-взрослому...

_________________


Top
 Profile E-mail  
 
 
PostPosted: 27 Mar 2015 
Хиппей (support team)
User avatar
Joined: 30 Jul 2007
Posts: 111755
Lоcаtion: Киев (Kyiv, UA)
Age: 45
Name: Andrey
http://www.metal-archives.com/artists/D ... ner/302099
Хм, вполне себе "Ганс" :vic:
А вот дальше, насколько понял, орать продолжит турок.

_________________


Top
 Profile E-mail  
 
 
PostPosted: 27 Mar 2015 
Прокъмитолист
User avatar
Joined: 12 Aug 2007
Posts: 6545
Lоcаtion: Санктъ-Петербуркъ
Age: 51
Name: Олекъ
спасибо! :thanx:

_________________
прокъметол - это музыко, от которово есть прок (ы)


Top
 Profile  
 
 
PostPosted: 27 Mar 2015 
Хиппей (support team)
User avatar
Joined: 30 Jul 2007
Posts: 111755
Lоcаtion: Киев (Kyiv, UA)
Age: 45
Name: Andrey
thorbeorn wrote:
Tied

Смешной немного и вокал и альбом. Но музыка хороша =)
Хоть под финал и немного облегчал саунд :vic:
Ну и альбом очень уж затянут - почти час слушать утомительно :fingal:

5-/10

зы. Соло-гитариста я бы отдал в какую-то техно-паверную группу, например :lloo:
Или это... гуитар-про играет? =)

_________________


Top
 Profile E-mail  
 
 
PostPosted: 28 Mar 2015 
А может смените мне статус?..
User avatar
Joined: 17 Jan 2008
Posts: 879
Lоcаtion: Пенза
Age: 41
Name: Денис
Дебютник у парней душевный вышел.Хорошая музыка,даже очень..Первая часть диск звучит явно жестче.На ней группа явно работала по мотивам Holy Moses-овского "The New Machine.." и Annihilator времен ''Set The World On Fire''.Вторая часть альбома явно мягче и мелодичние.Чем и кем были воодушевлены уже сказать сложнее,но в некоторых местах проскальзывает явно что то Мастейновское...
Второй альбом быстрее,яростнее и от начала до конца трешевый.Но мне совсем не понравился.Какой то он безликий.Прослушал и забыл.Ничего в нём не цепляет.Как мне показалось,дело видимо в своеобразном продакшене и вокалисте..Вокалист орет недуром(видимо пытаясь запугать микрофон),так его еще зачем то выперли поверх всего((.Вот за этим горлопаном музыки и не слышно..
Третий альбом группы снова получился совершенно другим.Иногда при прослушивание складывалось впечатление,что все три диска записали совершенно разные коллективы.Упали скорости.Но в данном случае это плюс,-добавилось мелодичности и ритмически стали интереснее.Звучание стало по-взрослому брутальние.Но опять всё запортачил вокалист.Если бы не он,то альбом возможно с другим вокалером зазвучал еще интереснее.
Подводя итоги,для меня самым интересным стала дебютная работта группы.


Top
 Profile  
 
 
PostPosted: 28 Mar 2015 
Генеральный thrasher
User avatar
Joined: 03 Oct 2008
Posts: 3695
Lоcаtion: Ханты-Мансийский АО
Age: 44
Name: Сергей
А мне нравятся два последних.Первый здесь для полного комплекта.


Top
 Profile  
 
 
PostPosted: 20 Apr 2015 
ТрэшЭрос
User avatar
Joined: 18 Jul 2011
Posts: 2303
Lоcаtion: Гулькевичи
Age: 44
Name: Александр
thorbeorn, благодарю за знакомство! Стянул ещё в марте, толком не слушал ещё (уже?). Пизнес полный, мля :oops:

_________________
Thrash no trash!!!


Top
 Profile E-mail  
 
 
PostPosted: 03 Feb 2018 
Работнечег
User avatar
Joined: 28 Aug 2007
Posts: 5804
Lоcаtion: г. Москва
Age: 30
Name: Дима
:thanx:
Спасибо! Второй есть, остальные утяну!


Top
 Profile E-mail  
 
 
PostPosted: 03 Feb 2018 
Хиппей (support team)
User avatar
Joined: 30 Jul 2007
Posts: 111755
Lоcаtion: Киев (Kyiv, UA)
Age: 45
Name: Andrey
Явно группа просится в раздел по трэшу :kro:

_________________


Top
 Profile E-mail  
 
 
PostPosted: 04 Feb 2018 
консэрваторъ
Joined: 11 Aug 2007
Posts: 16823
Lоcаtion: Псков
Age: 45
Name: Сергей
Перенесено, спасибо... :thanx:
Демки будем искать?.. :arrov: https://www.metal-archives.com/bands/Armistice/14520

_________________
THRASH 'EM ALL


Top
 Profile E-mail  
 
 
PostPosted: 04 Feb 2018 
Работнечег
User avatar
Joined: 28 Aug 2007
Posts: 5804
Lоcаtion: г. Москва
Age: 30
Name: Дима
Сначала послушаем!


Top
 Profile E-mail  
 
 
PostPosted: 10 Feb 2018 
Работнечег
User avatar
Joined: 28 Aug 2007
Posts: 5804
Lоcаtion: г. Москва
Age: 30
Name: Дима
Первый мне не зашел, попробуем послушать второй


Top
 Profile E-mail  
 
 
PostPosted: 04 Mar 2018 
консэрваторъ
Joined: 11 Aug 2007
Posts: 16823
Lоcаtion: Псков
Age: 45
Name: Сергей
Обе демки коллектива числятся на дискогсе...

Armistice - Artful Killing 1995 (Demo)

Image Image

Armistice - Airraid 1999 (Demo)

Image Image Image

При чём первая не понятно у кого (владельцы скрыты), последний раз торговалась в августе 16-ого за 22еуро!..
Вторая так же числится у двоих, один владелец обозначен, ему написана просьба поделиться рипом, цэдээр есть в продаже за €24.50+5.5шип!!!
Кто-то готов отдать 30 евробумажек за какой-то непонятный цид?.. Я чего-то нет... Так что демки не ищутся, но если нарисуются внезапно, отблагодарим!..
Вариант по второй демке из Франции за 8 с непонятным шипом... :arrov: https://www.ebay.fr/itm/CD-ARMISTICE-AI ... 2562722002
Ещё нашёл вот такого дядечку, спрошу, это он или не он... :arrov: https://www.facebook.com/armistice.armistice.18
А здесь ошибка... :arrov: https://www.metal-archives.com/albums/A ... Evil/92703
3. Beserk правильно 3. Berserk

_________________
THRASH 'EM ALL


Top
 Profile E-mail  
 
 
PostPosted: 04 Mar 2018 
Хиппей (support team)
User avatar
Joined: 30 Jul 2007
Posts: 111755
Lоcаtion: Киев (Kyiv, UA)
Age: 45
Name: Andrey
splatty wrote:
А здесь ошибка...

:thanx:
И здесь:
splatty wrote:
При чём первая не понятно у кого

_________________


Top
 Profile E-mail  
 
Display posts from previous:  Sort by  
Post new topic Reply to topic  [ 16 posts ] 

All times are UTC + 3 hours


Who is online

Users browsing this forum: splatty and 6 guests


You cannot post new topics in this forum
You cannot reply to topics in this forum
You cannot edit your posts in this forum
You cannot delete your posts in this forum
You cannot post attachments in this forum

Search for:
Яндекс.Метрика
Powered by phpBB © 2000, 2002, 2005, 2007 phpBB Group