\m/ 80's metal \m/

Информационно-аналитический форум "80 см пыли" (In Search We Trust) "У нас никто никуда не спешит"
Me For You - http://me-4u.com
It is currently 19 Apr 2019

All times are UTC + 3 hours

Spoiler
Chat - temporary registration for foreign users (please leave your application here)





Forum rules


Уважаемые пользователи ресурса, друзья, коллеги и гости нашего форума. Данный раздел конференции создан с целью рафинации, и посвящён такому стилевому направлению в музыке, как Thrash Metal во всех его проявлениях и ипостасях, а иногда и переходящему на пограничные стили Speed, Power, Groove, Crossover, MDM и т.п.
Главное правило здесь одно: Одна группа – одна тема! Всё остальное созвучно основным нормам поведения на конференции.
Шаблон оформления тем в этом подфоруме должен быть основан на данных сайта www.metal-archives.com и выглядеть следующим образом:

Группа (Страна) - Стилевые рамки - дискография
Slayer (USA) - Thrash Metal - дискография


В теме допустимо размещение всей информации касающейся данного коллектива: анонсы любых альбомов в любых форматах, запросы любых релизов коллектива (кроме релизов текущего и прошлого годов), обсуждения, обзоры, а в остальном всё как обычно. Уважаем друг друга, не грубим, соблюдаем нормы поведения на конференции, оформляем анонсы и запросы красиво и информативно, что бы модераторы не посчитали их троллингом, и не отправили куда положено, выписав Вам предупреждение или ещё что похуже… Прежде чем что-то запросить или запостить, пользуемся поиском! Пользуемся поиском! ПОЛЬЗУЕМСЯ ПОИСКОМ!!! Так слышно меня?.. :pardon:
Интересного, конструктивного и креативного общения! ;)

Image



Post new topic Reply to topic  [ 34 posts ]  Go to page 1, 2  Next
Author Message
 
PostPosted: 10 Feb 2015 
Генеральный thrasher
User avatar
Joined: 03 Oct 2008
Posts: 3695
Lоcаtion: Ханты-Мансийский АО
Age: 44
Name: Сергей
Image

Year:2003
Style:Thrash Metal
Country:Brazil
Audio:Flac+Cue+Log+Scans
Size:337Mb
Source:my CD
Label:Lethal Records

Tracklist:
01. Land Of Cannibals 03:49
02. Threating Eyes 3:30
03. Repressed Desires 03:51
04. Dogs Of War 03:53
05. Days Of Fight 03:50
06. Kill The Priest 04:13
07. Wrong Place... Wrong Time 03:26
08. Rise Above The Sky 03:54
09. Die, Die!! 03:46
10. I Hate Your Life 03:35
11. Metal Blood 04:15

"Cue"
REM GENRE "Thrash Metal"
REM DATE 2003
REM DISCID 8C09E00B
REM COMMENT "ExactAudioCopy v0.99pb5"
PERFORMER "Flashover"
TITLE "Land Of Cannibals"
FILE "Flashover - Land Of Cannibals.flac" WAVE
TRACK 01 AUDIO
TITLE "Land Of Cannibals"
PERFORMER "Flashover"
INDEX 01 00:00:00
TRACK 02 AUDIO
TITLE "Threating Eyes"
PERFORMER "Flashover"
INDEX 01 03:49:12
TRACK 03 AUDIO
TITLE "Repressed Desires"
PERFORMER "Flashover"
INDEX 01 07:19:51
TRACK 04 AUDIO
TITLE "Dogs Of War"
PERFORMER "Flashover"
INDEX 00 11:10:62
INDEX 01 11:10:64
TRACK 05 AUDIO
TITLE "Days Of Fight"
PERFORMER "Flashover"
INDEX 00 15:04:50
INDEX 01 15:04:51
TRACK 06 AUDIO
TITLE "Kill The Priest"
PERFORMER "Flashover"
INDEX 00 18:55:46
INDEX 01 18:55:48
TRACK 07 AUDIO
TITLE "Wrong Place...Wrong Time"
PERFORMER "Flashover"
INDEX 00 23:09:37
INDEX 01 23:09:38
TRACK 08 AUDIO
TITLE "Rise Above The Sky"
PERFORMER "Flashover"
INDEX 00 26:36:02
INDEX 01 26:36:05
TRACK 09 AUDIO
TITLE "Die,Die!!!"
PERFORMER "Flashover"
INDEX 01 30:30:54
TRACK 10 AUDIO
TITLE "I Hate Your Life"
PERFORMER "Flashover"
INDEX 00 34:16:59
INDEX 01 34:16:60
TRACK 11 AUDIO
TITLE "Metal Blood (Bonus)"
PERFORMER "Flashover"
INDEX 00 37:52:03
INDEX 01 37:52:44

"Log"
Exact Audio Copy V0.99 prebeta 5 from 4. May 2009

Отчёт EAC об извлечении, выполненном 5. апреля 2013, 10:13

Flashover / Land Of Cannibals

Дисковод: MATSHITADVD-RAM UJ8A0AS Adapter: 0 ID: 1

Режим чтения : Достоверность
Использование точного потока : Да
Отключение кэша аудио : Да
Использование указателей C2 : Нет

Коррекция смещения при чтении : 102
Способность читать области Lead-in и Lead-out : Нет
Заполнение пропущенных сэмплов тишиной : Да
Удаление блоков с тишиной в начале и конце : Нет
При вычислениях CRC использовались нулевые сэмплы : Да
Интерфейс : Встроенный Win32-интерфейс для Win NT/2000

Выходной формат : Пользовательский кодировщик
Выбранный битрейт : 1024 kBit/s
Качество : Высокий
Добавление ID3-тэга : Нет
Утилита сжатия : C:\Program Files\Exact Audio Copy\FLAC\FLAC.EXE
Дополнительные параметры : -6 -V -T "ARTIST=%a" -T "TITLE=%t" -T "ALBUM=%g" -T "DATE=%y" -T "TRACKNUMBER=%n" -T "GENRE=%m" -T "COMMENT=%e" %s -o %d


TOC извлечённого CD

Трек | Старт | Длительность | Начальный сектор | Конечный сектор
---------------------------------------------------------------------
1 | 0:00.00 | 3:49.12 | 0 | 17186
2 | 3:49.12 | 3:30.39 | 17187 | 32975
3 | 7:19.51 | 3:51.13 | 32976 | 50313
4 | 11:10.64 | 3:53.62 | 50314 | 67850
5 | 15:04.51 | 3:50.72 | 67851 | 85172
6 | 18:55.48 | 4:13.65 | 85173 | 104212
7 | 23:09.38 | 3:26.42 | 104213 | 119704
8 | 26:36.05 | 3:54.49 | 119705 | 137303
9 | 30:30.54 | 3:46.06 | 137304 | 154259
10 | 34:16.60 | 3:35.59 | 154260 | 170443
11 | 37:52.44 | 4:15.48 | 170444 | 189616


Характеристики диапазона извлечения и сообщения об ошибках

Выбранный диапазон

Имя файла C:\Users\эксперт\Music\Flashover - Land Of Cannibals.wav

Пиковый уровень 100.0 %
Качество диапазона 100.0 %
CRC копии 3C44173F
Копирование... OK

Ошибок не произошло


AccurateRip: сводка

Трек 1 нет в базе данных
Трек 2 нет в базе данных
Трек 3 нет в базе данных
Трек 4 нет в базе данных
Трек 5 нет в базе данных
Трек 6 нет в базе данных
Трек 7 нет в базе данных
Трек 8 нет в базе данных
Трек 9 нет в базе данных
Трек 10 нет в базе данных
Трек 11 нет в базе данных

Ни одного трека нет в базе AccurateRip

Конец отчёта


Land Of Cannibals


Top
 Profile  
 
 
PostPosted: 10 Feb 2015 
Генеральный thrasher
User avatar
Joined: 03 Oct 2008
Posts: 3695
Lоcаtion: Ханты-Мансийский АО
Age: 44
Name: Сергей
Image

Year:2008
Style:Thrash Metal
Country:Brazil
Audio:Flac+Cue+Log+Scans
Size:298Mb
Source:my CD
Label:Distro Rock Records

Tracklist:
01. Superior 03:05
02. Season in Hell 03:13
03. Hatestorm 02:46
04. Out Of Control 04:35
05. Blood Of Fire 02:43
06. Gods Metal War 04:01
07. Welcome to Disaster 03:15
08. Underground 04:43
09. Flesh and Blood / Balls to the Walls (Accept cover) 09:11

"Cue"
REM GENRE "Thrash Metal"
REM DATE 2008
REM DISCID 6E08D009
REM COMMENT "ExactAudioCopy v0.99pb5"
PERFORMER "Flashover"
TITLE "Superior"
FILE "Flashover - Superior.flac" WAVE
TRACK 01 AUDIO
TITLE "Superior"
PERFORMER "Flashover"
INDEX 01 00:00:00
TRACK 02 AUDIO
TITLE "Season In Hell"
PERFORMER "Flashover"
INDEX 01 03:05:02
TRACK 03 AUDIO
TITLE "Hatestorm"
PERFORMER "Flashover"
INDEX 01 06:18:15
TRACK 04 AUDIO
TITLE "Out Of Control"
PERFORMER "Flashover"
INDEX 01 09:04:27
TRACK 05 AUDIO
TITLE "Blood Of Fire"
PERFORMER "Flashover"
INDEX 01 13:39:40
TRACK 06 AUDIO
TITLE "Gods Metal War"
PERFORMER "Flashover"
INDEX 01 16:22:73
TRACK 07 AUDIO
TITLE "Welcome To Disaster"
PERFORMER "Flashover"
INDEX 01 20:24:58
TRACK 08 AUDIO
TITLE "Underground"
PERFORMER "Flashover"
INDEX 01 23:40:45
TRACK 09 AUDIO
TITLE "Flesh And Blood (Bonus)"
PERFORMER "Flashover"
INDEX 01 28:24:20

"Log"
Exact Audio Copy V0.99 prebeta 5 from 4. May 2009

Отчёт EAC об извлечении, выполненном 4. июня 2012, 10:48

Flashover / Superior

Дисковод: TSSTcorpCDDVDW SH-S202N Adapter: 0 ID: 1

Режим чтения : Достоверность
Использование точного потока : Да
Отключение кэша аудио : Да
Использование указателей C2 : Нет

Коррекция смещения при чтении : 6
Способность читать области Lead-in и Lead-out : Нет
Заполнение пропущенных сэмплов тишиной : Да
Удаление блоков с тишиной в начале и конце : Нет
При вычислениях CRC использовались нулевые сэмплы : Да
Интерфейс : Встроенный Win32-интерфейс для Win NT/2000

Выходной формат : Пользовательский кодировщик
Выбранный битрейт : 768 kBit/s
Качество : Высокий
Добавление ID3-тэга : Нет
Утилита сжатия : C:\Program Files\Exact Audio Copy\FLAC\FLAC.EXE
Дополнительные параметры : -6 -V -T "ARTIST=%a" -T "TITLE=%t" -T "ALBUM=%g" -T "DATE=%y" -T "TRACKNUMBER=%n" -T "GENRE=%m" -T "COMMENT=%e" %s -o %d


TOC извлечённого CD

Трек | Старт | Длительность | Начальный сектор | Конечный сектор
---------------------------------------------------------------------
1 | 0:00.00 | 3:05.02 | 0 | 13876
2 | 3:05.02 | 3:13.13 | 13877 | 28364
3 | 6:18.15 | 2:46.12 | 28365 | 40826
4 | 9:04.27 | 4:35.13 | 40827 | 61464
5 | 13:39.40 | 2:43.33 | 61465 | 73722
6 | 16:22.73 | 4:01.60 | 73723 | 91857
7 | 20:24.58 | 3:15.62 | 91858 | 106544
8 | 23:40.45 | 4:43.50 | 106545 | 127819
9 | 28:24.20 | 9:11.66 | 127820 | 169210


Характеристики диапазона извлечения и сообщения об ошибках

Выбранный диапазон

Имя файла E:\Лоси\F\Flashover - Superior.wav

Пиковый уровень 100.0 %
Качество диапазона 100.0 %
CRC копии 4EBA24EB
Копирование... OK

Ошибок не произошло


AccurateRip: сводка

Трек 1 нет в базе данных
Трек 2 нет в базе данных
Трек 3 нет в базе данных
Трек 4 нет в базе данных
Трек 5 нет в базе данных
Трек 6 нет в базе данных
Трек 7 нет в базе данных
Трек 8 нет в базе данных
Трек 9 нет в базе данных

Ни одного трека нет в базе AccurateRip

Конец отчёта


Superior


Top
 Profile  
 
 
PostPosted: 10 Feb 2015 
Хиппей (support team)
User avatar
Joined: 30 Jul 2007
Posts: 111675
Lоcаtion: Киев (Kyiv, UA)
Age: 45
Name: Andrey
thorbeorn wrote:
Superior

:thanx:

mirror: Narod l M-Cloud

_________________


Top
 Profile E-mail  
 
 
PostPosted: 10 Feb 2015 
А может смените мне статус?..
User avatar
Joined: 02 Feb 2009
Posts: 999
Lоcаtion: из Тулы
Age: 44
Name: Максим
thorbeorn wrote:
Land Of Cannibals

:thanx: :true: :dance:

_________________
КМА


Top
 Profile  
 
 
PostPosted: 10 Feb 2015 
А может смените мне статус?..
User avatar
Joined: 02 Feb 2009
Posts: 999
Lоcаtion: из Тулы
Age: 44
Name: Максим
thorbeorn wrote:
Superior

:true: :benya: :thanx: :meloman:

_________________
КМА


Top
 Profile  
 
 
PostPosted: 10 Feb 2015 
Хиппей (support team)
User avatar
Joined: 30 Jul 2007
Posts: 111675
Lоcаtion: Киев (Kyiv, UA)
Age: 45
Name: Andrey
thorbeorn wrote:
Land Of Cannibals

:thanx:

mirrro: Narod l M-Cloud

_________________


Top
 Profile E-mail  
 
 
PostPosted: 10 Feb 2015 
Хиппей (support team)
User avatar
Joined: 30 Jul 2007
Posts: 111675
Lоcаtion: Киев (Kyiv, UA)
Age: 45
Name: Andrey
Какой милый и ностальгический бразильский Thrash-Death :lob: :lob: :lob:
Пока три песенки отслушал из 2003, а уже штаны полны трэша и угара :kz:

_________________


Top
 Profile E-mail  
 
 
PostPosted: 10 Feb 2015 
Хиппей (support team)
User avatar
Joined: 30 Jul 2007
Posts: 111675
Lоcаtion: Киев (Kyiv, UA)
Age: 45
Name: Andrey
Ииээээхх!! Как же понравился весь альбом 2008 :true: :true: :true:

Серёга, спасибо за очередное открытие новодельного олдскула :thanx:

зы. Кавер на Ассётра порвал в мухоморы :meloman: :meloman: :meloman:

7+/10

_________________


Top
 Profile E-mail  
 
 
PostPosted: 10 Feb 2015 
Прокъмитолист
User avatar
Joined: 12 Aug 2007
Posts: 6545
Lоcаtion: Санктъ-Петербуркъ
Age: 51
Name: Олекъ
thorbeorn wrote:
Land Of Cannibals

:thanx:

_________________
прокъметол - это музыко, от которово есть прок (ы)


Top
 Profile  
 
 
PostPosted: 10 Feb 2015 
Прокъмитолист
User avatar
Joined: 12 Aug 2007
Posts: 6545
Lоcаtion: Санктъ-Петербуркъ
Age: 51
Name: Олекъ
thorbeorn wrote:
Superior

и за этот спасибо! :thanx:

_________________
прокъметол - это музыко, от которово есть прок (ы)


Top
 Profile  
 
 
PostPosted: 11 Feb 2015 
Alive Again
User avatar
Joined: 17 Dec 2008
Posts: 4747
Lоcаtion: Курск Воронеж Оскол
Age: 44
Name: Дмитрий
За 2003 :thanx:


Top
 Profile E-mail  
 
 
PostPosted: 11 Feb 2015 
Alive Again
User avatar
Joined: 17 Dec 2008
Posts: 4747
Lоcаtion: Курск Воронеж Оскол
Age: 44
Name: Дмитрий
За 2008 :thanx:


Top
 Profile E-mail  
 
 
PostPosted: 11 Feb 2015 
Хиппей (support team)
User avatar
Joined: 30 Jul 2007
Posts: 111675
Lоcаtion: Киев (Kyiv, UA)
Age: 45
Name: Andrey
Здесь в 2003 звучание группы, как показалось, еще не такое жесткое (соло-гитарист примитивно и мягко как-то играет :vic: ), как будет в 08-м, но тоже весьма недурственно - быстро, злобно, трэшево и разнообразно :lob:

7/10

_________________


Top
 Profile E-mail  
 
 
PostPosted: 11 Feb 2015 
\m/ 80 см сала \m/
User avatar
Joined: 12 Mar 2012
Posts: 2590
Age: 26
Name: Nick
:thanx:
Серег, а альбом "Infamous Country" у тебя есть?

_________________
1990 AUROPHON BRAINSTORM (Germany) - lossless
1994 MAUSOLEUM CLASSIX (Belgium-Germany) - lossless
1998 VA - GRIM HARVEST - Complete Metal Massacre Volumes I-XII


Top
 Profile  
 
 
PostPosted: 12 Feb 2015 
Генеральный thrasher
User avatar
Joined: 03 Oct 2008
Posts: 3695
Lоcаtion: Ханты-Мансийский АО
Age: 44
Name: Сергей
Нет.Стоит дорого.Издан самой группой на CDR,если мне память не изменяет.Группа нравится,но дебют покупать не буду наверное.


Top
 Profile  
 
 
PostPosted: 03 May 2015 
Генеральный thrasher
User avatar
Joined: 03 Oct 2008
Posts: 3695
Lоcаtion: Ханты-Мансийский АО
Age: 44
Name: Сергей
Image

Year:2001
Style:Thrash Metal
Country:Brazil
Audio:Flac+Cue+Log+Scans
Size:140Mb
Source:my CD
Label:Self-Release

Tracklist:
01. Flesh And Blood 03:52
02. This Life 03:01
03. Infamous Country 03:17
04. Incorporating The Pain 02:37
05. My Revenger 03:42
06. Torment 02:17
07. Under World 02:51
08. Mother Fucker 02:26
09. Pain And Hate 02:11
10. Choose Your Guns 04:25

"Cue"
REM GENRE "Thrash Metal"
REM DATE 2001
REM DISCID 7507320A
REM COMMENT "ExactAudioCopy v0.99pb5"
PERFORMER "Flashover"
TITLE "Infamous Country"
FILE "Flashover - Infamous Country.flac" WAVE
TRACK 01 AUDIO
TITLE "Flesh And Blood"
PERFORMER "Flashover"
INDEX 01 00:00:00
TRACK 02 AUDIO
TITLE "This Life"
PERFORMER "Flashover"
INDEX 01 03:52:52
TRACK 03 AUDIO
TITLE "Infamous Country"
PERFORMER "Flashover"
INDEX 01 06:54:18
TRACK 04 AUDIO
TITLE "Incorporating The Pain"
PERFORMER "Flashover"
INDEX 01 10:11:22
TRACK 05 AUDIO
TITLE "My Revenger"
PERFORMER "Flashover"
INDEX 01 12:48:69
TRACK 06 AUDIO
TITLE "Torment"
PERFORMER "Flashover"
INDEX 01 16:31:04
TRACK 07 AUDIO
TITLE "Under World"
PERFORMER "Flashover"
INDEX 01 18:48:51
TRACK 08 AUDIO
TITLE "Mother Fucker"
PERFORMER "Flashover"
INDEX 01 21:40:08
TRACK 09 AUDIO
TITLE "Pain And Hate"
PERFORMER "Flashover"
INDEX 01 24:06:19
TRACK 10 AUDIO
TITLE "Choose Your Guns"
PERFORMER "Flashover"
INDEX 01 26:17:69

"Log"
Exact Audio Copy V0.99 prebeta 5 from 4. May 2009

Отчёт EAC об извлечении, выполненном 29. апреля 2015, 17:43

Flashover / Infamous Country

Дисковод: MATSHITADVD-RAM UJ8A0AS Adapter: 0 ID: 1

Режим чтения : Достоверность
Использование точного потока : Да
Отключение кэша аудио : Да
Использование указателей C2 : Нет

Коррекция смещения при чтении : 102
Способность читать области Lead-in и Lead-out : Нет
Заполнение пропущенных сэмплов тишиной : Да
Удаление блоков с тишиной в начале и конце : Нет
При вычислениях CRC использовались нулевые сэмплы : Да
Интерфейс : Встроенный Win32-интерфейс для Win NT/2000

Выходной формат : Пользовательский кодировщик
Выбранный битрейт : 1024 kBit/s
Качество : Высокий
Добавление ID3-тэга : Нет
Утилита сжатия : C:\Program Files\Exact Audio Copy\FLAC\FLAC.EXE
Дополнительные параметры : -6 -V -T "ARTIST=%a" -T "TITLE=%t" -T "ALBUM=%g" -T "DATE=%y" -T "TRACKNUMBER=%n" -T "GENRE=%m" -T "COMMENT=%e" %s -o %d


TOC извлечённого CD

Трек | Старт | Длительность | Начальный сектор | Конечный сектор
---------------------------------------------------------------------
1 | 0:00.00 | 3:52.52 | 0 | 17451
2 | 3:52.52 | 3:01.41 | 17452 | 31067
3 | 6:54.18 | 3:17.04 | 31068 | 45846
4 | 10:11.22 | 2:37.47 | 45847 | 57668
5 | 12:48.69 | 3:42.10 | 57669 | 74328
6 | 16:31.04 | 2:17.47 | 74329 | 84650
7 | 18:48.51 | 2:51.32 | 84651 | 97507
8 | 21:40.08 | 2:26.11 | 97508 | 108468
9 | 24:06.19 | 2:11.50 | 108469 | 118343
10 | 26:17.69 | 4:25.00 | 118344 | 138218


Характеристики диапазона извлечения и сообщения об ошибках

Выбранный диапазон

Имя файла C:\Users\эксперт\Music\Flashover - Infamous Country.wav

Пиковый уровень 100.0 %
Качество диапазона 100.0 %
CRC копии FAB1F5C4
Копирование... OK

Ошибок не произошло


AccurateRip: сводка

Трек 1 нет в базе данных
Трек 2 нет в базе данных
Трек 3 нет в базе данных
Трек 4 нет в базе данных
Трек 5 нет в базе данных
Трек 6 нет в базе данных
Трек 7 нет в базе данных
Трек 8 нет в базе данных
Трек 9 нет в базе данных
Трек 10 нет в базе данных

Ни одного трека нет в базе AccurateRip

Конец отчёта


Infamous Country

Всё-таки я не удержался и купил дебютник.Спасибо Димке за содействие!


Top
 Profile  
 
 
PostPosted: 03 May 2015 
Доктор энтомологии
User avatar
Joined: 22 Jan 2009
Posts: 9692
Lоcаtion: Даугавпилс
Age: 44
Name: Алексей
:thanx:


Top
 Profile  
 
 
PostPosted: 03 May 2015 
\m/ 80 см сала \m/
User avatar
Joined: 12 Mar 2012
Posts: 2590
Age: 26
Name: Nick
Image

_________________
1990 AUROPHON BRAINSTORM (Germany) - lossless
1994 MAUSOLEUM CLASSIX (Belgium-Germany) - lossless
1998 VA - GRIM HARVEST - Complete Metal Massacre Volumes I-XII


Top
 Profile  
 
 
PostPosted: 03 May 2015 
Прокъмитолист
User avatar
Joined: 12 Aug 2007
Posts: 6545
Lоcаtion: Санктъ-Петербуркъ
Age: 51
Name: Олекъ
:thanx:

_________________
прокъметол - это музыко, от которово есть прок (ы)


Top
 Profile  
 
 
PostPosted: 03 May 2015 
Хиппей (support team)
User avatar
Joined: 30 Jul 2007
Posts: 111675
Lоcаtion: Киев (Kyiv, UA)
Age: 45
Name: Andrey
:thanx:

Image Image Image Image Image

mirror: iFolder l Narod l M-Cloud

_________________


Top
 Profile E-mail  
 
Display posts from previous:  Sort by  
Post new topic Reply to topic  [ 34 posts ]  Go to page 1, 2  Next

All times are UTC + 3 hours


Who is online

Users browsing this forum: No registered users and 1 guest


You cannot post new topics in this forum
You cannot reply to topics in this forum
You cannot edit your posts in this forum
You cannot delete your posts in this forum
You cannot post attachments in this forum

Search for:
Яндекс.Метрика
Powered by phpBB © 2000, 2002, 2005, 2007 phpBB Group