\m/ 80's metal \m/

Информационно-аналитический форум "80 см пыли" (In Search We Trust) "У нас никто никуда не спешит"
Me For You - http://me-4u.com
It is currently 21 Jun 2019

All times are UTC + 3 hours

Spoiler
Chat - temporary registration for foreign users (please leave your application here)





Forum rules


Уважаемые пользователи ресурса, друзья, коллеги и гости нашего форума. Данный раздел конференции создан с целью рафинации, и посвящён такому стилевому направлению в музыке, как Thrash Metal во всех его проявлениях и ипостасях, а иногда и переходящему на пограничные стили Speed, Power, Groove, Crossover, MDM и т.п.
Главное правило здесь одно: Одна группа – одна тема! Всё остальное созвучно основным нормам поведения на конференции.
Шаблон оформления тем в этом подфоруме должен быть основан на данных сайта www.metal-archives.com и выглядеть следующим образом:

Группа (Страна) - Стилевые рамки - дискография
Slayer (USA) - Thrash Metal - дискография


В теме допустимо размещение всей информации касающейся данного коллектива: анонсы любых альбомов в любых форматах, запросы любых релизов коллектива (кроме релизов текущего и прошлого годов), обсуждения, обзоры, а в остальном всё как обычно. Уважаем друг друга, не грубим, соблюдаем нормы поведения на конференции, оформляем анонсы и запросы красиво и информативно, что бы модераторы не посчитали их троллингом, и не отправили куда положено, выписав Вам предупреждение или ещё что похуже… Прежде чем что-то запросить или запостить, пользуемся поиском! Пользуемся поиском! ПОЛЬЗУЕМСЯ ПОИСКОМ!!! Так слышно меня?.. :pardon:
Интересного, конструктивного и креативного общения! ;)

Image



Post new topic Reply to topic  [ 6 posts ] 
Author Message
 
PostPosted: 10 Feb 2015 
Генеральный thrasher
User avatar
Joined: 03 Oct 2008
Posts: 3711
Lоcаtion: Ханты-Мансийский АО
Age: 44
Name: Сергей
Image

Year:2014
Style:Thrash Metal
Country:Italy
Audio:Flac+Cue+Log+Scans
Size:319Mb
Source:my CD
Label:Punishment 18 Records

Tracklist:
01. The HogMosh - Nozno Strikes Back!!! 04:56
02. Faceless 03:15
03. Surfin' Beer 03:43
04. Breathalize And Destroy 04:27
05. System Aberration 05:05
06. Never Come Back Sober!!! 03:11
07. Antisocial Trap 04:25
08. Skating Madness 03:59
09. Mind Pollution 03:45
10. Stop Hit off the Ghetto - Join The Boar Party!!! 04:47

"Cue"
REM GENRE "Thrash Metal"
REM DATE 2014
REM DISCID 9C09C70A
REM COMMENT "ExactAudioCopy v0.99pb5"
PERFORMER "Alkoholizer"
TITLE "Free Beer...Surf's Up!!!"
FILE "Alkoholizer - Free Beer...Surf's Up!!!.flac" WAVE
TRACK 01 AUDIO
TITLE "The HogMosh - Nozno Strikes Back!!! "
PERFORMER "Alkoholizer"
FLAGS DCP
INDEX 01 00:00:00
TRACK 02 AUDIO
TITLE "Faceless"
PERFORMER "Alkoholizer"
FLAGS DCP
INDEX 01 04:56:26
TRACK 03 AUDIO
TITLE "Surfin' Beer"
PERFORMER "Alkoholizer"
FLAGS DCP
INDEX 00 08:11:72
INDEX 01 08:12:72
TRACK 04 AUDIO
TITLE "Breathalize and Destroy"
PERFORMER "Alkoholizer"
FLAGS DCP
INDEX 00 11:56:37
INDEX 01 11:57:37
INDEX 02 13:03:34
INDEX 03 13:03:39
INDEX 04 14:17:59
INDEX 05 14:37:10
INDEX 06 14:55:47
INDEX 07 15:56:02
TRACK 05 AUDIO
TITLE "System Aberration"
PERFORMER "Alkoholizer"
FLAGS DCP
INDEX 00 16:24:64
INDEX 01 16:25:64
TRACK 06 AUDIO
TITLE "Never Come Back Sober!!!"
PERFORMER "Alkoholizer"
FLAGS DCP
INDEX 01 21:31:27
TRACK 07 AUDIO
TITLE "Antisocial Trap"
PERFORMER "Alkoholizer"
FLAGS DCP
INDEX 01 24:42:63
INDEX 02 25:45:31
INDEX 03 25:45:37
INDEX 04 26:59:57
INDEX 05 27:19:08
INDEX 06 27:37:45
INDEX 07 28:37:74
TRACK 08 AUDIO
TITLE "Skating Madness"
PERFORMER "Alkoholizer"
FLAGS DCP
INDEX 01 29:08:34
TRACK 09 AUDIO
TITLE "Mind Pollution"
PERFORMER "Alkoholizer"
FLAGS DCP
INDEX 00 33:08:30
INDEX 01 33:09:30
TRACK 10 AUDIO
TITLE "Stop Hit off the Ghetto - Join the Boar Party!!!"
PERFORMER "Alkoholizer"
FLAGS DCP
INDEX 00 36:54:44
INDEX 01 36:55:44

"Log"
Exact Audio Copy V0.99 prebeta 5 from 4. May 2009

Отчёт EAC об извлечении, выполненном 10. февраля 2015, 13:23

Alkoholizer / Free Beer...Surf's Up!!!

Дисковод: MATSHITADVD-RAM UJ8A0AS Adapter: 0 ID: 1

Режим чтения : Достоверность
Использование точного потока : Да
Отключение кэша аудио : Да
Использование указателей C2 : Нет

Коррекция смещения при чтении : 102
Способность читать области Lead-in и Lead-out : Нет
Заполнение пропущенных сэмплов тишиной : Да
Удаление блоков с тишиной в начале и конце : Нет
При вычислениях CRC использовались нулевые сэмплы : Да
Интерфейс : Встроенный Win32-интерфейс для Win NT/2000

Выходной формат : Пользовательский кодировщик
Выбранный битрейт : 1024 kBit/s
Качество : Высокий
Добавление ID3-тэга : Нет
Утилита сжатия : C:\Program Files\Exact Audio Copy\FLAC\FLAC.EXE
Дополнительные параметры : -6 -V -T "ARTIST=%a" -T "TITLE=%t" -T "ALBUM=%g" -T "DATE=%y" -T "TRACKNUMBER=%n" -T "GENRE=%m" -T "COMMENT=%e" %s -o %d


TOC извлечённого CD

Трек | Старт | Длительность | Начальный сектор | Конечный сектор
---------------------------------------------------------------------
1 | 0:00.00 | 4:56.26 | 0 | 22225
2 | 4:56.26 | 3:16.46 | 22226 | 36971
3 | 8:12.72 | 3:44.40 | 36972 | 53811
4 | 11:57.37 | 4:28.27 | 53812 | 73938
5 | 16:25.64 | 5:05.38 | 73939 | 96851
6 | 21:31.27 | 3:11.36 | 96852 | 111212
7 | 24:42.63 | 4:25.46 | 111213 | 131133
8 | 29:08.34 | 4:00.71 | 131134 | 149204
9 | 33:09.30 | 3:46.14 | 149205 | 166168
10 | 36:55.44 | 4:47.59 | 166169 | 187752


Характеристики диапазона извлечения и сообщения об ошибках

Выбранный диапазон

Имя файла C:\Users\эксперт\Music\Alkoholizer - Free Beer...Surf's Up!!!.wav

Пиковый уровень 100.0 %
Качество диапазона 100.0 %
CRC копии B2E3C1D6
Копирование... OK

Ошибок не произошло


AccurateRip: сводка

Трек 1 точность не определена (достоверность 1) [03E5BEA0], AccurateRip вернул [9F0572FD]
Трек 2 точность не определена (достоверность 1) [A3DA3C6E], AccurateRip вернул [6FBCFD98]
Трек 3 точность не определена (достоверность 1) [0E34BA06], AccurateRip вернул [87341156]
Трек 4 точность не определена (достоверность 1) [B697562C], AccurateRip вернул [A0160428]
Трек 5 точность не определена (достоверность 1) [AAF6D585], AccurateRip вернул [E1B35BF5]
Трек 6 точность не определена (достоверность 1) [5FA0154A], AccurateRip вернул [36A99C2A]
Трек 7 точность не определена (достоверность 1) [6CE4FDD1], AccurateRip вернул [07721EDC]
Трек 8 точность не определена (достоверность 1) [5780FE54], AccurateRip вернул [DB99AC0E]
Трек 9 точность не определена (достоверность 1) [3143CF0B], AccurateRip вернул [D7963B8E]
Трек 10 точность не определена (достоверность 1) [AF41AFD7], AccurateRip вернул [1800BC05]

Ни один трек не прошёл проверки на точность
В вашей базе может быть иной вариант штамповки диска

Конец отчёта


Free Beer...Surf's Up!!!


Top
 Profile  
 
 
PostPosted: 10 Feb 2015 
\m/ 80 см сала \m/
User avatar
Joined: 12 Mar 2012
Posts: 2590
Age: 26
Name: Nick
:thanx:

_________________
1990 AUROPHON BRAINSTORM (Germany) - lossless
1994 MAUSOLEUM CLASSIX (Belgium-Germany) - lossless
1998 VA - GRIM HARVEST - Complete Metal Massacre Volumes I-XII


Top
 Profile  
 
 
PostPosted: 10 Feb 2015 
А может смените мне статус?..
User avatar
Joined: 02 Feb 2009
Posts: 999
Lоcаtion: из Тулы
Age: 45
Name: Максим
:true: :thanx:

_________________
КМА


Top
 Profile  
 
 
PostPosted: 10 Feb 2015 
Прокъмитолист
User avatar
Joined: 12 Aug 2007
Posts: 6557
Lоcаtion: Санктъ-Петербуркъ
Age: 51
Name: Олекъ
спасибо! :thanx:

_________________
прокъметол - это музыко, от которово есть прок (ы)


Top
 Profile  
 
 
PostPosted: 10 Feb 2015 
Хиппей (support team)
User avatar
Joined: 30 Jul 2007
Posts: 113091
Lоcаtion: Киев (Kyiv, UA)
Age: 46
Name: Andrey
:thanx:

mirror: Narod l M-Cloud


Как-то уже слушал их. Не впечатлился. Вроде... :vic:

_________________


Top
 Profile E-mail  
 
 
PostPosted: 11 Feb 2015 
Alive Again
User avatar
Joined: 17 Dec 2008
Posts: 4747
Lоcаtion: Курск Воронеж Оскол
Age: 44
Name: Дмитрий
:thanx:


Top
 Profile E-mail  
 
Display posts from previous:  Sort by  
Post new topic Reply to topic  [ 6 posts ] 

All times are UTC + 3 hours


Who is online

Users browsing this forum: No registered users and 2 guests


You cannot post new topics in this forum
You cannot reply to topics in this forum
You cannot edit your posts in this forum
You cannot delete your posts in this forum
You cannot post attachments in this forum

Search for:
Яндекс.Метрика
Powered by phpBB © 2000, 2002, 2005, 2007 phpBB Group