\m/ 80's metal \m/

Информационно-аналитический форум "80 см пыли" (In Search We Trust) "У нас никто никуда не спешит"
Me For You - http://me-4u.com
It is currently 19 Apr 2019

All times are UTC + 3 hours

Spoiler
Chat - temporary registration for foreign users (please leave your application here)





Forum rules


Уважаемые пользователи ресурса, друзья, коллеги и гости нашего форума. Данный раздел конференции создан с целью рафинации, и посвящён такому стилевому направлению в музыке, как Thrash Metal во всех его проявлениях и ипостасях, а иногда и переходящему на пограничные стили Speed, Power, Groove, Crossover, MDM и т.п.
Главное правило здесь одно: Одна группа – одна тема! Всё остальное созвучно основным нормам поведения на конференции.
Шаблон оформления тем в этом подфоруме должен быть основан на данных сайта www.metal-archives.com и выглядеть следующим образом:

Группа (Страна) - Стилевые рамки - дискография
Slayer (USA) - Thrash Metal - дискография


В теме допустимо размещение всей информации касающейся данного коллектива: анонсы любых альбомов в любых форматах, запросы любых релизов коллектива (кроме релизов текущего и прошлого годов), обсуждения, обзоры, а в остальном всё как обычно. Уважаем друг друга, не грубим, соблюдаем нормы поведения на конференции, оформляем анонсы и запросы красиво и информативно, что бы модераторы не посчитали их троллингом, и не отправили куда положено, выписав Вам предупреждение или ещё что похуже… Прежде чем что-то запросить или запостить, пользуемся поиском! Пользуемся поиском! ПОЛЬЗУЕМСЯ ПОИСКОМ!!! Так слышно меня?.. :pardon:
Интересного, конструктивного и креативного общения! ;)

Image



Post new topic Reply to topic  [ 77 posts ]  Go to page Previous  1, 2, 3, 4  Next
Author Message
 
PostPosted: 19 Aug 2014 
Хиппей (support team)
User avatar
Joined: 30 Jul 2007
Posts: 111675
Lоcаtion: Киев (Kyiv, UA)
Age: 45
Name: Andrey
:thanx: А ссылку на самого лосика можно еще? =)

_________________


Top
 Profile E-mail  
 
 
PostPosted: 04 Dec 2014 
Генеральный thrasher
User avatar
Joined: 03 Oct 2008
Posts: 3695
Lоcаtion: Ханты-Мансийский АО
Age: 44
Name: Сергей
Первая работа бразильцев.Данный EP был выпущен в 1989 году лейблом RSL только на виниле и состоял из шести трэков.В 2011 году ремастирован и выпущен на CD фирмой Marquee Records.В качестве бонусов добавлены демо-ленты "Tomorrow Soldiers" и "No Man's Land,записанные в 1993 и 1994 годах.Таким образом епишка распухла и превратилась в полнометражник.

Image

Year:1989 (2011 Remastered)
Style:Thrash Metal
Country:Brazil
Audio:Flac+Cue+Log+Scans
Size:409Mb
Source:my CD
Label:Marquee Records

Line-Up:
Chico Comelli - bass
Eric Weber - guitars
Marcos V. - guitars
Robson Goulart - vocals
Alessandro Jannuzzi - drums

Tracklist:
01. Choose Live or Die 03:33
02. Scourge of the Gods 04:55
03. Terminator 04:51
04. The Madness 01:39
05. Why?...Dirty War 05:08
06. Never Renounce 04:53
1993 Tomorrow Soldiers (Demo)
07. Right Time to Die 04:53
08. Tomorrow Soldiers 04:46
09. Monster of ID 03:33
1994 No Man's Land (Demo)
10. No Man's Land 03:51
11. Timeless Pain 05:44
12. Only the Strong Survive 05:08

"Cue"
REM GENRE "Thrash Metal"
REM DATE 2011
REM DISCID 920C6B0C
REM COMMENT "ExactAudioCopy v0.99pb5"
PERFORMER "Acid Storm"
TITLE "Why?...Dirty War"
FILE "Acid Storm - Why ...Dirty War.flac" WAVE
TRACK 01 AUDIO
TITLE "Choose Live or Die"
PERFORMER "Acid Storm"
INDEX 01 00:00:00
TRACK 02 AUDIO
TITLE "Scourge of the Gods"
PERFORMER "Acid Storm"
INDEX 01 03:33:63
TRACK 03 AUDIO
TITLE "Terminator"
PERFORMER "Acid Storm"
INDEX 01 08:29:02
TRACK 04 AUDIO
TITLE "The Madness"
PERFORMER "Acid Storm"
INDEX 01 13:20:24
TRACK 05 AUDIO
TITLE "Why?...Dirty War"
PERFORMER "Acid Storm"
INDEX 01 15:00:09
TRACK 06 AUDIO
TITLE "Never Renounce"
PERFORMER "Acid Storm"
INDEX 01 20:08:73
TRACK 07 AUDIO
TITLE "Right Time to Die"
PERFORMER "Acid Storm"
INDEX 01 25:02:55
TRACK 08 AUDIO
TITLE "Tomorrow Soldiers"
PERFORMER "Acid Storm"
INDEX 01 29:55:57
TRACK 09 AUDIO
TITLE "Monster of ID"
PERFORMER "Acid Storm"
INDEX 01 34:42:20
TRACK 10 AUDIO
TITLE "No Man's Land"
PERFORMER "Acid Storm"
INDEX 01 38:15:25
TRACK 11 AUDIO
TITLE "Timeless Pain"
PERFORMER "Acid Storm"
INDEX 01 42:06:40
TRACK 12 AUDIO
TITLE "Only the Strong Survive"
PERFORMER "Acid Storm"
INDEX 01 47:50:73

"Log"
Exact Audio Copy V0.99 prebeta 5 from 4. May 2009

Отчёт EAC об извлечении, выполненном 30. июля 2013, 11:17

Acid Storm / Why?...Dirty War

Дисковод: MATSHITADVD-RAM UJ8A0AS Adapter: 0 ID: 1

Режим чтения : Достоверность
Использование точного потока : Да
Отключение кэша аудио : Да
Использование указателей C2 : Нет

Коррекция смещения при чтении : 102
Способность читать области Lead-in и Lead-out : Нет
Заполнение пропущенных сэмплов тишиной : Да
Удаление блоков с тишиной в начале и конце : Нет
При вычислениях CRC использовались нулевые сэмплы : Да
Интерфейс : Встроенный Win32-интерфейс для Win NT/2000

Выходной формат : Пользовательский кодировщик
Выбранный битрейт : 1024 kBit/s
Качество : Высокий
Добавление ID3-тэга : Нет
Утилита сжатия : C:\Program Files\Exact Audio Copy\FLAC\FLAC.EXE
Дополнительные параметры : -6 -V -T "ARTIST=%a" -T "TITLE=%t" -T "ALBUM=%g" -T "DATE=%y" -T "TRACKNUMBER=%n" -T "GENRE=%m" -T "COMMENT=%e" %s -o %d


TOC извлечённого CD

Трек | Старт | Длительность | Начальный сектор | Конечный сектор
---------------------------------------------------------------------
1 | 0:00.00 | 3:33.63 | 0 | 16037
2 | 3:33.63 | 4:55.14 | 16038 | 38176
3 | 8:29.02 | 4:51.22 | 38177 | 60023
4 | 13:20.24 | 1:39.60 | 60024 | 67508
5 | 15:00.09 | 5:08.64 | 67509 | 90672
6 | 20:08.73 | 4:53.57 | 90673 | 112704
7 | 25:02.55 | 4:53.02 | 112705 | 134681
8 | 29:55.57 | 4:46.38 | 134682 | 156169
9 | 34:42.20 | 3:33.05 | 156170 | 172149
10 | 38:15.25 | 3:51.15 | 172150 | 189489
11 | 42:06.40 | 5:44.33 | 189490 | 215322
12 | 47:50.73 | 5:08.06 | 215323 | 238428


Характеристики диапазона извлечения и сообщения об ошибках

Выбранный диапазон

Имя файла C:\Users\эксперт\Music\Acid Storm - Why ...Dirty War.wav

Пиковый уровень 98.8 %
Качество диапазона 100.0 %
CRC копии C5F9D2F2
Копирование... OK

Ошибок не произошло


AccurateRip: сводка

Трек 1 нет в базе данных
Трек 2 нет в базе данных
Трек 3 нет в базе данных
Трек 4 нет в базе данных
Трек 5 нет в базе данных
Трек 6 нет в базе данных
Трек 7 нет в базе данных
Трек 8 нет в базе данных
Трек 9 нет в базе данных
Трек 10 нет в базе данных
Трек 11 нет в базе данных
Трек 12 нет в базе данных

Ни одного трека нет в базе AccurateRip

Конец отчёта


Why?...Dirty War


Last edited by thorbeorn on 24 Mar 2017, edited 1 time in total.

Top
 Profile  
 
 
PostPosted: 04 Dec 2014 
Генеральный thrasher
User avatar
Joined: 03 Oct 2008
Posts: 3695
Lоcаtion: Ханты-Мансийский АО
Age: 44
Name: Сергей
:lloo: "Why?... Dirty War" здесь - viewtopic.php?f=174&t=12640&hilit=acid+storm


Top
 Profile  
 
 
PostPosted: 04 Dec 2014 
А может смените мне статус?..
User avatar
Joined: 02 Feb 2009
Posts: 999
Lоcаtion: из Тулы
Age: 44
Name: Максим
а вот ссылка на мой рип здесь

_________________
КМА


Top
 Profile  
 
 
PostPosted: 04 Dec 2014 
Прокъмитолист
User avatar
Joined: 12 Aug 2007
Posts: 6545
Lоcаtion: Санктъ-Петербуркъ
Age: 51
Name: Олекъ
:thanx:

_________________
прокъметол - это музыко, от которово есть прок (ы)


Top
 Profile  
 
 
PostPosted: 04 Dec 2014 
Хиппей (support team)
User avatar
Joined: 30 Jul 2007
Posts: 111675
Lоcаtion: Киев (Kyiv, UA)
Age: 45
Name: Andrey
:thanx:


Ура, и Серёга начал лить через почту :dance:

_________________


Top
 Profile E-mail  
 
 
PostPosted: 04 Dec 2014 
Генеральный thrasher
User avatar
Joined: 03 Oct 2008
Posts: 3695
Lоcаtion: Ханты-Мансийский АО
Age: 44
Name: Сергей
Таким образом запрос закрыт.


Top
 Profile  
 
 
PostPosted: 04 Dec 2014 
Хиппей (support team)
User avatar
Joined: 30 Jul 2007
Posts: 111675
Lоcаtion: Киев (Kyiv, UA)
Age: 45
Name: Andrey
:thanx:

Рекс снят.

_________________


Top
 Profile E-mail  
 
 
PostPosted: 23 Mar 2017 
Генеральный thrasher
User avatar
Joined: 03 Oct 2008
Posts: 3695
Lоcаtion: Ханты-Мансийский АО
Age: 44
Name: Сергей
Сегодня забрал с почты переиздание полнометражника Biotronic Genesis...


Top
 Profile  
 
 
PostPosted: 23 Mar 2017 
консэрваторъ
Joined: 11 Aug 2007
Posts: 16807
Lоcаtion: Псков
Age: 45
Name: Сергей
Стесняюсь спросить... будет?.. :oops:

_________________
THRASH 'EM ALL


Top
 Profile E-mail  
 
 
PostPosted: 24 Mar 2017 
Генеральный thrasher
User avatar
Joined: 03 Oct 2008
Posts: 3695
Lоcаtion: Ханты-Мансийский АО
Age: 44
Name: Сергей
Не надо стесняться.Будет... :true:


Top
 Profile  
 
 
PostPosted: 24 Mar 2017 
Генеральный thrasher
User avatar
Joined: 03 Oct 2008
Posts: 3695
Lоcаtion: Ханты-Мансийский АО
Age: 44
Name: Сергей
Image

Year:1991 (2016 Re-Issue)
Style:Thrash Metal
Country:Brazil
Archive:Flac+Cue+Log+Scans
Source:my CD
Size:336Mb
Label:Vingança Music

Tracklist:
01. Intro (The Beginning) 00:41
02. Metal Beasts 04:12
03. Hungry For Life 04:12
04. Symbiotic Love - Last Days Of Paradise 06:52
05. Galatic Holocaust 06:43
06. Biologic Mechanization 02:56
07. Star Host 07:49
1991 Last Days of Paradise (Demo)
08. Metal Beasts 04:19
09. Biologic Mechanization 03:02
10. Last Days Of Paradise 04:59
11. Galactic Holocaust 06:50

"Cue"
REM GENRE "Thrash Metal"
REM DATE 2016
REM DISCID 9C0C540B
REM COMMENT "ExactAudioCopy v1.1"
PERFORMER "Acid Storm"
TITLE "Biotronic Genesis"
FILE "Acid Storm - Biotronic Genesis.flac" WAVE
TRACK 01 AUDIO
TITLE "Intro (The Beginning)"
PERFORMER "Acid Storm"
FLAGS DCP
INDEX 01 00:00:00
TRACK 02 AUDIO
TITLE "Metal Beasts"
PERFORMER "Acid Storm"
FLAGS DCP
INDEX 01 00:41:16
TRACK 03 AUDIO
TITLE "Hungry For Life"
PERFORMER "Acid Storm"
FLAGS DCP
INDEX 01 04:52:63
TRACK 04 AUDIO
TITLE "Symbiotic Love - Last Days of Paradise"
PERFORMER "Acid Storm"
FLAGS DCP
INDEX 01 09:05:18
TRACK 05 AUDIO
TITLE "Galatic Holocaust"
PERFORMER "Acid Storm"
FLAGS DCP
INDEX 01 15:57:10
INDEX 02 22:40:11
TRACK 06 AUDIO
TITLE "Biologic Mechanization"
PERFORMER "Acid Storm"
FLAGS DCP
INDEX 01 22:40:12
TRACK 07 AUDIO
TITLE "Star Host"
PERFORMER "Acid Storm"
FLAGS DCP
INDEX 01 25:36:35
TRACK 08 AUDIO
TITLE "Metal Beasts"
PERFORMER "Acid Storm"
FLAGS DCP
INDEX 01 33:25:56
TRACK 09 AUDIO
TITLE "Biologic Mechanization"
PERFORMER "Acid Storm"
FLAGS DCP
INDEX 01 37:45:12
TRACK 10 AUDIO
TITLE "Last Days Of Paradise"
PERFORMER "Acid Storm"
FLAGS DCP
INDEX 01 40:46:55
TRACK 11 AUDIO
TITLE "Galactic Holocaust"
PERFORMER "Acid Storm"
FLAGS DCP
INDEX 01 45:45:60

"Log"
Exact Audio Copy V1.1 from 23. June 2015

Отчёт EAC об извлечении, выполненном 23. марта 2017, 9:49

Acid Storm / Biotronic Genesis

Дисковод: HL-DT-STDVDRAM GTA0N Adapter: 1 ID: 0

Режим чтения : Достоверность
Использование точного потока : Да
Отключение кэша аудио : Да
Использование указателей C2 : Нет

Коррекция смещения при чтении : 102
Способность читать области Lead-in и Lead-out : Нет
Заполнение пропущенных сэмплов тишиной : Да
Удаление блоков с тишиной в начале и конце : Нет
При вычислениях CRC использовались нулевые сэмплы : Да
Интерфейс : Встроенный Win32-интерфейс для Win NT/2000

Выходной формат : Пользовательский кодировщик
Выбранный битрейт : 768 kBit/s
Качество : Высокий
Добавление ID3-тега : Нет
Утилита сжатия : C:\Program Files (x86)\Exact Audio Copy\FLAC\FLAC.EXE
Дополнительные параметры : -V -8 -T "Date=%year%" -T "Genre=%genre%" %source%


TOC извлечённого CD

Трек | Старт | Длительность | Начальный сектор | Конечный сектор
---------------------------------------------------------------------
1 | 0:00.00 | 0:41.16 | 0 | 3090
2 | 0:41.16 | 4:11.47 | 3091 | 21962
3 | 4:52.63 | 4:12.30 | 21963 | 40892
4 | 9:05.18 | 6:51.67 | 40893 | 71784
5 | 15:57.10 | 6:43.02 | 71785 | 102011
6 | 22:40.12 | 2:56.23 | 102012 | 115234
7 | 25:36.35 | 7:49.21 | 115235 | 150430
8 | 33:25.56 | 4:19.31 | 150431 | 169886
9 | 37:45.12 | 3:01.43 | 169887 | 183504
10 | 40:46.55 | 4:59.05 | 183505 | 205934
11 | 45:45.60 | 6:50.26 | 205935 | 236710


Характеристики диапазона извлечения и сообщения об ошибках

Выбранный диапазон

Имя файла C:\Users\магазин\Music\Acid Storm - Biotronic Genesis.wav

Пиковый уровень 100.0 %
Скорость извлечения 3.5 X
Качество диапазона 100.0 %
CRC теста 7EA4896B
CRC копии 7EA4896B
Копирование... OK

Ошибок не произошло


AccurateRip: сводка

Трек 1 отсутствует в базе данных
Трек 2 отсутствует в базе данных
Трек 3 отсутствует в базе данных
Трек 4 отсутствует в базе данных
Трек 5 отсутствует в базе данных
Трек 6 отсутствует в базе данных
Трек 7 отсутствует в базе данных
Трек 8 отсутствует в базе данных
Трек 9 отсутствует в базе данных
Трек 10 отсутствует в базе данных
Трек 11 отсутствует в базе данных

Ни одного трека нет в базе AccurateRip

Конец отчёта

---- CUETools DB Plugin V2.1.6

[CTDB TOCID: ItN6t9xifv7qqLbOQ9iAumtsYvo-] disk not present in database
Submit result: ItN6t9xifv7qqLbOQ9iAumtsYvo- has been uploaded


Biotronic Genesis


Top
 Profile  
 
 
PostPosted: 24 Mar 2017 
Прокъмитолист
User avatar
Joined: 12 Aug 2007
Posts: 6545
Lоcаtion: Санктъ-Петербуркъ
Age: 51
Name: Олекъ
:thanx:

_________________
прокъметол - это музыко, от которово есть прок (ы)


Top
 Profile  
 
 
PostPosted: 24 Mar 2017 
Хиппей (support team)
User avatar
Joined: 30 Jul 2007
Posts: 111675
Lоcаtion: Киев (Kyiv, UA)
Age: 45
Name: Andrey
thorbeorn wrote:
Biotronic Genesis

:thanx:

mirror: Depos l Narod l M-Cloud

_________________


Top
 Profile E-mail  
 
 
PostPosted: 24 Mar 2017 
консэрваторъ
Joined: 11 Aug 2007
Posts: 16807
Lоcаtion: Псков
Age: 45
Name: Сергей
Ну а это я не глядя... :true:

_________________
THRASH 'EM ALL


Top
 Profile E-mail  
 
 
PostPosted: 25 Mar 2017 
консэрваторъ
Joined: 11 Aug 2007
Posts: 16807
Lоcаtion: Псков
Age: 45
Name: Сергей
Андрей, а не влить ли нам сюда целиком старинный мптрёвый запрос?.. :arrov: viewtopic.php?f=102&t=4511
Ажно 9-ого года выпуска... :shok: Я б подремонил всё красиво, он ляжет акурат вверх полностью... "ОГ = ОТ"...
Эдакий памятник Рустаму будет... :oops:

_________________
THRASH 'EM ALL


Top
 Profile E-mail  
 
 
PostPosted: 25 Mar 2017 
Генеральный thrasher
User avatar
Joined: 03 Oct 2008
Posts: 3695
Lоcаtion: Ханты-Мансийский АО
Age: 44
Name: Сергей
Спектры отвратные у альбома и определяется он как mpeg.Вот он мастеринг по бразильски! :cry:


Top
 Profile  
 
 
PostPosted: 25 Mar 2017 
консэрваторъ
Joined: 11 Aug 2007
Posts: 16807
Lоcаtion: Псков
Age: 45
Name: Сергей
Кстати, винил 89-ого был миспринтовым... опечатка в песне 2. Scourgue of the Gods правильно писать 2. Scourge of the Gods на переиздание это исправлено... Отсюда опечатка перетекла и на МА, на авторскую редакцию это никак не тянет... :pardon:

Image

_________________
THRASH 'EM ALL


Top
 Profile E-mail  
 
 
PostPosted: 25 Mar 2017 
консэрваторъ
Joined: 11 Aug 2007
Posts: 16807
Lоcаtion: Псков
Age: 45
Name: Сергей
И не понимаю, зачем тупо брать запиленный пласт 89-ого года, чутка поднимать уровень и закатывать его на цид?.. Серёг, это не просто ремастеринг по бразильски, а членовредительство по ихнему... :( А в реме Биотроника всё ещё хуже штоль?.. :(

_________________
THRASH 'EM ALL


Top
 Profile E-mail  
 
 
PostPosted: 25 Mar 2017 
Генеральный thrasher
User avatar
Joined: 03 Oct 2008
Posts: 3695
Lоcаtion: Ханты-Мансийский АО
Age: 44
Name: Сергей
"Спектры 1991 Biotronic Genesis (Remaster 2016)"
Image

Image


Top
 Profile  
 
Display posts from previous:  Sort by  
Post new topic Reply to topic  [ 77 posts ]  Go to page Previous  1, 2, 3, 4  Next

All times are UTC + 3 hours


Who is online

Users browsing this forum: No registered users and 3 guests


You cannot post new topics in this forum
You cannot reply to topics in this forum
You cannot edit your posts in this forum
You cannot delete your posts in this forum
You cannot post attachments in this forum

Search for:
Яндекс.Метрика
Powered by phpBB © 2000, 2002, 2005, 2007 phpBB Group