\m/ 80's metal \m/

Информационно-аналитический форум "80 см пыли" (In Search We Trust) "У нас никто никуда не спешит"
Me For You - http://me-4u.com
It is currently 19 Apr 2019

All times are UTC + 3 hours

Spoiler
Chat - temporary registration for foreign users (please leave your application here)





Forum rules


Уважаемые пользователи ресурса, друзья, коллеги и гости нашего форума. Данный раздел конференции создан с целью рафинации, и посвящён такому стилевому направлению в музыке, как Thrash Metal во всех его проявлениях и ипостасях, а иногда и переходящему на пограничные стили Speed, Power, Groove, Crossover, MDM и т.п.
Главное правило здесь одно: Одна группа – одна тема! Всё остальное созвучно основным нормам поведения на конференции.
Шаблон оформления тем в этом подфоруме должен быть основан на данных сайта www.metal-archives.com и выглядеть следующим образом:

Группа (Страна) - Стилевые рамки - дискография
Slayer (USA) - Thrash Metal - дискография


В теме допустимо размещение всей информации касающейся данного коллектива: анонсы любых альбомов в любых форматах, запросы любых релизов коллектива (кроме релизов текущего и прошлого годов), обсуждения, обзоры, а в остальном всё как обычно. Уважаем друг друга, не грубим, соблюдаем нормы поведения на конференции, оформляем анонсы и запросы красиво и информативно, что бы модераторы не посчитали их троллингом, и не отправили куда положено, выписав Вам предупреждение или ещё что похуже… Прежде чем что-то запросить или запостить, пользуемся поиском! Пользуемся поиском! ПОЛЬЗУЕМСЯ ПОИСКОМ!!! Так слышно меня?.. :pardon:
Интересного, конструктивного и креативного общения! ;)

Image



Post new topic Reply to topic  [ 8 posts ] 
Author Message
 
PostPosted: 20 Oct 2014 
Доктор энтомологии
User avatar
Joined: 22 Jan 2009
Posts: 9692
Lоcаtion: Даугавпилс
Age: 44
Name: Алексей
Thrashless 2013 Trip of Death

Image

1. Intro 01:33
2. Mental Slaughter 03:07
3. Vodka Attack 03:51
4. No Forgiveness 02:42
5. We Burn Your House 02:54
6. Unholy Destruction Forever 03:52
7. Deconstructing Humanity 02:47
8. In My Darkest Dreams 04:04
9. Pure Warfare 04:10
10. Trip of Death 03:32

Заценил вот давеча по латышским рекомедациям эстонскую молодежную ВИА, исполняющих трэш старого разлива. Второй их альбом, первый пока еще не слушал. Понамешано тут мало много чего, ориентация в основном на трэш-сцену америкосовского разлива по типу Slayer, естесственно, года так 88, плюс что-то от еуропэйцев (Artillery к примеру и чегой то поскоростней, не могу вспомнить тут же.... Tankard? :meloman: ). Все темы в основном скоростные, слушается легко и непринужденно. В общем - продукт применимый в употребление. Альбом - короткий :true: Трио, а вокалируют - все!

Thrashless-Mental Slaughter (Official song 2013) | +

Thrashless - Vodka Attack (official music video 2013) | +

Пысы. Потыкал предыдущий альбомец - те же яйцы! :true: :true: :true:


Top
 Profile  
 
 
PostPosted: 03 Aug 2017 
Доктор энтомологии
User avatar
Joined: 22 Jan 2009
Posts: 9692
Lоcаtion: Даугавпилс
Age: 44
Name: Алексей
Еще одни прибалтийские трэшера, на этот раз из Эстонии


Top
 Profile  
 
 
PostPosted: 03 Aug 2017 
Доктор энтомологии
User avatar
Joined: 22 Jan 2009
Posts: 9692
Lоcаtion: Даугавпилс
Age: 44
Name: Алексей
Альбом за 2014 еще появился :crazy: Не слушал пока, в очереди

Thrashless 2014 Cult of Fear

Image

https://tallinn.bandcamp.com/album/cult-of-fear

Thrashless - Drink Em All | +

Последняя песенка явно по Танкарду :kro:


Top
 Profile  
 
 
PostPosted: 03 Aug 2017 
Я набрал 1000 сообщений!
Joined: 09 Jul 2008
Posts: 2719
Age: 45
Name: Сергей
2014 поинтереснее будет


Top
 Profile  
 
 
PostPosted: 04 Aug 2017 
консэрваторъ
Joined: 11 Aug 2007
Posts: 16807
Lоcаtion: Псков
Age: 45
Name: Сергей
Лёш, переносить в трасх?..

_________________
THRASH 'EM ALL


Top
 Profile E-mail  
 
 
PostPosted: 04 Aug 2017 
Доктор энтомологии
User avatar
Joined: 22 Jan 2009
Posts: 9692
Lоcаtion: Даугавпилс
Age: 44
Name: Алексей
да, конечно :lob:


Top
 Profile  
 
 
PostPosted: 05 Aug 2017 
консэрваторъ
Joined: 11 Aug 2007
Posts: 16807
Lоcаtion: Псков
Age: 45
Name: Сергей
Сделато... Я их тоже подсоберу, понравились... :oops:
Всё что есть по трактору :arrov: https://rutracker.org/forum/tracker.php?nm=Thrashless

_________________
THRASH 'EM ALL


Top
 Profile E-mail  
 
 
PostPosted: 22 Feb 2018 
Хиппей (support team)
User avatar
Joined: 30 Jul 2007
Posts: 111675
Lоcаtion: Киев (Kyiv, UA)
Age: 45
Name: Andrey
Entomologist wrote:
Thrashless 2014 Cult of Fear

Как бы логическое продолжение музыки класических альбомов ансамбля Sepultura 88-91 годов, но без участия самих бразильцев.
Вышло вроде хорошо - скорость есть, мощь тоже, вокал иной конечно, манера пения близка весьма. Но вот очередной клон и низковатая техническая база не дают слушать этот альбом с полным кайфом и наслаждаться им же.

Просто очередная неплохая копия без какого-либо развития тем :pardon:

6/10

Thrashless - 2014 - Cult Of Fear [flac]

Image Image Image

mirror: Depos l Drop l Narod l M-Cloud

Image Image Image

Image Image Image

log
Exact Audio Copy V1.0 beta 3 from 29. August 2011

EAC extraction logfile from 23. July 2016, 17:44

Thrashless / Cult Of Fear

Used drive : Optiarc DVD RW AD-7260S Adapter: 1 ID: 1

Read mode : Secure
Utilize accurate stream : Yes
Defeat audio cache : Yes
Make use of C2 pointers : No

Read offset correction : 48
Overread into Lead-In and Lead-Out : No
Fill up missing offset samples with silence : Yes
Delete leading and trailing silent blocks : No
Null samples used in CRC calculations : Yes
Used interface : Native Win32 interface for Win NT & 2000

Used output format : Internal WAV Routines
Sample format : 44.100 Hz; 16 Bit; Stereo


TOC of the extracted CD

Track | Start | Length | Start sector | End sector
---------------------------------------------------------
1 | 0:00.00 | 3:00.29 | 0 | 13528
2 | 3:00.29 | 3:02.62 | 13529 | 27240
3 | 6:03.16 | 3:44.51 | 27241 | 44091
4 | 9:47.67 | 3:22.56 | 44092 | 59297
5 | 13:10.48 | 2:47.58 | 59298 | 71880
6 | 15:58.31 | 3:06.68 | 71881 | 85898
7 | 19:05.24 | 3:03.74 | 85899 | 99697
8 | 22:09.23 | 3:18.11 | 99698 | 114558
9 | 25:27.34 | 3:00.21 | 114559 | 128079
10 | 28:27.55 | 3:12.33 | 128080 | 142512


Range status and errors

Selected range

Filename C:\Мои документы\Thrashless - 2014 - Cult Of Fear.wav

Peak level 97.5 %
Extraction speed 3.4 X
Range quality 100.0 %
Test CRC 45A992EC
Copy CRC 45A992EC
Copy OK

No errors occurred


AccurateRip summary

Track 1 accurately ripped (confidence 1) [2F3C5345] (AR v2)
Track 2 accurately ripped (confidence 1) [B6EC9AD6] (AR v2)
Track 3 accurately ripped (confidence 1) [81468F5B] (AR v2)
Track 4 accurately ripped (confidence 1) [F55EDD1F] (AR v2)
Track 5 accurately ripped (confidence 1) [B16A059F] (AR v2)
Track 6 accurately ripped (confidence 1) [50003700] (AR v2)
Track 7 accurately ripped (confidence 1) [19832A39] (AR v2)
Track 8 accurately ripped (confidence 1) [7140811A] (AR v2)
Track 9 accurately ripped (confidence 1) [F62E9747] (AR v2)
Track 10 accurately ripped (confidence 1) [CD3C53BB] (AR v2)

All tracks accurately ripped

End of status report

---- CUETools DB Plugin V2.1.4

[CTDB TOCID: NOajXPLXcWf27syBP9OQPB0i7ng-] found
Submit result: NOajXPLXcWf27syBP9OQPB0i7ng- has been confirmed
Track | CTDB Status
1 | (1/1) Accurately ripped
2 | (1/1) Accurately ripped
3 | (1/1) Accurately ripped
4 | (1/1) Accurately ripped
5 | (1/1) Accurately ripped
6 | (1/1) Accurately ripped
7 | (1/1) Accurately ripped
8 | (1/1) Accurately ripped
9 | (1/1) Accurately ripped
10 | (1/1) Accurately ripped


==== Log checksum 249928F109AFE83F44F9650542E16B9BABCCEF45C658855BEE38123185DF44B0 ====

cue
REM GENRE "Thrash Metal"
REM DATE 2014
REM DISCID 89076C0A
REM COMMENT "ExactAudioCopy v1.0b3"
PERFORMER "Thrashless"
TITLE "Cult Of Fear"
FILE "Thrashless - 2014 - Cult Of Fear.flac" WAVE
TRACK 01 AUDIO
TITLE "Total Desolation"
PERFORMER "Thrashless"
INDEX 01 00:00:00
TRACK 02 AUDIO
TITLE "Pesticide"
PERFORMER "Thrashless"
INDEX 01 03:00:29
TRACK 03 AUDIO
TITLE "Nation Of Hate"
PERFORMER "Thrashless"
INDEX 01 06:03:16
TRACK 04 AUDIO
TITLE "Cult Of Fear"
PERFORMER "Thrashless"
INDEX 01 09:47:67
TRACK 05 AUDIO
TITLE "Face Of Death"
PERFORMER "Thrashless"
INDEX 01 13:10:48
TRACK 06 AUDIO
TITLE "We Arise"
PERFORMER "Thrashless"
INDEX 01 15:58:31
TRACK 07 AUDIO
TITLE "Harvest Season"
PERFORMER "Thrashless"
INDEX 01 19:05:24
TRACK 08 AUDIO
TITLE "Drink `Em All"
PERFORMER "Thrashless"
INDEX 01 22:09:23
TRACK 09 AUDIO
TITLE "Hatred Set Me Free"
PERFORMER "Thrashless"
INDEX 01 25:27:34
TRACK 10 AUDIO
TITLE "Hundred Years Of Hate"
PERFORMER "Thrashless"
INDEX 01 28:27:55

_________________


Top
 Profile E-mail  
 
Display posts from previous:  Sort by  
Post new topic Reply to topic  [ 8 posts ] 

All times are UTC + 3 hours


Who is online

Users browsing this forum: No registered users and 1 guest


You cannot post new topics in this forum
You cannot reply to topics in this forum
You cannot edit your posts in this forum
You cannot delete your posts in this forum
You cannot post attachments in this forum

Search for:
Яндекс.Метрика
Powered by phpBB © 2000, 2002, 2005, 2007 phpBB Group