\m/ 80's metal \m/

Информационно-аналитический форум "80 см пыли" (In Search We Trust) "У нас никто никуда не спешит"
Me For You - http://me-4u.com
It is currently 24 Jul 2019

All times are UTC + 3 hours

Spoiler
Chat - temporary registration for foreign users (please leave your application here)





Forum rules


Уважаемые пользователи ресурса, друзья, коллеги и гости нашего форума. Данный раздел конференции создан с целью рафинации, и посвящён такому стилевому направлению в музыке, как Thrash Metal во всех его проявлениях и ипостасях, а иногда и переходящему на пограничные стили Speed, Power, Groove, Crossover, MDM и т.п.
Главное правило здесь одно: Одна группа – одна тема! Всё остальное созвучно основным нормам поведения на конференции.
Шаблон оформления тем в этом подфоруме должен быть основан на данных сайта www.metal-archives.com и выглядеть следующим образом:

Группа (Страна) - Стилевые рамки - дискография
Slayer (USA) - Thrash Metal - дискография


В теме допустимо размещение всей информации касающейся данного коллектива: анонсы любых альбомов в любых форматах, запросы любых релизов коллектива (кроме релизов текущего и прошлого годов), обсуждения, обзоры, а в остальном всё как обычно. Уважаем друг друга, не грубим, соблюдаем нормы поведения на конференции, оформляем анонсы и запросы красиво и информативно, что бы модераторы не посчитали их троллингом, и не отправили куда положено, выписав Вам предупреждение или ещё что похуже… Прежде чем что-то запросить или запостить, пользуемся поиском! Пользуемся поиском! ПОЛЬЗУЕМСЯ ПОИСКОМ!!! Так слышно меня?.. :pardon:
Интересного, конструктивного и креативного общения! ;)

Image



Post new topic Reply to topic  [ 82 posts ]  Go to page Previous  1, 2, 3, 4, 5  Next
Author Message
 
PostPosted: 31 Mar 2017 
консэрваторъ
User avatar
Joined: 11 Aug 2007
Posts: 17057
Lоcаtion: Псков
Age: 45
Name: Сергей
Блин... :cry:

_________________
THRASH 'EM ALL


Top
 Profile E-mail  
 
 
PostPosted: 31 Mar 2017 
Генеральный thrasher
User avatar
Joined: 03 Oct 2008
Posts: 3714
Lоcаtion: Ханты-Мансийский АО
Age: 44
Name: Сергей
Не буду диск брать...ну его нафиг!


Top
 Profile  
 
 
PostPosted: 31 Mar 2017 
Я набрал 1000 сообщений!
Joined: 09 Jul 2008
Posts: 2912
Age: 45
Name: Сергей
интересно даже стало, потому что выложенная чуть выше клипом песня ну очень неплоха


Top
 Profile  
 
 
PostPosted: 02 Apr 2017 
консэрваторъ
User avatar
Joined: 11 Aug 2007
Posts: 17057
Lоcаtion: Псков
Age: 45
Name: Сергей
Слил я обозную тему в сюда полностью и переименовал в дискографию, ибо есть релизы и запросы, лучше собирать всё в одной теме... :oops:
Опять же в преддверии прослушивания нового альбома, я обнаружил, что сугубо нужен ипонский диск 14-ого года... :oops:

Chronosphere - Embracing Oblivion 2014 (Spiritual Beast IUCP-16198)

Image

1. Killing My Sins 03:49
2. One Hand Red per Saint 03:33
3. Force Fed Truth 05:07
4. Brutal Decay 04:08
5. Frenzied from Inside 03:57
6. Herald the Uprising 05:26
7. City of the Living Dead 03:54
8. Seize Your Last Chance 04:05
9. Beyond Nemesis 03:56
10. The Redemption 04:03
11. Battery (Metallica cover) 05:06 (Japan Bonus Track)
12. Envirusment (live) 03:20 (Japan Bonus Track)


Отсюда никак не поддастать?.. :arrov: http://www.metal-jukebox.net/viewtopic.php?t=11144

_________________
THRASH 'EM ALL


Top
 Profile E-mail  
 
 
PostPosted: 02 Apr 2017 
консэрваторъ
User avatar
Joined: 11 Aug 2007
Posts: 17057
Lоcаtion: Псков
Age: 45
Name: Сергей
Кстати, на новом альбоме тоже видимо будут япобонусы, пока не понятно какие... :arrov: http://www.cdjapan.co.jp/product/IUCP-16262
Релиз в день космонавтики!.. :true:

_________________
THRASH 'EM ALL


Top
 Profile E-mail  
 
 
PostPosted: 03 Apr 2017 
Я набрал 1000 сообщений!
Joined: 09 Jul 2008
Posts: 2912
Age: 45
Name: Сергей
таки послушал новый альбом, вещь отличная


Top
 Profile  
 
 
PostPosted: 03 Apr 2017 
консэрваторъ
User avatar
Joined: 11 Aug 2007
Posts: 17057
Lоcаtion: Псков
Age: 45
Name: Сергей
splatty wrote:
11. Battery (Metallica cover) 05:06 (Japan Bonus Track)

Подпихнул я пока суть да дело бонусх выдернутый отседова в 192 :arrov: viewtopic.php?p=239209#p239209
а там посмотрим... :vic: :(

_________________
THRASH 'EM ALL


Top
 Profile E-mail  
 
 
PostPosted: 10 Apr 2017 
консэрваторъ
User avatar
Joined: 11 Aug 2007
Posts: 17057
Lоcаtion: Псков
Age: 45
Name: Сергей
Опять!?. :shok:
diskunion.net wrote:
11. Damage, INC *日本盤ボーナス・トラック
12. Picking Up My Pieces (Drums & Bass Track) *日本盤ボーナス・トラック

http://diskunion.net/metal/ct/detail/XAT-1245665999
Около 1800 нашими... :( :arrov: http://www.ebay.com/itm/CHRONOSPHERE-RE ... 1911909811

_________________
THRASH 'EM ALL


Top
 Profile E-mail  
 
 
PostPosted: 10 Apr 2017 
Я набрал 1000 сообщений!
Joined: 09 Jul 2008
Posts: 2912
Age: 45
Name: Сергей
привыкай
не помню, с какой группой в пеерписке тебе сказали, что песня есть, но все права у компании, и оно когда-нить обязательно всплывет... когда раскупят предыдущее издание с "эксклюзивным" бонусом


Top
 Profile  
 
 
PostPosted: 11 Apr 2017 
Хиппей (support team)
User avatar
Joined: 30 Jul 2007
Posts: 113651
Lоcаtion: Киев (Kyiv, UA)
Age: 46
Name: Andrey
splatty wrote:
Chronosphere - Embracing Oblivion 2014

А не японец типа нам не нужен? :scratch:

_________________


Top
 Profile E-mail  
 
 
PostPosted: 11 Apr 2017 
консэрваторъ
User avatar
Joined: 11 Aug 2007
Posts: 17057
Lоcаtion: Псков
Age: 45
Name: Сергей
Типа не, я ж не переживу, если 11-ый трек не услышу... :cry:

_________________
THRASH 'EM ALL


Top
 Profile E-mail  
 
 
PostPosted: 11 Apr 2017 
Генеральный thrasher
User avatar
Joined: 03 Oct 2008
Posts: 3714
Lоcаtion: Ханты-Мансийский АО
Age: 44
Name: Сергей
Я вот не пойму.Имея свой сайт, Punishment 18 Records продаёт свои диски на дискогсе.Не судьба на сайте дистро оформить?


Top
 Profile  
 
 
PostPosted: 11 Apr 2017 
консэрваторъ
User avatar
Joined: 11 Aug 2007
Posts: 17057
Lоcаtion: Псков
Age: 45
Name: Сергей
Манагерская задумка штоль какая... :vic:

_________________
THRASH 'EM ALL


Top
 Profile E-mail  
 
 
PostPosted: 11 Apr 2017 
Metal Collector
User avatar
Joined: 16 Nov 2008
Posts: 1251
Lоcаtion: Химки
Age: 36
Name: Андрей
Видимо, там потенциальных покупателей больше, т.е. выгоднее.


Top
 Profile E-mail  
 
 
PostPosted: 11 Apr 2017 
Хиппей (support team)
User avatar
Joined: 30 Jul 2007
Posts: 113651
Lоcаtion: Киев (Kyiv, UA)
Age: 46
Name: Andrey
splatty wrote:
Chronosphere - Embracing Oblivion 2014

А не японец типа нам не нужен? :scratch:

Ааааааааааааааа, альбом 14 года, кажись является очередной бонбой :lob: :lob: :lob:

Chronosphere - 2014 - Embracing Oblivion [flac]

Image Image Image

mrror: Narod l Narod l M-Cloud

log
Exact Audio Copy V1.1 from 23. June 2015

EAC extraction logfile from 13. June 2016, 9:51

Chronosphere / Embracing Oblivion

Used drive : ATAPI iHAS124 E Adapter: 1 ID: 0

Read mode : Secure
Utilize accurate stream : Yes
Defeat audio cache : Yes
Make use of C2 pointers : No

Read offset correction : 6
Overread into Lead-In and Lead-Out : No
Fill up missing offset samples with silence : Yes
Delete leading and trailing silent blocks : No
Null samples used in CRC calculations : Yes
Used interface : Native Win32 interface for Win NT & 2000

Used output format : User Defined Encoder
Selected bitrate : 1024 kBit/s
Quality : High
Add ID3 tag : No
Command line compressor : C:\Program Files\Exact Audio Copy\FLAC\FLAC.EXE
Additional command line options : -V -8 -T "Date=%year%" -T "Genre=%genre%" %source%


TOC of the extracted CD

Track | Start | Length | Start sector | End sector
---------------------------------------------------------
1 | 0:00.00 | 3:48.34 | 0 | 17133
2 | 3:48.34 | 3:33.00 | 17134 | 33108
3 | 7:21.34 | 5:07.05 | 33109 | 56138
4 | 12:28.39 | 4:07.37 | 56139 | 74700
5 | 16:36.01 | 3:56.55 | 74701 | 92455
6 | 20:32.56 | 5:25.69 | 92456 | 116899
7 | 25:58.50 | 3:54.18 | 116900 | 134467
8 | 29:52.68 | 4:04.53 | 134468 | 152820
9 | 33:57.46 | 3:56.24 | 152821 | 170544
10 | 37:53.70 | 4:03.05 | 170545 | 188774


Range status and errors

Selected range

Filename C:\EAC\vampire_71\Chronosphere - Embracing Oblivion.wav

Peak level 100.0 %
Extraction speed 8.0 X
Range quality 100.0 %
Test CRC A5FD558B
Copy CRC A5FD558B
Copy OK

No errors occurred


AccurateRip summary

Track 1 accurately ripped (confidence 2) [0EF1C5B0] (AR v2)
Track 2 accurately ripped (confidence 2) [CAECC33E] (AR v2)
Track 3 accurately ripped (confidence 2) [A9355D7F] (AR v2)
Track 4 accurately ripped (confidence 2) [8E33A87B] (AR v2)
Track 5 accurately ripped (confidence 2) [4E179DFD] (AR v2)
Track 6 accurately ripped (confidence 2) [47F9CD40] (AR v2)
Track 7 accurately ripped (confidence 2) [BC29CCED] (AR v2)
Track 8 accurately ripped (confidence 2) [647436D5] (AR v2)
Track 9 accurately ripped (confidence 2) [C338E9E4] (AR v2)
Track 10 accurately ripped (confidence 2) [AEFC95E9] (AR v2)

All tracks accurately ripped

End of status report

---- CUETools DB Plugin V2.1.6

[CTDB TOCID: M8KYFfp5CNQ9rgNO50ZjsdWNnpQ-] found
Submit result: M8KYFfp5CNQ9rgNO50ZjsdWNnpQ- has been confirmed
Track | CTDB Status
1 | (3/3) Accurately ripped
2 | (3/3) Accurately ripped
3 | (3/3) Accurately ripped
4 | (3/3) Accurately ripped
5 | (3/3) Accurately ripped
6 | (3/3) Accurately ripped
7 | (3/3) Accurately ripped
8 | (3/3) Accurately ripped
9 | (3/3) Accurately ripped
10 | (3/3) Accurately ripped


==== Log checksum DDF24B2354D78BA8AFBAAB1A70F010FBF1570D1753C240CF823AA5F23B656005 ====

cue
REM GENRE "Thrash Metal"
REM DATE 2014
REM DISCID 8109D50A
REM COMMENT "ExactAudioCopy v1.1"
PERFORMER "Chronosphere"
TITLE "Embracing Oblivion"
FILE "Chronosphere - Embracing Oblivion.flac" WAVE
TRACK 01 AUDIO
TITLE "Killing My Sins"
PERFORMER "Chronosphere"
INDEX 01 00:00:00
TRACK 02 AUDIO
TITLE "One Hand Red Per Saint"
PERFORMER "Chronosphere"
INDEX 01 03:48:34
TRACK 03 AUDIO
TITLE "Force Fed Truth"
PERFORMER "Chronosphere"
INDEX 01 07:21:34
TRACK 04 AUDIO
TITLE "Brutal Decay"
PERFORMER "Chronosphere"
INDEX 00 12:24:36
INDEX 01 12:28:39
TRACK 05 AUDIO
TITLE "Frenzied From Inside"
PERFORMER "Chronosphere"
INDEX 00 16:32:00
INDEX 01 16:36:01
TRACK 06 AUDIO
TITLE "Herald the Uprising"
PERFORMER "Chronosphere"
INDEX 00 20:28:53
INDEX 01 20:32:56
TRACK 07 AUDIO
TITLE "City of the Living Dead"
PERFORMER "Chronosphere"
INDEX 01 25:58:50
TRACK 08 AUDIO
TITLE "Seize Your Last Chance"
PERFORMER "Chronosphere"
INDEX 00 29:48:66
INDEX 01 29:52:68
TRACK 09 AUDIO
TITLE "Beyond Nemesis"
PERFORMER "Chronosphere"
INDEX 00 33:53:41
INDEX 01 33:57:46
TRACK 10 AUDIO
TITLE "The Redemption"
PERFORMER "Chronosphere"
INDEX 00 37:49:69
INDEX 01 37:53:70



Image Image Image
Image Image Image

Image Image Image

_________________


Top
 Profile E-mail  
 
 
PostPosted: 11 Apr 2017 
Хиппей (support team)
User avatar
Joined: 30 Jul 2007
Posts: 113651
Lоcаtion: Киев (Kyiv, UA)
Age: 46
Name: Andrey
Я вот не пойму.Имея свой сайт, Punishment 18 Records продаёт свои диски на дискогсе.Не судьба на сайте дистро оформить?

Вполне возможен вариант, что за прямые продажи процент окажется очень высоким :fingal:

_________________


Top
 Profile E-mail  
 
 
PostPosted: 11 Apr 2017 
Хиппей (support team)
User avatar
Joined: 30 Jul 2007
Posts: 113651
Lоcаtion: Киев (Kyiv, UA)
Age: 46
Name: Andrey
Ага, да, альбом 14 года срочно в топы, ибо шедеврально, хоть и вторично (Металлике и Тестомесу привед, плюс техничная сторона от Коронера).
Но как же заводит и рвёт музыка такая :lob: :lob: :lob: :lob: :lob:

9/10

_________________


Top
 Profile E-mail  
 
 
PostPosted: 11 Apr 2017 
Доктор энтомологии
User avatar
Joined: 22 Jan 2009
Posts: 9806
Lоcаtion: Даугавпилс
Age: 44
Name: Алексей
Тоже эта группа в очереди, все никак не доберусь (только ознакамливался) прослушать внимательно :umnik: :fingal:


Top
 Profile  
 
 
PostPosted: 11 Apr 2017 
Хиппей (support team)
User avatar
Joined: 30 Jul 2007
Posts: 113651
Lоcаtion: Киев (Kyiv, UA)
Age: 46
Name: Andrey
Опаньке. А чего у меня в списке этот альбом уже помечен, как перезалитый 3 августа 2014 года?.. :scratch:

_________________


Top
 Profile E-mail  
 
 
PostPosted: 11 Apr 2017 
консэрваторъ
User avatar
Joined: 11 Aug 2007
Posts: 17057
Lоcаtion: Псков
Age: 45
Name: Сергей
Купите японца кто-нить... :lob: :lob: :oops:

_________________
THRASH 'EM ALL


Top
 Profile E-mail  
 
Display posts from previous:  Sort by  
Post new topic Reply to topic  [ 82 posts ]  Go to page Previous  1, 2, 3, 4, 5  Next

All times are UTC + 3 hours


Who is online

Users browsing this forum: No registered users and 2 guests


You cannot post new topics in this forum
You cannot reply to topics in this forum
You cannot edit your posts in this forum
You cannot delete your posts in this forum
You cannot post attachments in this forum

Search for:
Яндекс.Метрика
Powered by phpBB © 2000, 2002, 2005, 2007 phpBB Group