\m/ 80's metal \m/

Информационно-аналитический форум "80 см пыли" (In Search We Trust) "У нас никто никуда не спешит"
Me For You - http://me-4u.com
It is currently 24 Apr 2019

All times are UTC + 3 hours

Spoiler
Chat - temporary registration for foreign users (please leave your application here)





Forum rules


Уважаемые пользователи ресурса, друзья, коллеги и гости нашего форума. Данный раздел конференции создан с целью рафинации, и посвящён такому стилевому направлению в музыке, как Thrash Metal во всех его проявлениях и ипостасях, а иногда и переходящему на пограничные стили Speed, Power, Groove, Crossover, MDM и т.п.
Главное правило здесь одно: Одна группа – одна тема! Всё остальное созвучно основным нормам поведения на конференции.
Шаблон оформления тем в этом подфоруме должен быть основан на данных сайта www.metal-archives.com и выглядеть следующим образом:

Группа (Страна) - Стилевые рамки - дискография
Slayer (USA) - Thrash Metal - дискография


В теме допустимо размещение всей информации касающейся данного коллектива: анонсы любых альбомов в любых форматах, запросы любых релизов коллектива (кроме релизов текущего и прошлого годов), обсуждения, обзоры, а в остальном всё как обычно. Уважаем друг друга, не грубим, соблюдаем нормы поведения на конференции, оформляем анонсы и запросы красиво и информативно, что бы модераторы не посчитали их троллингом, и не отправили куда положено, выписав Вам предупреждение или ещё что похуже… Прежде чем что-то запросить или запостить, пользуемся поиском! Пользуемся поиском! ПОЛЬЗУЕМСЯ ПОИСКОМ!!! Так слышно меня?.. :pardon:
Интересного, конструктивного и креативного общения! ;)

Image



Post new topic Reply to topic  [ 107 posts ]  Go to page 1, 2, 3, 4, 5, 6  Next
Author Message
 
PostPosted: 09 Feb 2014 
Генеральный thrasher
User avatar
Joined: 03 Oct 2008
Posts: 3695
Lоcаtion: Ханты-Мансийский АО
Age: 44
Name: Сергей
> Осталось найти: | Still looking:
The No-Mads - Refresh the Thrash 2000 (Demo)


Image

Year:2006
Style:Thrash Metal
Country:Poland
Audio:Flac+Cue+Log+Scans
Size:343Mb
Source:my CD
Label:Shark Records

Line-Up:
Alcoholady - vocals
Jacek Pogrzeba - guitars
Jędrzej Łaciak - bass
Przemek - guitars
Oskar - drums

Tracklist:
01. The Day After 04:19
02. Violence Riddled 04:10
03. Thrash Alkoholisation 02:25
04. Insane 03:39
05. False Queens Of Metal (Extermination) 03:18
06. The Caprice 03:17
07. Mercyful Hate 04:10
08. Keine Eintracht 03:12
09. I Am Your God - Part I 03:42
10. I Am Your God - Part II 02:40
11. The Return 04:52

"Cue"
REM GENRE "Thrash Metal"
REM DATE 2006
REM DISCID 9A09550B
REM COMMENT "ExactAudioCopy v0.99pb5"
PERFORMER "The No-Mads"
TITLE "Deranged"
FILE "The No-Mads - Deranged.flac" WAVE
TRACK 01 AUDIO
TITLE "The Day After"
PERFORMER "The No-Mads"
FLAGS DCP
INDEX 01 00:00:00
TRACK 02 AUDIO
TITLE "Violence Riddled"
PERFORMER "The No-Mads"
FLAGS DCP
INDEX 01 04:19:36
TRACK 03 AUDIO
TITLE "Thrash Alkoholisation"
PERFORMER "The No-Mads"
FLAGS DCP
INDEX 01 08:30:04
TRACK 04 AUDIO
TITLE "Insane"
PERFORMER "The No-Mads"
FLAGS DCP
INDEX 01 10:56:14
TRACK 05 AUDIO
TITLE "False Queens Of Metal (Extremination)"
PERFORMER "The No-Mads"
FLAGS DCP
INDEX 01 14:35:47
TRACK 06 AUDIO
TITLE "The Caprice"
PERFORMER "The No-Mads"
FLAGS DCP
INDEX 01 17:54:03
TRACK 07 AUDIO
TITLE "Mercyful Hate"
PERFORMER "The No-Mads"
FLAGS DCP
INDEX 01 21:11:63
TRACK 08 AUDIO
TITLE "Keine Eintracht"
PERFORMER "The No-Mads"
FLAGS DCP
INDEX 01 25:21:74
TRACK 09 AUDIO
TITLE "I Am Your God Part I"
PERFORMER "The No-Mads"
FLAGS DCP
INDEX 01 28:34:55
TRACK 10 AUDIO
TITLE "I Am Your God Part II"
PERFORMER "The No-Mads"
FLAGS DCP
INDEX 01 32:16:64
TRACK 11 AUDIO
TITLE "The Return"
PERFORMER "The No-Mads"
FLAGS DCP
INDEX 01 34:57:10

"Log"
Exact Audio Copy V0.99 prebeta 5 from 4. May 2009

Отчёт EAC об извлечении, выполненном 15. ноября 2012, 14:19

The No-Mads / Deranged

Дисковод: TSSTcorpCDDVDW SH-S202N Adapter: 0 ID: 1

Режим чтения : Достоверность
Использование точного потока : Да
Отключение кэша аудио : Да
Использование указателей C2 : Нет

Коррекция смещения при чтении : 6
Способность читать области Lead-in и Lead-out : Нет
Заполнение пропущенных сэмплов тишиной : Да
Удаление блоков с тишиной в начале и конце : Нет
При вычислениях CRC использовались нулевые сэмплы : Да
Интерфейс : Встроенный Win32-интерфейс для Win NT/2000

Выходной формат : Пользовательский кодировщик
Выбранный битрейт : 768 kBit/s
Качество : Высокий
Добавление ID3-тэга : Нет
Утилита сжатия : C:\Program Files\Exact Audio Copy\FLAC\FLAC.EXE
Дополнительные параметры : -6 -V -T "ARTIST=%a" -T "TITLE=%t" -T "ALBUM=%g" -T "DATE=%y" -T "TRACKNUMBER=%n" -T "GENRE=%m" -T "COMMENT=%e" %s -o %d


TOC извлечённого CD

Трек | Старт | Длительность | Начальный сектор | Конечный сектор
---------------------------------------------------------------------
1 | 0:00.00 | 4:19.36 | 0 | 19460
2 | 4:19.36 | 4:10.43 | 19461 | 38253
3 | 8:30.04 | 2:26.10 | 38254 | 49213
4 | 10:56.14 | 3:39.33 | 49214 | 65671
5 | 14:35.47 | 3:18.31 | 65672 | 80552
6 | 17:54.03 | 3:17.60 | 80553 | 95387
7 | 21:11.63 | 4:10.11 | 95388 | 114148
8 | 25:21.74 | 3:12.56 | 114149 | 128604
9 | 28:34.55 | 3:42.09 | 128605 | 145263
10 | 32:16.64 | 2:40.21 | 145264 | 157284
11 | 34:57.10 | 4:52.02 | 157285 | 179186


Характеристики диапазона извлечения и сообщения об ошибках

Выбранный диапазон

Имя файла E:\Лоси\N\The No-Mads - Deranged.wav

Пиковый уровень 100.0 %
Качество диапазона 100.0 %
CRC копии D4CB12EE
Копирование... OK

Ошибок не произошло


AccurateRip: сводка

Трек 1 нет в базе данных
Трек 2 нет в базе данных
Трек 3 нет в базе данных
Трек 4 нет в базе данных
Трек 5 нет в базе данных
Трек 6 нет в базе данных
Трек 7 нет в базе данных
Трек 8 нет в базе данных
Трек 9 нет в базе данных
Трек 10 нет в базе данных
Трек 11 нет в базе данных

Ни одного трека нет в базе AccurateRip

Конец отчёта



Deranged


Top
 Profile  
 
 
PostPosted: 09 Feb 2014 
Дежурный по КУПу
User avatar
Joined: 17 Aug 2007
Posts: 5871
Age: 50
Name: Ге
Спасибо, Серег :true:

_________________
http://jp-mania.ru/
http://jp-tourdates.ucoz.ru/


Top
 Profile  
 
 
PostPosted: 09 Feb 2014 
А может смените мне статус?..
User avatar
Joined: 28 Jul 2008
Posts: 920
Lоcаtion: Украина---Днепропетровск
Age: 44
Name: Александр
:thanx: :true:

_________________
Музыка в которой я растворяюсь многих угнетает......


Top
 Profile  
 
 
PostPosted: 09 Feb 2014 
Прокъмитолист
User avatar
Joined: 12 Aug 2007
Posts: 6545
Lоcаtion: Санктъ-Петербуркъ
Age: 51
Name: Олекъ
спасибо! :thanx:

_________________
прокъметол - это музыко, от которово есть прок (ы)


Top
 Profile  
 
 
PostPosted: 09 Feb 2014 
Генеральный thrasher
User avatar
Joined: 03 Oct 2008
Posts: 3695
Lоcаtion: Ханты-Мансийский АО
Age: 44
Name: Сергей
Image

Year:2009
Style:Thrash Metal
Country:Poland
Audio:Flac+Cue+Log+Scans
Size:333Mb
Source:my CD
Label:Metal Mundus

Line-Up:
Sylwia 'Alcoholady' Papierska - vocal
Przemyslaw ‘Dr Rock’ Latacz - guitar
Jozef ‘Joseph’ Brodzinski - bass
Damian ‘Oskar’ Roskosz - drums

Tracklist:
01. Reverend Terrorist 03:37
02. Unter Der Bar 03:15
03. The Age Of Demise 06:00
04. Children Of The Reich 04:28
05. Point Blank Fire 03:40
06. Nanoman 04:51
07. Last Lift Down 03:17
08. A Moment Of Sobriety 05:10
09. Vamos 04:40

"Cue"
REM GENRE "Thrash Metal"
REM DATE 2009
REM DISCID 6F092609
REM COMMENT "ExactAudioCopy v0.99pb5"
PERFORMER "The No-Mads"
TITLE "The Age Of Demise"
FILE "The No-Mads - The Age Of Demise.flac" WAVE
TRACK 01 AUDIO
TITLE "Reverend Terrorist"
PERFORMER "The No-Mads"
INDEX 01 00:00:00
TRACK 02 AUDIO
TITLE "Unter Der Bar"
PERFORMER "The No-Mads"
INDEX 01 03:37:66
TRACK 03 AUDIO
TITLE "The Age Of Demise"
PERFORMER "The No-Mads"
INDEX 01 06:53:33
TRACK 04 AUDIO
TITLE "Children Of The Reich"
PERFORMER "The No-Mads"
INDEX 01 12:54:23
TRACK 05 AUDIO
TITLE "Point Blank Fire"
PERFORMER "The No-Mads"
INDEX 01 17:22:39
TRACK 06 AUDIO
TITLE "Nanoman"
PERFORMER "The No-Mads"
INDEX 01 21:03:08
TRACK 07 AUDIO
TITLE "Last Lift Down"
PERFORMER "The No-Mads"
INDEX 01 25:54:56
TRACK 08 AUDIO
TITLE "A Moment Of Sobriety"
PERFORMER "The No-Mads"
INDEX 01 29:11:59
TRACK 09 AUDIO
TITLE "Vamos"
PERFORMER "The No-Mads"
INDEX 01 34:21:65

"Log"
Exact Audio Copy V0.99 prebeta 5 from 4. May 2009

Отчёт EAC об извлечении, выполненном 22. ноября 2012, 15:31

The No-Mads / The Age Of Demise

Дисковод: TSSTcorpCDDVDW SH-S202N Adapter: 0 ID: 1

Режим чтения : Достоверность
Использование точного потока : Да
Отключение кэша аудио : Да
Использование указателей C2 : Нет

Коррекция смещения при чтении : 6
Способность читать области Lead-in и Lead-out : Нет
Заполнение пропущенных сэмплов тишиной : Да
Удаление блоков с тишиной в начале и конце : Нет
При вычислениях CRC использовались нулевые сэмплы : Да
Интерфейс : Встроенный Win32-интерфейс для Win NT/2000

Выходной формат : Пользовательский кодировщик
Выбранный битрейт : 768 kBit/s
Качество : Высокий
Добавление ID3-тэга : Нет
Утилита сжатия : C:\Program Files\Exact Audio Copy\FLAC\FLAC.EXE
Дополнительные параметры : -6 -V -T "ARTIST=%a" -T "TITLE=%t" -T "ALBUM=%g" -T "DATE=%y" -T "TRACKNUMBER=%n" -T "GENRE=%m" -T "COMMENT=%e" %s -o %d


TOC извлечённого CD

Трек | Старт | Длительность | Начальный сектор | Конечный сектор
---------------------------------------------------------------------
1 | 0:00.00 | 3:37.66 | 0 | 16340
2 | 3:37.66 | 3:15.42 | 16341 | 31007
3 | 6:53.33 | 6:00.65 | 31008 | 58072
4 | 12:54.23 | 4:28.16 | 58073 | 78188
5 | 17:22.39 | 3:40.44 | 78189 | 94732
6 | 21:03.08 | 4:51.48 | 94733 | 116605
7 | 25:54.56 | 3:17.03 | 116606 | 131383
8 | 29:11.59 | 5:10.06 | 131384 | 154639
9 | 34:21.65 | 4:40.69 | 154640 | 175708


Характеристики диапазона извлечения и сообщения об ошибках

Выбранный диапазон

Имя файла E:\Лоси\N\The No-Mads - The Age Of Demise.wav

Пиковый уровень 98.8 %
Качество диапазона 100.0 %
CRC копии AD066CCA
Копирование... OK

Ошибок не произошло


AccurateRip: сводка

Трек 1 нет в базе данных
Трек 2 нет в базе данных
Трек 3 нет в базе данных
Трек 4 нет в базе данных
Трек 5 нет в базе данных
Трек 6 нет в базе данных
Трек 7 нет в базе данных
Трек 8 нет в базе данных
Трек 9 нет в базе данных

Ни одного трека нет в базе AccurateRip

Конец отчёта


The Age Of Demise

Хорошо поёт польска дивчина!


Top
 Profile  
 
 
PostPosted: 09 Feb 2014 
Дежурный по КУПу
User avatar
Joined: 17 Aug 2007
Posts: 5871
Age: 50
Name: Ге
:thanx:

_________________
http://jp-mania.ru/
http://jp-tourdates.ucoz.ru/


Top
 Profile  
 
 
PostPosted: 09 Feb 2014 
Хиппей (support team)
User avatar
Joined: 30 Jul 2007
Posts: 111813
Lоcаtion: Киев (Kyiv, UA)
Age: 45
Name: Andrey
:thanx:

mirror: Narod l M-Cloud

_________________


Top
 Profile E-mail  
 
 
PostPosted: 09 Feb 2014 
Хиппей (support team)
User avatar
Joined: 30 Jul 2007
Posts: 111813
Lоcаtion: Киев (Kyiv, UA)
Age: 45
Name: Andrey
:thanx:

mirror: Narod l M-Cloud

_________________


Top
 Profile E-mail  
 
 
PostPosted: 09 Feb 2014 
Прокъмитолист
User avatar
Joined: 12 Aug 2007
Posts: 6545
Lоcаtion: Санктъ-Петербуркъ
Age: 51
Name: Олекъ
спасибо, Серёг! :thanx:

_________________
прокъметол - это музыко, от которово есть прок (ы)


Top
 Profile  
 
 
PostPosted: 11 Feb 2014 
А может смените мне статус?..
User avatar
Joined: 28 Jul 2008
Posts: 920
Lоcаtion: Украина---Днепропетровск
Age: 44
Name: Александр
:thanx: :true:

_________________
Музыка в которой я растворяюсь многих угнетает......


Top
 Profile  
 
 
PostPosted: 23 Dec 2015 
Генеральный thrasher
User avatar
Joined: 03 Oct 2008
Posts: 3695
Lоcаtion: Ханты-Мансийский АО
Age: 44
Name: Сергей
Image

Year:2013
Style:Thrash Metal
Country:Poland
Archive:Flac+Cue+Log+Scans
Size:285Mb
Source:my CD
Label:Thrashing Madness Productions

Line-Up:
Oskar - drums
Latawiec - guitars
Alcoholady - vocals
Joseph - bass

Tracklist:
01. Final Destination 03:53
02. Politix (World Of Shit) 03:41
03. Lost Control 04:00
04. Possessed By Bier 03:13
05. C.A. Riverplate 05:11
06. Reborn Dogs (Holy Moses Cover) 03:12
07. The Impact 03:19
08. Red Blood Bay 03:55
09. Oort Cloud 06:35

"Cue"
REM GENRE "Thrash Metal"
REM DATE 2013
REM DISCID 8608A609
REM COMMENT "ExactAudioCopy v1.1"
PERFORMER "The No-Mads"
TITLE "Lost Control"
FILE "The No-Mads - Lost Control.flac" WAVE
TRACK 01 AUDIO
TITLE "Final Destination"
PERFORMER "The No-Mads"
INDEX 01 00:00:00
TRACK 02 AUDIO
TITLE "Politix (World Of Shit)"
PERFORMER "The No-Mads"
INDEX 00 03:50:27
INDEX 01 03:52:27
TRACK 03 AUDIO
TITLE "Lost Control"
PERFORMER "The No-Mads"
INDEX 00 07:30:64
INDEX 01 07:32:64
TRACK 04 AUDIO
TITLE "Possessed By Bier "
PERFORMER "The No-Mads"
INDEX 00 11:30:28
INDEX 01 11:32:28
TRACK 05 AUDIO
TITLE "C.A. Riverplate"
PERFORMER "The No-Mads"
INDEX 00 14:42:30
INDEX 01 14:44:30
TRACK 06 AUDIO
TITLE "Reborn Dogs"
PERFORMER "The No-Mads"
INDEX 00 19:52:65
INDEX 01 19:54:65
TRACK 07 AUDIO
TITLE "The Impact"
PERFORMER "The No-Mads"
INDEX 00 23:04:25
INDEX 01 23:06:25
TRACK 08 AUDIO
TITLE "Red Blood Bay"
PERFORMER "The No-Mads"
INDEX 00 26:22:60
INDEX 01 26:24:60
TRACK 09 AUDIO
TITLE "Oort Cloud"
PERFORMER "The No-Mads"
INDEX 00 30:17:18
INDEX 01 30:19:18

"Log"
Exact Audio Copy V1.1 from 23. June 2015

Отчёт EAC об извлечении, выполненном 3. декабря 2015, 17:01

The No-Mads / Lost Control

Дисковод: HL-DT-STDVDRAM GTA0N Adapter: 1 ID: 0

Режим чтения : Достоверность
Использование точного потока : Да
Отключение кэша аудио : Да
Использование указателей C2 : Нет

Коррекция смещения при чтении : 102
Способность читать области Lead-in и Lead-out : Нет
Заполнение пропущенных сэмплов тишиной : Да
Удаление блоков с тишиной в начале и конце : Нет
При вычислениях CRC использовались нулевые сэмплы : Да
Интерфейс : Встроенный Win32-интерфейс для Win NT/2000

Выходной формат : Пользовательский кодировщик
Выбранный битрейт : 768 kBit/s
Качество : Высокий
Добавление ID3-тега : Нет
Утилита сжатия : C:\Program Files (x86)\Exact Audio Copy\FLAC\FLAC.EXE
Дополнительные параметры : -6 -V -T "ARTIST=%artist%" -T "TITLE=%title%" -T "ALBUM=%albumtitle%" -T "DATE=%year%" -T "TRACKNUMBER=%tracknr%" -T "GENRE=%genre%" -T "COMMENT=%comment%" -T "BAND=%albuminterpret%" -T "ALBUMARTIST=%albuminterpret%" -T "COMPOSER=%composer%" %haslyrics%--tag-from-file=LYRICS="%lyricsfile%"%haslyrics% -T "DISCNUMBER=%cdnumber%" -T "TOTALDISCS=%totalcds%" -T "TOTALTRACKS=%numtracks%" %hascover%--picture="%coverfile%"%hascover% %source% -o %dest%


TOC извлечённого CD

Трек | Старт | Длительность | Начальный сектор | Конечный сектор
---------------------------------------------------------------------
1 | 0:00.00 | 3:52.27 | 0 | 17426
2 | 3:52.27 | 3:40.37 | 17427 | 33963
3 | 7:32.64 | 3:59.39 | 33964 | 51927
4 | 11:32.28 | 3:12.02 | 51928 | 66329
5 | 14:44.30 | 5:10.35 | 66330 | 89614
6 | 19:54.65 | 3:11.35 | 89615 | 103974
7 | 23:06.25 | 3:18.35 | 103975 | 118859
8 | 26:24.60 | 3:54.33 | 118860 | 136442
9 | 30:19.18 | 6:34.65 | 136443 | 166057


Характеристики диапазона извлечения и сообщения об ошибках

Выбранный диапазон

Имя файла C:\Users\магазин\Music\The No-Mads - Lost Control.wav

Пиковый уровень 99.9 %
Скорость извлечения 3.6 X
Качество диапазона 99.9 %
CRC копии A248BEE9
Копирование... OK

Ошибок не произошло


AccurateRip: сводка

Трек 1 отсутствует в базе данных
Трек 2 отсутствует в базе данных
Трек 3 отсутствует в базе данных
Трек 4 отсутствует в базе данных
Трек 5 отсутствует в базе данных
Трек 6 отсутствует в базе данных
Трек 7 отсутствует в базе данных
Трек 8 отсутствует в базе данных
Трек 9 отсутствует в базе данных

Ни одного трека нет в базе AccurateRip

Конец отчёта

---- CUETools DB Plugin V2.1.6

[CTDB TOCID: CzjcJVWzcjJOYA_8H7VjHKELX0s-] disk not present in database
Submit result: CzjcJVWzcjJOYA_8H7VjHKELX0s- has been uploaded


Lost Control


Top
 Profile  
 
 
PostPosted: 23 Dec 2015 
Генеральный thrasher
User avatar
Joined: 03 Oct 2008
Posts: 3695
Lоcаtion: Ханты-Мансийский АО
Age: 44
Name: Сергей
Остервенелый трэшак от Сильвии Alcoholady.Давно хотел купить этот альбом,но получилось только сейчас.Интересно мнение Серёги splatty о данном коллективе!Два других альбома я выкладывал на трэкере,ну и конечно у Оксаны они тоже есть.


Top
 Profile  
 
 
PostPosted: 23 Dec 2015 
Alive Again
User avatar
Joined: 17 Dec 2008
Posts: 4747
Lоcаtion: Курск Воронеж Оскол
Age: 44
Name: Дмитрий
:thanx:


Top
 Profile E-mail  
 
 
PostPosted: 23 Dec 2015 
консэрваторъ
User avatar
Joined: 11 Aug 2007
Posts: 16835
Lоcаtion: Псков
Age: 45
Name: Сергей
Заинтриговал, блин... Надеюсь там не по бжишковски поють...

_________________
THRASH 'EM ALL


Top
 Profile E-mail  
 
 
PostPosted: 23 Dec 2015 
консэрваторъ
User avatar
Joined: 11 Aug 2007
Posts: 16835
Lоcаtion: Псков
Age: 45
Name: Сергей
:dash: Придётся ещё одну дискографию подсобрать до НГ... :lob:

The No-Mads - Lost Control - Thrashing Madness Label - Release date 31.10.2013 | +

_________________
THRASH 'EM ALL


Top
 Profile E-mail  
 
 
PostPosted: 23 Dec 2015 
Доктор энтомологии
User avatar
Joined: 22 Jan 2009
Posts: 9694
Lоcаtion: Даугавпилс
Age: 44
Name: Алексей
Не похожи хоть ни на кого? Свое есть? А то ведь сплошные пустые кальки... :(


Top
 Profile  
 
 
PostPosted: 23 Dec 2015 
консэрваторъ
User avatar
Joined: 11 Aug 2007
Posts: 16835
Lоcаtion: Псков
Age: 45
Name: Сергей
Лёша, жми туб, трушно там всё, "некалек" при своей оставшейся жизни ты больше не услышишь никогда... Так что слухай стену!.. :true:

_________________
THRASH 'EM ALL


Top
 Profile E-mail  
 
 
PostPosted: 23 Dec 2015 
Доктор энтомологии
User avatar
Joined: 22 Jan 2009
Posts: 9694
Lоcаtion: Даугавпилс
Age: 44
Name: Алексей
:thanx: :true:


Top
 Profile  
 
 
PostPosted: 23 Dec 2015 
Прокъмитолист
User avatar
Joined: 12 Aug 2007
Posts: 6545
Lоcаtion: Санктъ-Петербуркъ
Age: 51
Name: Олекъ
Серёга, спасибо! :thanx:

_________________
прокъметол - это музыко, от которово есть прок (ы)


Top
 Profile  
 
 
PostPosted: 23 Dec 2015 
Генеральный thrasher
User avatar
Joined: 03 Oct 2008
Posts: 3695
Lоcаtion: Ханты-Мансийский АО
Age: 44
Name: Сергей
Не похожи хоть ни на кого? Свое есть? А то ведь сплошные пустые кальки... :(


Лёш,офигенная банда!Настоящий олдскул да и голосище у Сильвии пробирает не по детски.


Top
 Profile  
 
Display posts from previous:  Sort by  
Post new topic Reply to topic  [ 107 posts ]  Go to page 1, 2, 3, 4, 5, 6  Next

All times are UTC + 3 hours


Who is online

Users browsing this forum: No registered users and 1 guest


You cannot post new topics in this forum
You cannot reply to topics in this forum
You cannot edit your posts in this forum
You cannot delete your posts in this forum
You cannot post attachments in this forum

Search for:
Яндекс.Метрика
Powered by phpBB © 2000, 2002, 2005, 2007 phpBB Group