\m/ 80's metal \m/

Информационно-аналитический форум "80 см пыли" (In Search We Trust) "У нас никто никуда не спешит"
Me For You - http://me-4u.com
It is currently 26 Apr 2019

All times are UTC + 3 hours

Spoiler
Chat - temporary registration for foreign users (please leave your application here)





Forum rules


Уважаемые пользователи ресурса, друзья, коллеги и гости нашего форума. Данный раздел конференции создан с целью рафинации, и посвящён такому стилевому направлению в музыке, как Thrash Metal во всех его проявлениях и ипостасях, а иногда и переходящему на пограничные стили Speed, Power, Groove, Crossover, MDM и т.п.
Главное правило здесь одно: Одна группа – одна тема! Всё остальное созвучно основным нормам поведения на конференции.
Шаблон оформления тем в этом подфоруме должен быть основан на данных сайта www.metal-archives.com и выглядеть следующим образом:

Группа (Страна) - Стилевые рамки - дискография
Slayer (USA) - Thrash Metal - дискография


В теме допустимо размещение всей информации касающейся данного коллектива: анонсы любых альбомов в любых форматах, запросы любых релизов коллектива (кроме релизов текущего и прошлого годов), обсуждения, обзоры, а в остальном всё как обычно. Уважаем друг друга, не грубим, соблюдаем нормы поведения на конференции, оформляем анонсы и запросы красиво и информативно, что бы модераторы не посчитали их троллингом, и не отправили куда положено, выписав Вам предупреждение или ещё что похуже… Прежде чем что-то запросить или запостить, пользуемся поиском! Пользуемся поиском! ПОЛЬЗУЕМСЯ ПОИСКОМ!!! Так слышно меня?.. :pardon:
Интересного, конструктивного и креативного общения! ;)

Image



Post new topic Reply to topic  [ 37 posts ]  Go to page 1, 2  Next
Author Message
 
PostPosted: 13 Oct 2013 
Генеральный thrasher
User avatar
Joined: 03 Oct 2008
Posts: 3696
Lоcаtion: Ханты-Мансийский АО
Age: 44
Name: Сергей
Всеобьемлющая компиляция творчества замечательной американской трэш команды. Первый CD включает в себя Demo1 - 1986,Killing The Future Demo 1987,Words That Echo Fear Demo 1989, Roadrunner Demo 1990,два инструментала с Live At Cubby Bear, Chicago IL 05-01-1988. Второй CD - полнометражник Eyes Of Tomorrow 1994 года и Demo 1996. Третий CD - концертные записи 1986-1988 годов.Первый диск сграбился без проблем, два с ошибками.Пробовал на трёх приводах.Результат один и тот же...

Image

Year:2011
Style:Thrash Metal
Country:U.S.A
Audio:Flac+Cue+Log
Size:620Mb+575Mb+625Mb
Source:myCD
Label:AreaDeath Productions

CD 1:
Demo 1 1986
01. Sentenced to Death
02. Revenge
03. Shotgun
04. The Aftermath
Killing The Future Demo 1987
05. When Will You Die
06. Going No Place
07. Chaos
08. Meltdown
09. War for Freedom
Words That Echo Fear Demo 1989
10. Words that Echo Fear
11. A Temptation to Overthrow
12. Being
13. Experience
Roadrunner Demo 1990
14. Eyes of Tomorrow
15. Afraid of Time
16. The Act of Unspoken Truth
17. Reflecting Pictures
Live At Chubby Bear, Chicago 01-05-1988
18. Instrumental 1
19. Instrumental 2

CD 2:
Eyes Of Tomorrow Lp 1994
01. Words that Echo Fear
02. Eyes of Tomorrow
03. Being
04. Experience
05. Afraid of Time
06. Reflecting Pictures
07. Change of Mood
08. The Act of Unspoken Truth
09. Whisper of a Dream
10. Proud Reflex
11. Snuff
Demo 1996
12. Japan
13. Metallic Slums and Highrises
14. God Is in the Details
15. Strain

CD 3:
First Live Show 15-06-1986
01. Shotgun
02. Sentenced to Death
03. Smash Your Face
04. Meltdown
05. Wipeout
Live 14-02-1988
06. Sentenced to Death
07. Meltdown
08. Chaos
09. Skeptical Mind
10. Proceed with Warning
11. A Temptation to Overthrow
12. War for Freedom
13. When Will You Die
Live At The Gallery 02-04-1988
14. Sentenced to Death
15. Meltdown
16. Chaos
17. Skeptical Mind
18. Proceed With Warning
19. Going no Place
20. War for Freedom
21. When Will You Die

"Cue 1"
REM GENRE "Thrash Metal"
REM DATE 2011
REM DISCID 2A129913
REM COMMENT "ExactAudioCopy v0.99pb5"
PERFORMER "Aftermath"
TITLE "25 Years Of Chaos (CD 1)"
FILE "Aftermath - 25 Years Of Chaos (CD 1).flac" WAVE
TRACK 01 AUDIO
TITLE "Sentenced to Death"
PERFORMER "Aftermath"
FLAGS DCP
INDEX 01 00:00:00
TRACK 02 AUDIO
TITLE "Revenge"
PERFORMER "Aftermath"
FLAGS DCP
INDEX 01 03:55:05
TRACK 03 AUDIO
TITLE "Shotgun"
PERFORMER "Aftermath"
FLAGS DCP
INDEX 01 06:29:62
TRACK 04 AUDIO
TITLE "The Aftermath"
PERFORMER "Aftermath"
FLAGS DCP
INDEX 01 09:45:66
TRACK 05 AUDIO
TITLE "When Will You Die"
PERFORMER "Aftermath"
FLAGS DCP
INDEX 01 14:15:44
TRACK 06 AUDIO
TITLE "Going No Place"
PERFORMER "Aftermath"
FLAGS DCP
INDEX 01 18:15:62
TRACK 07 AUDIO
TITLE "Chaos"
PERFORMER "Aftermath"
FLAGS DCP
INDEX 01 22:04:55
TRACK 08 AUDIO
TITLE "Meltdown"
PERFORMER "Aftermath"
FLAGS DCP
INDEX 01 25:23:17
TRACK 09 AUDIO
TITLE "War for Freedom"
PERFORMER "Aftermath"
FLAGS DCP
INDEX 01 27:29:22
TRACK 10 AUDIO
TITLE "Words That Echo Fear"
PERFORMER "Aftermath"
FLAGS DCP
INDEX 01 31:59:17
TRACK 11 AUDIO
TITLE "A Temptation To Overthrow"
PERFORMER "Aftermath"
FLAGS DCP
INDEX 01 38:14:34
TRACK 12 AUDIO
TITLE "Being"
PERFORMER "Aftermath"
FLAGS DCP
INDEX 01 43:06:51
TRACK 13 AUDIO
TITLE "Experience"
PERFORMER "Aftermath"
FLAGS DCP
INDEX 01 47:33:46
TRACK 14 AUDIO
TITLE "Eyes Of Tomorrow"
PERFORMER "Aftermath"
FLAGS DCP
INDEX 01 55:28:01
TRACK 15 AUDIO
TITLE "Afraid Of Time"
PERFORMER "Aftermath"
FLAGS DCP
INDEX 01 59:14:64
TRACK 16 AUDIO
TITLE "The Act Of Unspoken Truth"
PERFORMER "Aftermath"
FLAGS DCP
INDEX 01 62:39:37
TRACK 17 AUDIO
TITLE "Reflecting Pictures"
PERFORMER "Aftermath"
FLAGS DCP
INDEX 01 66:34:68
TRACK 18 AUDIO
TITLE "Instrumental"
PERFORMER "Aftermath"
FLAGS DCP
INDEX 01 72:12:62
TRACK 19 AUDIO
TITLE "Instrumental"
PERFORMER "Aftermath"
FLAGS DCP
INDEX 01 75:30:38

"Cue 2"
REM GENRE "Thrash Metal"
REM DATE 2011
REM DISCID E211F40F
REM COMMENT "ExactAudioCopy v0.99pb5"
PERFORMER "Aftermath"
TITLE "25 Years Of Chaos (CD 2)"
FILE "Aftermath - 25 Years Of Chaos (CD 2).flac" WAVE
TRACK 01 AUDIO
TITLE "Words That Echo Fear"
PERFORMER "Aftermath"
FLAGS DCP
INDEX 01 00:00:00
TRACK 02 AUDIO
TITLE "Eyes Of Tomorrow"
PERFORMER "Aftermath"
FLAGS DCP
INDEX 01 06:11:25
TRACK 03 AUDIO
TITLE "Being"
PERFORMER "Aftermath"
FLAGS DCP
INDEX 01 09:57:30
TRACK 04 AUDIO
TITLE "Experience"
PERFORMER "Aftermath"
FLAGS DCP
INDEX 01 14:23:25
TRACK 05 AUDIO
TITLE "Afraid Of Time"
PERFORMER "Aftermath"
FLAGS DCP
INDEX 01 22:45:67
TRACK 06 AUDIO
TITLE "Reflecting Pictures"
PERFORMER "Aftermath"
FLAGS DCP
INDEX 01 26:24:65
TRACK 07 AUDIO
TITLE "Change Of Mood"
PERFORMER "Aftermath"
FLAGS DCP
INDEX 01 32:08:05
TRACK 08 AUDIO
TITLE "The Act Of Unspoken Wisdom"
PERFORMER "Aftermath"
FLAGS DCP
INDEX 01 39:49:32
TRACK 09 AUDIO
TITLE "Whisper Of A Dream"
PERFORMER "Aftermath"
FLAGS DCP
INDEX 01 43:58:62
TRACK 10 AUDIO
TITLE "Proud Reflex"
PERFORMER "Aftermath"
FLAGS DCP
INDEX 01 50:12:45
TRACK 11 AUDIO
TITLE "Snuff"
PERFORMER "Aftermath"
FLAGS DCP
INDEX 01 55:22:05
TRACK 12 AUDIO
TITLE "Japan"
PERFORMER "Aftermath"
FLAGS DCP
INDEX 01 56:11:00
TRACK 13 AUDIO
TITLE "Metallic Slums And Highrises"
PERFORMER "Aftermath"
FLAGS DCP
INDEX 01 60:41:56
TRACK 14 AUDIO
TITLE "God Is In The Details"
PERFORMER "Aftermath"
FLAGS DCP
INDEX 01 65:47:48
TRACK 15 AUDIO
TITLE "Strain"
PERFORMER "Aftermath"
FLAGS DCP
INDEX 01 70:52:21

"Cue 3"
REM GENRE "Thrash Metal"
REM DATE 2011
REM DISCID 47129115
REM COMMENT "ExactAudioCopy v0.99pb5"
PERFORMER "Aftermath"
TITLE "25 Years Of Chaos (CD 3)"
FILE "Aftermath - 25 Years Of Chaos (CD 3).flac" WAVE
TRACK 01 AUDIO
TITLE "Shotgun"
PERFORMER "Aftermath"
FLAGS DCP
INDEX 01 00:00:00
TRACK 02 AUDIO
TITLE "Sentenced to Death"
PERFORMER "Aftermath"
FLAGS DCP
INDEX 01 03:56:33
TRACK 03 AUDIO
TITLE "Smash Your Face"
PERFORMER "Aftermath"
FLAGS DCP
INDEX 01 08:16:38
TRACK 04 AUDIO
TITLE "Meltdown"
PERFORMER "Aftermath"
FLAGS DCP
INDEX 01 10:32:43
TRACK 05 AUDIO
TITLE "Wipeout"
PERFORMER "Aftermath"
FLAGS DCP
INDEX 01 12:44:37
TRACK 06 AUDIO
TITLE "Sentenced to Death"
PERFORMER "Aftermath"
FLAGS DCP
INDEX 01 14:18:42
TRACK 07 AUDIO
TITLE "Meltdown"
PERFORMER "Aftermath"
FLAGS DCP
INDEX 01 18:54:39
TRACK 08 AUDIO
TITLE "Chaos"
PERFORMER "Aftermath"
FLAGS DCP
INDEX 01 21:12:41
TRACK 09 AUDIO
TITLE "Skeptical Mind"
PERFORMER "Aftermath"
FLAGS DCP
INDEX 01 24:58:48
TRACK 10 AUDIO
TITLE "Proceed With Warning"
PERFORMER "Aftermath"
FLAGS DCP
INDEX 01 28:15:23
TRACK 11 AUDIO
TITLE "A Temptation To Overthrow"
PERFORMER "Aftermath"
FLAGS DCP
INDEX 01 30:53:72
TRACK 12 AUDIO
TITLE "War For Freedom"
PERFORMER "Aftermath"
FLAGS DCP
INDEX 01 36:41:40
TRACK 13 AUDIO
TITLE "When Will You Die"
PERFORMER "Aftermath"
FLAGS DCP
INDEX 01 41:27:66
TRACK 14 AUDIO
TITLE "Sentenced To Death"
PERFORMER "Aftermath"
FLAGS DCP
INDEX 01 46:19:39
TRACK 15 AUDIO
TITLE "Meltdown"
PERFORMER "Aftermath"
FLAGS DCP
INDEX 01 49:15:35
TRACK 16 AUDIO
TITLE "Chaos"
PERFORMER "Aftermath"
FLAGS DCP
INDEX 01 51:23:22
TRACK 17 AUDIO
TITLE "Skeptical Mind"
PERFORMER "Aftermath"
FLAGS DCP
INDEX 01 55:02:10
TRACK 18 AUDIO
TITLE "Proceed With Warning"
PERFORMER "Aftermath"
FLAGS DCP
INDEX 01 58:34:71
TRACK 19 AUDIO
TITLE "Going No Place"
PERFORMER "Aftermath"
FLAGS DCP
INDEX 01 66:32:34
TRACK 20 AUDIO
TITLE "War For Freedom"
PERFORMER "Aftermath"
FLAGS DCP
INDEX 01 70:26:39
TRACK 21 AUDIO
TITLE "When Will You Die"
PERFORMER "Aftermath"
FLAGS DCP
INDEX 01 74:40:35

"Log 1"
Exact Audio Copy V0.99 prebeta 5 from 4. May 2009

Отчёт EAC об извлечении, выполненном 20. апреля 2013, 21:44

Aftermath / 25 Years Of Chaos (CD 1)

Дисковод: MATSHITADVD-RAM UJ8A0AS Adapter: 0 ID: 1

Режим чтения : Достоверность
Использование точного потока : Да
Отключение кэша аудио : Да
Использование указателей C2 : Нет

Коррекция смещения при чтении : 102
Способность читать области Lead-in и Lead-out : Нет
Заполнение пропущенных сэмплов тишиной : Да
Удаление блоков с тишиной в начале и конце : Нет
При вычислениях CRC использовались нулевые сэмплы : Да
Интерфейс : Встроенный Win32-интерфейс для Win NT/2000

Выходной формат : Пользовательский кодировщик
Выбранный битрейт : 1024 kBit/s
Качество : Высокий
Добавление ID3-тэга : Нет
Утилита сжатия : C:\Program Files\Exact Audio Copy\FLAC\FLAC.EXE
Дополнительные параметры : -6 -V -T "ARTIST=%a" -T "TITLE=%t" -T "ALBUM=%g" -T "DATE=%y" -T "TRACKNUMBER=%n" -T "GENRE=%m" -T "COMMENT=%e" %s -o %d


TOC извлечённого CD

Трек | Старт | Длительность | Начальный сектор | Конечный сектор
---------------------------------------------------------------------
1 | 0:00.00 | 3:55.05 | 0 | 17629
2 | 3:55.05 | 2:34.57 | 17630 | 29236
3 | 6:29.62 | 3:16.04 | 29237 | 43940
4 | 9:45.66 | 4:29.53 | 43941 | 64168
5 | 14:15.44 | 4:00.18 | 64169 | 82186
6 | 18:15.62 | 3:48.68 | 82187 | 99354
7 | 22:04.55 | 3:18.37 | 99355 | 114241
8 | 25:23.17 | 2:06.05 | 114242 | 123696
9 | 27:29.22 | 4:29.70 | 123697 | 143941
10 | 31:59.17 | 6:15.17 | 143942 | 172083
11 | 38:14.34 | 4:52.17 | 172084 | 194000
12 | 43:06.51 | 4:26.70 | 194001 | 214020
13 | 47:33.46 | 7:54.30 | 214021 | 249600
14 | 55:28.01 | 3:46.63 | 249601 | 266613
15 | 59:14.64 | 3:24.48 | 266614 | 281961
16 | 62:39.37 | 3:55.31 | 281962 | 299617
17 | 66:34.68 | 5:37.69 | 299618 | 324961
18 | 72:12.62 | 3:17.51 | 324962 | 339787
19 | 75:30.38 | 3:50.57 | 339788 | 357094


Характеристики диапазона извлечения и сообщения об ошибках

Выбранный диапазон

Имя файла C:\Users\эксперт\Music\Aftermath - 25 Years Of Chaos (CD 1).wav

Пиковый уровень 100.0 %
Качество диапазона 99.9 %
CRC копии 23F83865
Копирование... OK

Ошибок не произошло


AccurateRip: сводка

Трек 1 точное извлечение (доверие 1) [76079BD4]
Трек 2 точное извлечение (доверие 1) [C931CAC1]
Трек 3 точное извлечение (доверие 1) [79B48D2D]
Трек 4 точное извлечение (доверие 1) [005E479A]
Трек 5 точное извлечение (доверие 1) [AD7DA733]
Трек 6 точное извлечение (доверие 1) [38A58464]
Трек 7 точное извлечение (доверие 1) [3CE9539E]
Трек 8 точное извлечение (доверие 1) [725B9A40]
Трек 9 точное извлечение (доверие 1) [C36DD9BE]
Трек 10 точное извлечение (доверие 1) [44F31543]
Трек 11 точное извлечение (доверие 1) [F8A7F8E3]
Трек 12 точное извлечение (доверие 1) [00A67252]
Трек 13 точное извлечение (доверие 1) [47F2C054]
Трек 14 точность не определена (достоверность 1) [F0C616F5], AccurateRip вернул [ACE20C9F]
Трек 15 точность не определена (достоверность 1) [7B4EB73E], AccurateRip вернул [B386ECEC]
Трек 16 точное извлечение (доверие 1) [3EEB76A8]
Трек 17 точное извлечение (доверие 1) [23E0B006]
Трек 18 точность не определена (достоверность 1) [DA14FF6B], AccurateRip вернул [4B913843]
Трек 19 точность не определена (достоверность 1) [7313DEE4], AccurateRip вернул [994E9C36]

15 трек(и) скопированы точно
4 трек(и) не удалось проверить на точность

Некоторые треки не прошли проверку на точность

Конец отчёта

"Log 2"
Exact Audio Copy V0.99 prebeta 5 from 4. May 2009

Отчёт EAC об извлечении, выполненном 10. мая 2013, 0:11

Aftermath / 25 Years Of Chaos (CD 2)

Дисковод: MATSHITADVD-RAM UJ8A0AS Adapter: 0 ID: 1

Режим чтения : Достоверность
Использование точного потока : Да
Отключение кэша аудио : Да
Использование указателей C2 : Нет

Коррекция смещения при чтении : 102
Способность читать области Lead-in и Lead-out : Нет
Заполнение пропущенных сэмплов тишиной : Да
Удаление блоков с тишиной в начале и конце : Нет
При вычислениях CRC использовались нулевые сэмплы : Да
Интерфейс : Встроенный Win32-интерфейс для Win NT/2000

Выходной формат : Пользовательский кодировщик
Выбранный битрейт : 1024 kBit/s
Качество : Высокий
Добавление ID3-тэга : Нет
Утилита сжатия : C:\Program Files\Exact Audio Copy\FLAC\FLAC.EXE
Дополнительные параметры : -6 -V -T "ARTIST=%a" -T "TITLE=%t" -T "ALBUM=%g" -T "DATE=%y" -T "TRACKNUMBER=%n" -T "GENRE=%m" -T "COMMENT=%e" %s -o %d


TOC извлечённого CD

Трек | Старт | Длительность | Начальный сектор | Конечный сектор
---------------------------------------------------------------------
1 | 0:00.00 | 6:11.25 | 0 | 27849
2 | 6:11.25 | 3:46.05 | 27850 | 44804
3 | 9:57.30 | 4:25.70 | 44805 | 64749
4 | 14:23.25 | 8:22.42 | 64750 | 102441
5 | 22:45.67 | 3:38.73 | 102442 | 118864
6 | 26:24.65 | 5:43.15 | 118865 | 144604
7 | 32:08.05 | 7:41.27 | 144605 | 179206
8 | 39:49.32 | 4:09.30 | 179207 | 197911
9 | 43:58.62 | 6:13.58 | 197912 | 225944
10 | 50:12.45 | 5:09.35 | 225945 | 249154
11 | 55:22.05 | 0:48.70 | 249155 | 252824
12 | 56:11.00 | 4:30.56 | 252825 | 273130
13 | 60:41.56 | 5:05.67 | 273131 | 296072
14 | 65:47.48 | 5:04.48 | 296073 | 318920
15 | 70:52.21 | 5:44.48 | 318921 | 344768


Характеристики диапазона извлечения и сообщения об ошибках

Выбранный диапазон

Имя файла C:\Users\эксперт\Music\Aftermath - 25 Years Of Chaos (CD 2).wav

Подозрительная позиция 0:19:10
Подозрительная позиция 0:40:53 - 0:40:56
Подозрительная позиция 0:43:34
Подозрительная позиция 0:47:10
Подозрительная позиция 0:47:12
Подозрительная позиция 0:53:35 - 0:53:36
Подозрительная позиция 0:57:04
Подозрительная позиция 0:57:50
Подозрительная позиция 0:57:52
Подозрительная позиция 1:03:00
Подозрительная позиция 1:11:08
Подозрительная позиция 1:11:14
Подозрительная позиция 1:13:26 - 1:13:38
Подозрительная позиция 1:16:01

Пиковый уровень 99.7 %
Качество диапазона 98.9 %
CRC копии 88B93D14
Копирование завершено

Были ошибки


AccurateRip: сводка

Трек 1 точность не определена (достоверность 1) [85195651], AccurateRip вернул [A87DE305]
Трек 2 точность не определена (достоверность 1) [8C5602EC], AccurateRip вернул [6472ED6D]
Трек 3 точность не определена (достоверность 1) [3B1E8CBB], AccurateRip вернул [14F18564]
Трек 4 точность не определена (достоверность 1) [BDEFBC23], AccurateRip вернул [8B74DADF]
Трек 5 точность не определена (достоверность 1) [280867ED], AccurateRip вернул [8E6C8EF5]
Трек 6 точность не определена (достоверность 1) [3D6B8D01], AccurateRip вернул [1C669899]
Трек 7 точность не определена (достоверность 1) [793D263A], AccurateRip вернул [5D0D50D6]
Трек 8 точность не определена (достоверность 1) [1945C17C], AccurateRip вернул [8A1EFF8C]
Трек 9 точность не определена (достоверность 1) [492148C7], AccurateRip вернул [241BA41A]
Трек 10 точность не определена (достоверность 1) [F223801B], AccurateRip вернул [7E978B3E]
Трек 11 точность не определена (достоверность 1) [4405B97D], AccurateRip вернул [2B27C76C]
Трек 12 точность не определена (достоверность 1) [267F66B9], AccurateRip вернул [C09B484C]
Трек 13 точность не определена (достоверность 1) [4AA0C836], AccurateRip вернул [EC00EBBB]
Трек 14 точность не определена (достоверность 1) [4BCE54AB], AccurateRip вернул [BC93F0F9]
Трек 15 точность не определена (достоверность 1) [D2E4B3A2], AccurateRip вернул [F5A48873]

Ни один трек не прошёл проверки на точность

Конец отчёта

"Log 3"
Exact Audio Copy V0.99 prebeta 5 from 4. May 2009

Отчёт EAC об извлечении, выполненном 10. мая 2013, 15:28

Aftermath / 25 Years Of Chaos (CD 3)

Дисковод: MATSHITADVD-RAM UJ8A0AS Adapter: 0 ID: 1

Режим чтения : Достоверность
Использование точного потока : Да
Отключение кэша аудио : Да
Использование указателей C2 : Нет

Коррекция смещения при чтении : 102
Способность читать области Lead-in и Lead-out : Нет
Заполнение пропущенных сэмплов тишиной : Да
Удаление блоков с тишиной в начале и конце : Нет
При вычислениях CRC использовались нулевые сэмплы : Да
Интерфейс : Встроенный Win32-интерфейс для Win NT/2000

Выходной формат : Пользовательский кодировщик
Выбранный битрейт : 1024 kBit/s
Качество : Высокий
Добавление ID3-тэга : Нет
Утилита сжатия : C:\Program Files\Exact Audio Copy\FLAC\FLAC.EXE
Дополнительные параметры : -6 -V -T "ARTIST=%a" -T "TITLE=%t" -T "ALBUM=%g" -T "DATE=%y" -T "TRACKNUMBER=%n" -T "GENRE=%m" -T "COMMENT=%e" %s -o %d


TOC извлечённого CD

Трек | Старт | Длительность | Начальный сектор | Конечный сектор
---------------------------------------------------------------------
1 | 0:00.00 | 3:56.33 | 0 | 17732
2 | 3:56.33 | 4:20.05 | 17733 | 37237
3 | 8:16.38 | 2:16.05 | 37238 | 47442
4 | 10:32.43 | 2:11.69 | 47443 | 57336
5 | 12:44.37 | 1:34.05 | 57337 | 64391
6 | 14:18.42 | 4:35.72 | 64392 | 85088
7 | 18:54.39 | 2:18.02 | 85089 | 95440
8 | 21:12.41 | 3:46.07 | 95441 | 112397
9 | 24:58.48 | 3:16.50 | 112398 | 127147
10 | 28:15.23 | 2:38.49 | 127148 | 139046
11 | 30:53.72 | 5:47.43 | 139047 | 165114
12 | 36:41.40 | 4:46.26 | 165115 | 186590
13 | 41:27.66 | 4:51.48 | 186591 | 208463
14 | 46:19.39 | 2:55.71 | 208464 | 221659
15 | 49:15.35 | 2:07.62 | 221660 | 231246
16 | 51:23.22 | 3:38.63 | 231247 | 247659
17 | 55:02.10 | 3:32.61 | 247660 | 263620
18 | 58:34.71 | 7:57.38 | 263621 | 299433
19 | 66:32.34 | 3:54.05 | 299434 | 316988
20 | 70:26.39 | 4:13.71 | 316989 | 336034
21 | 74:40.35 | 4:33.32 | 336035 | 356541


Характеристики диапазона извлечения и сообщения об ошибках

Выбранный диапазон

Имя файла C:\Users\эксперт\Music\Aftermath - 25 Years Of Chaos (CD 3).wav

Подозрительная позиция 0:45:18
Подозрительная позиция 0:47:26 - 0:47:29
Подозрительная позиция 0:51:12
Подозрительная позиция 0:54:13
Подозрительная позиция 1:07:20
Подозрительная позиция 1:09:41 - 1:09:42
Подозрительная позиция 1:11:09
Подозрительная позиция 1:11:44
Подозрительная позиция 1:11:47 - 1:11:50
Подозрительная позиция 1:11:53
Подозрительная позиция 1:15:34 - 1:15:35
Подозрительная позиция 1:15:39

Пиковый уровень 100.0 %
Качество диапазона 99.2 %
CRC копии 748D25E1
Копирование завершено

Были ошибки


AccurateRip: сводка

Трек 1 точность не определена (достоверность 1) [70AD9CB5], AccurateRip вернул [D994B809]
Трек 2 точность не определена (достоверность 1) [5B4002E7], AccurateRip вернул [1F3B84B1]
Трек 3 точность не определена (достоверность 1) [DE776D42], AccurateRip вернул [5DEBE6F2]
Трек 4 точность не определена (достоверность 1) [8E0DA73F], AccurateRip вернул [58813EB5]
Трек 5 точность не определена (достоверность 1) [9D7C28E5], AccurateRip вернул [EB43A1D9]
Трек 6 точность не определена (достоверность 1) [5369C5A7], AccurateRip вернул [563FE450]
Трек 7 точность не определена (достоверность 1) [B35F9D11], AccurateRip вернул [F8675D1F]
Трек 8 точность не определена (достоверность 1) [F4884E00], AccurateRip вернул [3220F7B7]
Трек 9 точность не определена (достоверность 1) [20233C8B], AccurateRip вернул [D4D97F36]
Трек 10 точность не определена (достоверность 1) [90DA77EB], AccurateRip вернул [B7977006]
Трек 11 точность не определена (достоверность 1) [13F9865B], AccurateRip вернул [2882CADF]
Трек 12 точность не определена (достоверность 1) [ACC9E05C], AccurateRip вернул [D26AC5FE]
Трек 13 точность не определена (достоверность 1) [A02DAAB1], AccurateRip вернул [3FF87595]
Трек 14 точность не определена (достоверность 1) [724C304E], AccurateRip вернул [373F1210]
Трек 15 точность не определена (достоверность 1) [38558C66], AccurateRip вернул [46B82113]
Трек 16 точность не определена (достоверность 1) [16CCB9B9], AccurateRip вернул [0A6B4279]
Трек 17 точность не определена (достоверность 1) [3A9A4A9B], AccurateRip вернул [458D94AD]
Трек 18 точность не определена (достоверность 1) [F65B8848], AccurateRip вернул [596632D0]
Трек 19 точность не определена (достоверность 1) [15FA8586], AccurateRip вернул [16AD84B3]
Трек 20 точность не определена (достоверность 1) [710ECE26], AccurateRip вернул [971787DC]
Трек 21 точность не определена (достоверность 1) [05010F73], AccurateRip вернул [124BBAF0]

Ни один трек не прошёл проверки на точность

Конец отчёта


CD 1
CD 2
CD 3


Top
 Profile  
 
 
PostPosted: 13 Oct 2013 
\m/ 80 см сала \m/
User avatar
Joined: 12 Mar 2012
Posts: 2590
Age: 26
Name: Nick
Огогошеньки :shok:
Спасибо, Сергей! Обязательно послушаю в течении грядущей рабочей недели :slo:

_________________
1990 AUROPHON BRAINSTORM (Germany) - lossless
1994 MAUSOLEUM CLASSIX (Belgium-Germany) - lossless
1998 VA - GRIM HARVEST - Complete Metal Massacre Volumes I-XII


Top
 Profile  
 
 
PostPosted: 13 Oct 2013 
Хиппей (support team)
User avatar
Joined: 30 Jul 2007
Posts: 111863
Lоcаtion: Киев (Kyiv, UA)
Age: 45
Name: Andrey
:thanx: И пока плевать на ошибки :dance:

_________________


Top
 Profile E-mail  
 
 
PostPosted: 13 Oct 2013 
\m/ 80 см сала \m/
User avatar
Joined: 12 Mar 2012
Posts: 2590
Age: 26
Name: Nick
thorbeorn wrote:
Первый диск сграбился без проблем, два с ошибками.Пробовал на трёх приводах.Результат один и тот же...

Label:AreaDeath Productions - китайцы же :pardon:

AreaDeath Productions
GuLou est. Rd 157# - DongCheng district
Beijing-China 100009
areadeath.net

_________________
1990 AUROPHON BRAINSTORM (Germany) - lossless
1994 MAUSOLEUM CLASSIX (Belgium-Germany) - lossless
1998 VA - GRIM HARVEST - Complete Metal Massacre Volumes I-XII


Top
 Profile  
 
 
PostPosted: 13 Oct 2013 
Генеральный thrasher
User avatar
Joined: 03 Oct 2008
Posts: 3696
Lоcаtion: Ханты-Мансийский АО
Age: 44
Name: Сергей
Ну и что - что китайцы?Они столько интересных CD выпустили...У меня несколько дисков от этой конторы.И все грабились нормально.Многие диски от известнейших фирм грабятся с ошибками.


Top
 Profile  
 
 
PostPosted: 13 Oct 2013 
\m/ 80 см сала \m/
User avatar
Joined: 12 Mar 2012
Posts: 2590
Age: 26
Name: Nick
Да шутю, я шутю - давно уже избавился от предвзятости к китайской промышленности :oops:

_________________
1990 AUROPHON BRAINSTORM (Germany) - lossless
1994 MAUSOLEUM CLASSIX (Belgium-Germany) - lossless
1998 VA - GRIM HARVEST - Complete Metal Massacre Volumes I-XII


Top
 Profile  
 
 
PostPosted: 13 Oct 2013 
Хиппей (support team)
User avatar
Joined: 30 Jul 2007
Posts: 111863
Lоcаtion: Киев (Kyiv, UA)
Age: 45
Name: Andrey
Лихо они http://adp.areadeath.net , однако :lloo:

_________________


Top
 Profile E-mail  
 
 
PostPosted: 13 Oct 2013 
Хиппей (support team)
User avatar
Joined: 30 Jul 2007
Posts: 111863
Lоcаtion: Киев (Kyiv, UA)
Age: 45
Name: Andrey
thorbeorn wrote:
CD 1:

mirror: Narod

Кстати, отличный звук, отличный хардкор, постепенно переходящий в трэшак, отличная сборка демок :true:
Слушаю второй диск...

_________________


Top
 Profile E-mail  
 
 
PostPosted: 13 Oct 2013 
Хиппей (support team)
User avatar
Joined: 30 Jul 2007
Posts: 111863
Lоcаtion: Киев (Kyiv, UA)
Age: 45
Name: Andrey
thorbeorn wrote:
CD 2


mirror: Narod

Хороший такой техно-трэш :dance:
Но раннее творчестве мне всё же больше нравилось.

> 13.10.2013 20:28:22, Scatterbrain©
> кокой уджоас на втроом альбоме афтермата
> бонусы заловые
> 13.10.2013 20:29:14, Scatterbrain©
> прикинь, слушаешь ты на всю мощу диск,
> расслабился в кресле и тут заканчивается полный
> альбом и...
> и всё. глына, вызывай паталогоанатомов
> 13.10.2013 20:29:29, Scatterbrain©
> тьху
> 13.10.2013 20:29:38, Scatterbrain©
> чо это ты вдруг
> димитарчег
> 13.10.2013 20:29:51, Scatterbrain©
> хотя он тяжелее мелодик хеви ничо не слушает

_________________


Top
 Profile E-mail  
 
 
PostPosted: 13 Oct 2013 
Хиппей (support team)
User avatar
Joined: 30 Jul 2007
Posts: 111863
Lоcаtion: Киев (Kyiv, UA)
Age: 45
Name: Andrey
thorbeorn wrote:
CD 3


mirror: Narod

Ваще ништяк, дикий хардкор и животрепещущий угар :kz:

_________________


Top
 Profile E-mail  
 
 
PostPosted: 14 Oct 2013 
ТрэшЭрос
User avatar
Joined: 18 Jul 2011
Posts: 2303
Lоcаtion: Гулькевичи
Age: 44
Name: Александр
:thanx:

_________________
Thrash no trash!!!


Top
 Profile E-mail  
 
 
PostPosted: 02 Apr 2017 
Доктор энтомологии
User avatar
Joined: 22 Jan 2009
Posts: 9694
Lоcаtion: Даугавпилс
Age: 44
Name: Алексей
:pray:


Top
 Profile  
 
 
PostPosted: 02 Apr 2017 
консэрваторъ
User avatar
Joined: 11 Aug 2007
Posts: 16841
Lоcаtion: Псков
Age: 45
Name: Сергей
Послушал альбом... пурга, простите... :vic:

_________________
THRASH 'EM ALL


Top
 Profile E-mail  
 
 
PostPosted: 02 Apr 2017 
Доктор энтомологии
User avatar
Joined: 22 Jan 2009
Posts: 9694
Lоcаtion: Даугавпилс
Age: 44
Name: Алексей
Офигенные демки и полноформатник. Что-то есть от разных техничных швейцарцев и от Blind Illusion. Полноформатник просто чума - много экспериментов и джаза. В восторге :lob: И свое лицо есть, такое не потеряется, как вся эта куча современных одинаковых с лица, которые выходят в день по альбому. Ливчики вот не слушал пока, не особо их люблю


Top
 Profile  
 
 
PostPosted: 03 Apr 2017 
консэрваторъ
User avatar
Joined: 11 Aug 2007
Posts: 16841
Lоcаtion: Псков
Age: 45
Name: Сергей
Entomologist wrote:
свое лицо есть, такое не потеряется

Image

_________________
THRASH 'EM ALL


Top
 Profile E-mail  
 
 
PostPosted: 03 Apr 2017 
Генеральный thrasher
User avatar
Joined: 03 Oct 2008
Posts: 3696
Lоcаtion: Ханты-Мансийский АО
Age: 44
Name: Сергей
Послушал альбом... пурга, простите... :vic:


Пурга? А как тебе этот Aftermath,Серёга?

http://www.metal-archives.com/bands/Aftermath/1857


Top
 Profile  
 
 
PostPosted: 03 Apr 2017 
консэрваторъ
User avatar
Joined: 11 Aug 2007
Posts: 16841
Lоcаtion: Псков
Age: 45
Name: Сергей
А тот я не слушал... стоит?..

_________________
THRASH 'EM ALL


Top
 Profile E-mail  
 
 
PostPosted: 03 Apr 2017 
Генеральный thrasher
User avatar
Joined: 03 Oct 2008
Posts: 3696
Lоcаtion: Ханты-Мансийский АО
Age: 44
Name: Сергей
Я скажу,что стоит...а ты опять скажешь пурга! :benya: Мне нравится.Просто я думал,что ты знаком и с этим Aftermath.


Top
 Profile  
 
 
PostPosted: 03 Apr 2017 
консэрваторъ
User avatar
Joined: 11 Aug 2007
Posts: 16841
Lоcаtion: Псков
Age: 45
Name: Сергей
Серёг, ты ж знаешь, что я с тэкникал прогресивом не дружу... очень редко, когда навеет...
А там павер/трасх 88-ого года... воткнул на тубе... ууууууу... не... потом на пенсии... :vic:

_________________
THRASH 'EM ALL


Top
 Profile E-mail  
 
 
PostPosted: 03 Apr 2017 
Доктор энтомологии
User avatar
Joined: 22 Jan 2009
Posts: 9694
Lоcаtion: Даугавпилс
Age: 44
Name: Алексей
Второй американский Aftermath мне тоже нравится, но в меньшей степени, чем технический. А вот какой-то американский современный Aftermath (http://www.metal-archives.com/bands/Aftermath/126734) - не понравился. В моем случае как раз наоборот, дружу с навороченными группами :meloman: Паучок, Серега, прикольный! Очень красивый


Top
 Profile  
 
Display posts from previous:  Sort by  
Post new topic Reply to topic  [ 37 posts ]  Go to page 1, 2  Next

All times are UTC + 3 hours


Who is online

Users browsing this forum: splatty and 4 guests


You cannot post new topics in this forum
You cannot reply to topics in this forum
You cannot edit your posts in this forum
You cannot delete your posts in this forum
You cannot post attachments in this forum

Search for:
Яндекс.Метрика
Powered by phpBB © 2000, 2002, 2005, 2007 phpBB Group