\m/ 80's metal \m/

Информационно-аналитический форум "80 см пыли" (In Search We Trust) "У нас никто никуда не спешит"
Me For You - http://me-4u.com
It is currently 17 Jul 2019

All times are UTC + 3 hours

Spoiler
Chat - temporary registration for foreign users (please leave your application here)







Post new topic Reply to topic  [ 40 posts ]  Go to page 1, 2  Next
Author Message
 
PostPosted: 22 Dec 2008 
хард н хэвщик (support team)
User avatar
Joined: 02 Jun 2008
Posts: 16881
Lоcаtion: Н.Новгород
Age: 32
Name: Артем
Xalt - History 1991

Image

Лейбл: Pure Metal
Стиль: Melodic Hard Rock
Страна:USA
Формат: APE + cue + log
Размер: 267 Mb

Line-up :
Scott Doerfler - Lead Vocals
James Erdman - Guitars
Randy Carlson - Bass

Tracklist:
1. Standing 04:02
2. Heart of Stone 04:32
3. Babel Again 03:45
4. Walk Away 03:07
5. Unconditional Love 05:02
6. History 02:58
7. Build My World 04:30
8. The Tree 04:30
9. Reflection 04:14
10. Lord, Lord 01:25
Total playing time 38:05

==============================DOWNLOAD==============================
:meloman:
:meloman: :meloman:
:meloman: :meloman: :meloman:

или:

IFOLDER 1
IFOLDER 2
IFOLDER 3


Last edited by McKagan on 23 Mar 2010, edited 2 times in total.

Top
 Profile  
 
 
PostPosted: 22 Dec 2008 
труъ антисионист
User avatar
Joined: 01 Aug 2007
Posts: 4544
Lоcаtion: Откуда и большинство из нас
Age: 38
Name: Дядя Вова
:thanx:

_________________
Image
Image


Top
 Profile  
 
 
PostPosted: 22 Dec 2008 
Хиппей (support team)
User avatar
Joined: 30 Jul 2007
Posts: 113522
Lоcаtion: Киев (Kyiv, UA)
Age: 46
Name: Andrey
    :thanx:


mirrors:
http://ifolder.ru/9680446
http://ifolder.ru/9680516
http://ifolder.ru/9680565


Top
 Profile E-mail  
 
 
PostPosted: 22 Dec 2008 
хард н хэвщик (support team)
User avatar
Joined: 02 Jun 2008
Posts: 16881
Lоcаtion: Н.Новгород
Age: 32
Name: Артем
а ну у бирай свои зеркала, у меня свои :crazy:


Top
 Profile  
 
 
PostPosted: 22 Dec 2008 
Хиппей (support team)
User avatar
Joined: 30 Jul 2007
Posts: 113522
Lоcаtion: Киев (Kyiv, UA)
Age: 46
Name: Andrey
А мои поновее будут :crazy:
зы. И ты чего свои так долго постил? :oops:


Top
 Profile E-mail  
 
 
PostPosted: 22 Dec 2008 
Хиппей (support team)
User avatar
Joined: 30 Jul 2007
Posts: 113522
Lоcаtion: Киев (Kyiv, UA)
Age: 46
Name: Andrey
Кстати, а остальные три альбома есть в лосях? :umnik:


Top
 Profile E-mail  
 
 
PostPosted: 22 Dec 2008 
хард н хэвщик (support team)
User avatar
Joined: 02 Jun 2008
Posts: 16881
Lоcаtion: Н.Новгород
Age: 32
Name: Артем
Scatterbrain wrote:
зы. И ты чего свои так долго постил?

на работу убегал, некогда было :pardon:
Scatterbrain wrote:
Кстати, а остальные три альбома есть в лосях?

остальных нет, но я слышал пару песен с первого - это стремный хэви метал (как мне тогда показалось )


Top
 Profile  
 
 
PostPosted: 22 Dec 2008 
хард н хэвщик (support team)
User avatar
Joined: 02 Jun 2008
Posts: 16881
Lоcаtion: Н.Новгород
Age: 32
Name: Артем
Scatterbrain wrote:
Кстати, а остальные три альбома есть в лосях?

а на кой тебе, я ж спрашивал вчера, ты не сильно рвался послушать этот диск :crazy:


Top
 Profile  
 
 
PostPosted: 22 Dec 2008 
Хиппей (support team)
User avatar
Joined: 30 Jul 2007
Posts: 113522
Lоcаtion: Киев (Kyiv, UA)
Age: 46
Name: Andrey
McKagan wrote:
а на кой тебе

А вот как раз мне первые их работы должны больше понравится :dance:
Хм, и всё равно не могу вспомнить, где в этом году группу в тырнете встречал... :dash:

McKagan wrote:
на работу убегал, некогда было

Так так бы и сказал - будут позже. А то я ж аки стервятник :oops:


Top
 Profile E-mail  
 
 
PostPosted: 03 Jan 2012 
Работнечег
User avatar
Joined: 28 Aug 2007
Posts: 5916
Lоcаtion: г. Москва
Age: 30
Name: Дима
Image

Year: 1997
Label: Kalubone Records
Country: USA
Style: Hard Rock/AOR
Format: Flac + Cue + Log + Covers
Size: Mb

Line-Up:
Scott Doerfler - Vocals
James Erdman - All Guitars
Randy Carlson - Bass
Bob Grundner - Drums and Percussion
Paul O'Jibway - Hammond B3 on "Security"
David Boyer - Additional Keyboards and Programming


Tracklist:
1. Choose 03:26
2. Future Flyaway 04:07
3. Security 01:53
4. Pizza Driver 04:49
5. Helium Blue Gazebo 03:22
6. Love Will 03:49
7. Found a Reason 03:41
8. Winds of Change 04:18
9. Witch Hunt 04:47
10. The River 04:27
Total playing time 38:39

LOG
Exact Audio Copy V0.99 prebeta 5 from 4. May 2009

EAC extraction logfile from 16. October 2011, 13:28

Xalt / Helium Blue Gazebo

Used drive : PIONEER DVD-RW DVR-116D Adapter: 0 ID: 0

Read mode : Secure
Utilize accurate stream : Yes
Defeat audio cache : Yes
Make use of C2 pointers : No

Read offset correction : 96
Overread into Lead-In and Lead-Out : No
Fill up missing offset samples with silence : Yes
Delete leading and trailing silent blocks : No
Null samples used in CRC calculations : Yes
Used interface : Native Win32 interface for Win NT & 2000

Used output format : User Defined Encoder
Selected bitrate : 32 kBit/s
Quality : High
Add ID3 tag : No
Command line compressor : C:\Program Files\Exact Audio Copy\Flac\flac.exe
Additional command line options : -6 -V %s


TOC of the extracted CD

Track | Start | Length | Start sector | End sector
---------------------------------------------------------
1 | 0:00.00 | 3:26.34 | 0 | 15483
2 | 3:26.34 | 4:07.56 | 15484 | 34064
3 | 7:34.15 | 1:53.07 | 34065 | 42546
4 | 9:27.22 | 4:49.48 | 42547 | 64269
5 | 14:16.70 | 3:22.61 | 64270 | 79480
6 | 17:39.56 | 3:49.33 | 79481 | 96688
7 | 21:29.14 | 3:41.30 | 96689 | 113293
8 | 25:10.44 | 4:18.42 | 113294 | 132685
9 | 29:29.11 | 4:47.56 | 132686 | 154266
10 | 34:16.67 | 4:27.35 | 154267 | 174326


Range status and errors

Selected range

Filename D:\Музыка\Lossless\Xalt - Helium Blue Gazebo (1997)\Xalt - Helium Blue Gazebo.wav

Peak level 84.1 %
Range quality 99.9 %
Copy CRC 1F986952
Copy OK

No errors occurred


AccurateRip summary

Track 1 not present in database
Track 2 not present in database
Track 3 not present in database
Track 4 not present in database
Track 5 not present in database
Track 6 not present in database
Track 7 not present in database
Track 8 not present in database
Track 9 not present in database
Track 10 not present in database

None of the tracks are present in the AccurateRip database

End of status report

CUE
REM GENRE Rock
REM DATE 1997
REM DISCID 8109140A
REM COMMENT "ExactAudioCopy v0.99pb5"
PERFORMER "Xalt"
TITLE "Helium Blue Gazebo"
FILE "Xalt - Helium Blue Gazebo.flac" WAVE
TRACK 01 AUDIO
TITLE "Choose"
PERFORMER "Xalt"
FLAGS DCP
INDEX 01 00:00:00
TRACK 02 AUDIO
TITLE "Future Flyaway"
PERFORMER "Xalt"
FLAGS DCP
INDEX 00 03:24:64
INDEX 01 03:26:34
TRACK 03 AUDIO
TITLE "Security"
PERFORMER "Xalt"
FLAGS DCP
INDEX 00 07:32:45
INDEX 01 07:34:15
TRACK 04 AUDIO
TITLE "Pizza Driver"
PERFORMER "Xalt"
FLAGS DCP
INDEX 00 09:25:52
INDEX 01 09:27:22
TRACK 05 AUDIO
TITLE "Helium Blue Gazebo"
PERFORMER "Xalt"
FLAGS DCP
INDEX 00 14:15:25
INDEX 01 14:16:70
TRACK 06 AUDIO
TITLE "Love Will"
PERFORMER "Xalt"
FLAGS DCP
INDEX 00 17:38:11
INDEX 01 17:39:56
TRACK 07 AUDIO
TITLE "Found A Reason"
PERFORMER "Xalt"
FLAGS DCP
INDEX 00 21:27:44
INDEX 01 21:29:14
TRACK 08 AUDIO
TITLE "Winds Of Change"
PERFORMER "Xalt"
FLAGS DCP
INDEX 00 25:08:74
INDEX 01 25:10:44
TRACK 09 AUDIO
TITLE "Witch Hunt"
PERFORMER "Xalt"
FLAGS DCP
INDEX 00 29:27:41
INDEX 01 29:29:11
TRACK 10 AUDIO
TITLE "The River"
PERFORMER "Xalt"
FLAGS DCP
INDEX 00 34:15:22
INDEX 01 34:16:67


Narod.Ru

За предоставленный диск все спасибо уходят Саше spryt777!


Top
 Profile E-mail  
 
 
PostPosted: 03 Jan 2012 
хард н хэвщик (support team)
User avatar
Joined: 02 Jun 2008
Posts: 16881
Lоcаtion: Н.Новгород
Age: 32
Name: Артем
спасибо мужики! :true: :true:


Top
 Profile  
 
 
PostPosted: 03 Jan 2012 
хард н хэвщик (support team)
User avatar
Joined: 02 Jun 2008
Posts: 16881
Lоcаtion: Н.Новгород
Age: 32
Name: Артем
booklet-4 из архива немножко не влез в сканер или так обрезали не очень аккуратно :oops:


Top
 Profile  
 
 
PostPosted: 03 Jan 2012 
Работнечег
User avatar
Joined: 28 Aug 2007
Posts: 5916
Lоcаtion: г. Москва
Age: 30
Name: Дима
отсканировал я не очень аккуратно, а диск у Сашки уже давно :fingal:


Top
 Profile E-mail  
 
 
PostPosted: 04 Jan 2012 
спирт 100%
User avatar
Joined: 22 Sep 2008
Posts: 4442
Age: 47
Name: Саня
:true: :true: :true:


Top
 Profile  
 
 
PostPosted: 04 Jan 2012 
Хиппей (support team)
User avatar
Joined: 30 Jul 2007
Posts: 113522
Lоcаtion: Киев (Kyiv, UA)
Age: 46
Name: Andrey
:thanx: :thanx:

mirror: MultiUp l Narod

_________________


Top
 Profile E-mail  
 
 
PostPosted: 04 Jan 2012 
Персональный статус
User avatar
Joined: 02 Jul 2009
Posts: 299
Name: Александр
Спасибо !!!!!!!! :thanx: :thanx: :thanx:


Top
 Profile E-mail  
 
 
PostPosted: 30 Mar 2012 
Персональный статус
User avatar
Joined: 29 Sep 2009
Posts: 271
Lоcаtion: Надым
Age: 40
Name: Виталий
XALT - Under The Ruins (1990)

Image

Жанр: Melodic Heavy Metal
Страна-производитель диска: U.S.A
Год издания диска: 1990
Издатель (лейбл): Pure Metal
Номер по каталогу: SPCN7900603808
Страна: U.S.A
Аудиокодек: FLAC (*.flac)
Тип рипа: image+.cue (test & copy)
Битрейт аудио: lossless
Продолжительность: 39:31
Источник: собственный рип
Сканы: есть

Image

1. Through The Night 3:47
2. Forgiven 2:48
3. Under The Ruins 4:03
4. Waste Your Life Away 3:31
5. Lost Without You 4:06
6. Piercing Thedarkness 4:50
7. The Fortress 2:48
8. Wounded Heart 4:47
9. The Kingdom Within 2:53
10. Lift Him Up 3:33
11. Take A Look (CD bonus track) 2:25

log
Exact Audio Copy V1.0 beta 3 from 29. August 2011

EAC extraction logfile from 29. March 2012, 22:49

Xalt / Under The Ruins

Used drive : SlimtypeDVD A DS8A5SH Adapter: 0 ID: 1

Read mode : Secure
Utilize accurate stream : Yes
Defeat audio cache : Yes
Make use of C2 pointers : No

Read offset correction : 6
Overread into Lead-In and Lead-Out : No
Fill up missing offset samples with silence : Yes
Delete leading and trailing silent blocks : No
Null samples used in CRC calculations : Yes
Used interface : Native Win32 interface for Win NT & 2000

Used output format : User Defined Encoder
Selected bitrate : 320 kBit/s
Quality : High
Add ID3 tag : No
Command line compressor : C:\Program Files (x86)\Exact Audio Copy\Flac\flac.exe
Additional command line options : -V -8 -T "Date=%year%" -T "Genre=%genre%" %source%


TOC of the extracted CD

Track | Start | Length | Start sector | End sector
---------------------------------------------------------
1 | 0:00.00 | 3:47.25 | 0 | 17049
2 | 3:47.25 | 2:48.50 | 17050 | 29699
3 | 6:36.00 | 4:03.25 | 29700 | 47949
4 | 10:39.25 | 3:31.43 | 47950 | 63817
5 | 14:10.68 | 4:06.32 | 63818 | 82299
6 | 18:17.25 | 4:50.60 | 82300 | 104109
7 | 23:08.10 | 2:48.43 | 104110 | 116752
8 | 25:56.53 | 4:47.47 | 116753 | 138324
9 | 30:44.25 | 2:53.00 | 138325 | 151299
10 | 33:37.25 | 3:33.43 | 151300 | 167317
11 | 37:10.68 | 2:25.05 | 167318 | 178197


Range status and errors

Selected range

Filename D:\My Music\Xalt - 1988 Under The Ruins\Xalt - Under The Ruins.wav

Peak level 89.1 %
Extraction speed 4.1 X
Range quality 100.0 %
Test CRC 00A52234
Copy CRC 00A52234
Copy OK

No errors occurred


AccurateRip summary

Track 1 accurately ripped (confidence 1) [5C037B4A] (AR v1)
Track 2 accurately ripped (confidence 1) [8267E21F] (AR v1)
Track 3 accurately ripped (confidence 1) [2234060B] (AR v1)
Track 4 accurately ripped (confidence 1) [ECFB7E0C] (AR v1)
Track 5 accurately ripped (confidence 1) [91D536CB] (AR v1)
Track 6 accurately ripped (confidence 1) [989321A7] (AR v1)
Track 7 accurately ripped (confidence 1) [15B70CC3] (AR v1)
Track 8 accurately ripped (confidence 1) [4E04A94D] (AR v1)
Track 9 accurately ripped (confidence 1) [AAB444A8] (AR v1)
Track 10 accurately ripped (confidence 1) [395CFAC5] (AR v1)
Track 11 accurately ripped (confidence 1) [8808DAA0] (AR v1)

All tracks accurately ripped

End of status report

==== Log checksum 26B9A434B750C4C8A8281B861AA28C5D872150AC0FB97335908B29CABBEE4EEF ====

cue
REM GENRE "Heavy Metal"
REM DATE 1990
REM DISCID 9809470B
REM COMMENT "ExactAudioCopy v1.0b3"
PERFORMER "Xalt"
TITLE "Under The Ruins"
FILE "Xalt - Under The Ruins.flac" WAVE
TRACK 01 AUDIO
TITLE "Through The Night"
PERFORMER "Xalt"
INDEX 01 00:00:00
TRACK 02 AUDIO
TITLE "Forgiven"
PERFORMER "Xalt"
INDEX 00 03:44:10
INDEX 01 03:47:25
TRACK 03 AUDIO
TITLE "Under The Ruins"
PERFORMER "Xalt"
INDEX 00 06:32:40
INDEX 01 06:36:00
TRACK 04 AUDIO
TITLE "Waste Your Life Away"
PERFORMER "Xalt"
INDEX 00 10:35:63
INDEX 01 10:39:25
TRACK 05 AUDIO
TITLE "Lost Without You"
PERFORMER "Xalt"
INDEX 00 14:07:03
INDEX 01 14:10:68
TRACK 06 AUDIO
TITLE "Piercing Thedarkness"
PERFORMER "Xalt"
INDEX 00 18:16:25
INDEX 01 18:17:25
TRACK 07 AUDIO
TITLE "The Fortress"
PERFORMER "Xalt"
INDEX 00 23:04:25
INDEX 01 23:08:10
TRACK 08 AUDIO
TITLE "Wounded Heart"
PERFORMER "Xalt"
INDEX 00 25:52:65
INDEX 01 25:56:53
TRACK 09 AUDIO
TITLE "The Kingdom Within"
PERFORMER "Xalt"
INDEX 00 30:42:18
INDEX 01 30:44:25
TRACK 10 AUDIO
TITLE "Lift Him Up"
PERFORMER "Xalt"
INDEX 00 33:34:13
INDEX 01 33:37:25
TRACK 11 AUDIO
TITLE "Take A Look"
PERFORMER "Xalt"
INDEX 00 37:08:35
INDEX 01 37:10:68

spectrum
Image


iFolder


Top
 Profile E-mail  
 
 
PostPosted: 30 Mar 2012 
Прокъмитолист
User avatar
Joined: 12 Aug 2007
Posts: 6574
Lоcаtion: Санктъ-Петербуркъ
Age: 51
Name: Олекъ
спасибо, забираем :thanx:

_________________
прокъметол - это музыко, от которово есть прок (ы)


Top
 Profile  
 
 
PostPosted: 30 Mar 2012 
А может смените мне статус?..
User avatar
Joined: 24 Dec 2008
Posts: 645
Age: 45
Name: Дмитрий
Спасибо, это что-то совсем неизвестное...


Top
 Profile  
 
 
PostPosted: 30 Mar 2012 
хард н хэвщик (support team)
User avatar
Joined: 02 Jun 2008
Posts: 16881
Lоcаtion: Н.Новгород
Age: 32
Name: Артем
о, крутяк!!! :true: :true: :true:


Top
 Profile  
 
Display posts from previous:  Sort by  
Post new topic Reply to topic  [ 40 posts ]  Go to page 1, 2  Next

All times are UTC + 3 hours


Who is online

Users browsing this forum: No registered users and 1 guest


You cannot post new topics in this forum
You cannot reply to topics in this forum
You cannot edit your posts in this forum
You cannot delete your posts in this forum
You cannot post attachments in this forum

Search for:
Яндекс.Метрика
cron
Powered by phpBB © 2000, 2002, 2005, 2007 phpBB Group