\m/ 80's metal \m/

Информационно-аналитический форум "80 см пыли" (In Search We Trust) "У нас никто никуда не спешит"
Me For You - http://me-4u.com
It is currently 21 Oct 2019

All times are UTC + 3 hours

Spoiler
Chat - temporary registration for foreign users (please leave your application here)







Post new topic Reply to topic  [ 105 posts ]  Go to page Previous  1, 2, 3, 4, 5, 6
Author Message
 
PostPosted: 20 Aug 2011 
Хиппей (support team)
User avatar
Joined: 30 Jul 2007
Posts: 114979
Lоcаtion: Киев (Kyiv, UA)
Age: 46
Name: Andrey
Tytan - 1984 - Rough Justice (reissued 2006) [flac]

Image Image

Genre: NWOBHM
Location: UK
Format: flac+log+cue+scans
Size: 406 Mb
(+ 3% recovery)

Line-up:

Kal Swan - vocals
Steve Gibbs - guitars
Steve Mann - guitars
Kevin Riddles - bass
Les Binks / Simon Wright - drums


1. Blind Men and Fools - 04:16
2. Money for Love - 03:16
3. Women on the Frontline - 04:19
4. Cold Bitch - 03:02
5. Ballad of Edward Case - 03:43
6. Rude Awakening - 04:56
7. The Watcher - 04:35
8. Far Cry - 03:23
9. Sadman - 04:22
10. Forever Gone - 02:55
11. Don't Play Their Way - 03:23
12. Far Side of Destiny - 04:43
13. Cold Bitch -
14. The Watcher -
15. Far Side of Destiny -
16. Blind Men and Fools -


MultiUp l Narod

Источник: из коллекции Speedyk :thanx:

Quote:
In 2004 Majestic Rock Records reissued the album on CD with four bonus tracks from a BBC Friday Rock Show session, as well as a DVD of a concert from 1982. The BBC session bonus tracks

http://www.rockunited.com/majesticrock.htm

CD test
Image
Image

:fingal:

log
Отчёт EAC об извлечении, выполненном 19. августа 2011, 19:11 для диска:
Tytan / Rough Justice

Дисковод: ASUS DRW-1814BL Adapter: 3 ID: 0
Режим чтения: Достоверный (C2: нет, Точный поток: да, Отключение кэша: да)
Коррекция смещения при чтении: 6
Способность читать области Lead-in и Lead-out : Нет

Выходной формат: Внутренние WAV-операции
44.100 Гц; 16 бит; стерео

Другие параметры:
Заполнение пропущенных сэмплов тишиной : Да
Удаление блоков с тишиной в начале и конце : Нет
Установленный внешний ASPI-интерфейс


Характеристики диапазона извлечения и сообщения об ошибках
Выбранный диапазон
Имя файла C:\Documents and Settings\Administrator\My Documents\Tytan\Tytan - Rough Justice.wav

Пиковый уровень 100.0 %
Качество диапазона 99.9 %
CRC 44050708
Копирование... OK

Ошибок не произошло

Конец отчёта


cue
REM GENRE "Heavy Metal"
REM DATE 1985
REM DISCID E00EA810
REM COMMENT "ExactAudioCopy v0.95b4"
PERFORMER "Tytan"
TITLE "Rough Justice"
FILE "Tytan - Rough Justice.wav" WAVE
TRACK 01 AUDIO
TITLE "Blind Men and Fools"
PERFORMER "Tytan"
INDEX 01 00:00:00
TRACK 02 AUDIO
TITLE "Money for Love"
PERFORMER "Tytan"
INDEX 00 04:17:25
INDEX 01 04:19:25
TRACK 03 AUDIO
TITLE "Women on the Frontline"
PERFORMER "Tytan"
INDEX 00 07:36:50
INDEX 01 07:38:50
TRACK 04 AUDIO
TITLE "Cold Bitch"
PERFORMER "Tytan"
INDEX 00 11:58:25
INDEX 01 12:00:25
TRACK 05 AUDIO
TITLE "Ballad of Edward Case"
PERFORMER "Tytan"
INDEX 00 15:04:25
INDEX 01 15:06:25
TRACK 06 AUDIO
TITLE "Rude Awakening"
PERFORMER "Tytan"
INDEX 00 18:52:00
INDEX 01 18:54:00
TRACK 07 AUDIO
TITLE "The Watcher"
PERFORMER "Tytan"
INDEX 00 23:50:50
INDEX 01 23:52:50
TRACK 08 AUDIO
TITLE "Far Cry"
PERFORMER "Tytan"
INDEX 00 28:29:00
INDEX 01 28:31:00
TRACK 09 AUDIO
TITLE "Sadman"
PERFORMER "Tytan"
INDEX 00 31:55:60
INDEX 01 31:57:60
TRACK 10 AUDIO
TITLE "Forever Gone"
PERFORMER "Tytan"
INDEX 00 36:22:25
INDEX 01 36:24:25
TRACK 11 AUDIO
TITLE "Don't Play Their Way"
PERFORMER "Tytan"
INDEX 00 39:21:25
INDEX 01 39:23:25
TRACK 12 AUDIO
TITLE "Far Side of Destiny"
PERFORMER "Tytan"
INDEX 00 42:48:00
INDEX 01 42:50:00
TRACK 13 AUDIO
TITLE "Cold Bitch (BBC Session)"
PERFORMER "Tytan"
INDEX 00 47:35:02
INDEX 01 47:37:02
TRACK 14 AUDIO
TITLE "The Watcher (BBC Session)"
PERFORMER "Tytan"
INDEX 00 50:38:36
INDEX 01 50:40:36
TRACK 15 AUDIO
TITLE "Far Side of Destiny (BBC Session)"
PERFORMER "Tytan"
INDEX 00 54:39:43
INDEX 01 54:41:43
TRACK 16 AUDIO
TITLE "Blind Men and Fools (BBC Session)"
PERFORMER "Tytan"
INDEX 00 59:15:13
INDEX 01 59:17:13


Tytan - 1984 - Rough Justice (reissued 2004) [DVD] (Live in London 1982) :arrow: viewtopic.php?f=5&t=10117

_________________


Top
 Profile E-mail  
 
 
PostPosted: 20 Jul 2017 
Доктор энтомологии
User avatar
Joined: 22 Jan 2009
Posts: 9927
Lоcаtion: Даугавпилс
Age: 44
Name: Алексей
Новый альбом мы долго, топая от нетерпения ножками, ждали, и, наконец, получили :meloman:
Tytan (U.K.) - Justice Served Full Album (2017)

Ничего так послушать, но, по сути, очередной скушный кам бэк :pardon:


Top
 Profile  
 
 
PostPosted: 20 Jul 2017 
дядя Миша
User avatar
Joined: 17 Oct 2008
Posts: 3190
Lоcаtion: USSR
Age: 57
Name: Khy
да так себе коллективчик, но новый альбом заслушаю .


Top
 Profile  
 
 
PostPosted: 21 Jul 2017 
Дежурный по КУПу
User avatar
Joined: 17 Aug 2007
Posts: 5871
Age: 51
Name: Ге
Entomologist wrote:
Tytan (U.K.) - Justice Served Full Album (2017)

Нормуль альбом, фоном пролетел только так, надо еще раз переслушать :true:

_________________
http://jp-mania.ru/
http://jp-tourdates.ucoz.ru/


Top
 Profile  
 
 
PostPosted: 21 Jul 2017 
Хиппей (support team)
User avatar
Joined: 30 Jul 2007
Posts: 114979
Lоcаtion: Киев (Kyiv, UA)
Age: 46
Name: Andrey
О, Ге ожил :true: :kro:

_________________


Top
 Profile E-mail  
 
 
PostPosted: 21 Jul 2017 
спирт 100%
User avatar
Joined: 22 Sep 2008
Posts: 4477
Age: 48
Name: Саня
German wrote:
О, Ге ожил

:lob: :drink:


Top
 Profile  
 
Display posts from previous:  Sort by  
Post new topic Reply to topic  [ 105 posts ]  Go to page Previous  1, 2, 3, 4, 5, 6

All times are UTC + 3 hours


Who is online

Users browsing this forum: No registered users and 1 guest


You cannot post new topics in this forum
You cannot reply to topics in this forum
You cannot edit your posts in this forum
You cannot delete your posts in this forum
You cannot post attachments in this forum

Search for:
Яндекс.Метрика
cron
Powered by phpBB © 2000, 2002, 2005, 2007 phpBB Group